osu file format v14

[General]
AudioFilename: audio.mp3
AudioLeadIn: 0
PreviewTime: 37618
Countdown: 0
SampleSet: Soft
StackLeniency: 0.2
Mode: 0
LetterboxInBreaks: 0
WidescreenStoryboard: 0

[Editor]
DistanceSpacing: 1
BeatDivisor: 4
GridSize: 4
TimelineZoom: 1

[Metadata]
Title:MIIRO (TV Size)
TitleUnicode:海色 (TV Size)
Artist:AKINO from bless4
ArtistUnicode:AKINO from bless4
Creator:Sonnyc
Version:Insane
Source:艦隊これくしょん -艦これ-
Tags:みいろ opening kantai collection kancolle tatoe japanese anime pop
BeatmapID:2437900
BeatmapSetID:1167072

[Difficulty]
HPDrainRate:5.5
CircleSize:4
OverallDifficulty:8
ApproachRate:8.8
SliderMultiplier:2
SliderTickRate:2

[Events]
//Background and Video events
0,0,"bg.jpg",0,0
//Break Periods
2,12388,16528
//Storyboard Layer 0 (Background)
//Storyboard Layer 1 (Fail)
//Storyboard Layer 2 (Pass)
//Storyboard Layer 3 (Foreground)
//Storyboard Layer 4 (Overlay)
//Storyboard Sound Samples

[TimingPoints]
1465,307.692307692308,4,2,1,30,1,0
1618,-142.857142857143,4,2,1,30,0,0
3926,-142.857142857143,4,2,1,40,0,0
5157,-142.857142857143,4,2,1,30,0,0
7003,-142.857142857143,4,2,1,40,0,0
7465,-142.857142857143,4,2,1,60,0,0
12080,-142.857142857143,4,2,1,5,0,0
17157,-166.666666666667,4,2,1,30,0,0
25926,-166.666666666667,4,2,1,45,0,0
27311,-111.111111111111,4,2,1,60,0,0
31618,-125,4,2,1,60,0,0
34695,-153.846153846154,4,2,1,60,0,0
35772,-111.111111111111,4,2,1,60,0,0
37772,-166.666666666666,4,2,1,30,0,0
45772,-166.666666666666,4,2,1,50,0,0
47003,-111.111111111111,4,2,1,60,0,0
55926,-125,4,2,1,40,0,0
56695,-100,4,2,1,60,0,0
56849,-100,4,2,1,70,0,1
58849,-66.6666666666667,4,2,1,80,0,1
59618,-100,4,2,1,70,0,1
60388,-125,4,2,1,70,0,1
61157,-100,4,2,1,70,0,1
61926,-100,4,2,1,60,0,0
64080,-133.333333333333,4,2,1,60,0,0
64311,-100,4,2,1,5,0,0
64388,-100,4,2,1,60,0,0
64541,-62.5,4,2,1,80,0,0
64618,-62.5,4,2,1,5,0,0
64849,-62.5,4,2,1,80,0,0
64926,-62.5,4,2,1,5,0,0
65157,-62.5,4,2,1,60,0,0
65465,-62.5,4,2,1,80,0,0
65542,-62.5,4,2,1,5,0,0
65772,-62.5,4,2,1,80,0,0
65850,-62.5,4,2,1,5,0,0
66081,-100,4,2,1,60,0,0
66695,-100,4,2,1,70,0,1
68541,-66.6666666666667,4,2,1,70,0,1
69003,-66.6666666666667,4,2,1,80,0,1
69618,-100,4,2,1,70,0,1
70234,-125,4,2,1,70,0,1
71003,-100,4,2,1,70,0,1
71772,-100,4,2,1,60,0,0
73926,-133.333333333333,4,2,1,60,0,0
74387,-62.5,4,2,1,80,0,0
74465,-62.5,4,2,1,5,0,0
74695,-62.5,4,2,1,80,0,0
74772,-62.5,4,2,1,5,0,0
75003,-71.4285714285714,4,2,1,60,0,0
75618,-100,4,2,1,60,0,0
79465,-76.9230769230769,4,2,1,60,0,0
86234,-76.9230769230769,4,2,1,5,0,0

[Colours]
Combo1 : 255,255,128
Combo2 : 0,255,255
Combo3 : 255,128,64
Combo4 : 0,128,255

[HitObjects]
354,158,1772,22,0,L|493:147,2,139.999995727539,2|2|2,0:0|0:0|0:0,0:0:0:0:
300,217,2541,1,2,0:0:0:0:
300,217,2695,2,0,B|257:193|257:193|275:3,1,209.999993591309,2|2,0:0|0:0,0:0:0:0:
110,176,3618,22,0,L|116:245,1,69.9999978637696,2|0,0:0|0:0,0:0:0:0:
187,311,3926,2,0,P|87:294|50:379,2,209.999993591309,2|2|2,0:1|0:0|0:0,0:0:0:0:
453,116,5157,5,0,0:0:0:0:
453,116,5311,1,2,0:0:0:0:
453,116,5465,1,2,0:0:0:0:
392,180,5618,21,0,0:0:0:0:
294,167,5772,1,2,0:0:0:0:
196,154,5926,1,2,0:0:0:0:
257,90,6080,21,0,0:0:0:0:
257,90,6234,1,2,0:0:0:0:
257,90,6388,1,2,0:0:0:0:
196,154,6541,21,0,0:0:0:0:
98,141,6695,1,2,0:0:0:0:
0,128,6849,1,2,0:0:0:0:
100,254,7003,37,2,0:0:0:0:
100,254,7157,1,0,0:0:0:0:
100,254,7465,1,6,0:1:0:0:
256,192,7541,12,0,12080,0:0:0:0:
117,224,17157,53,2,0:0:0:0:
117,224,17465,2,0,B|111:176|111:176|122:156|122:156|116:103,1,119.999996337891,2|0,0:0|0:0,0:0:0:0:
73,45,17926,1,2,0:0:0:0:
212,62,18234,1,0,0:0:0:0:
351,79,18541,2,0,P|265:57|265:213,1,299.999990844727,2|0,0:0|0:0,0:0:0:0:
430,181,19618,21,2,0:0:0:0:
430,181,19772,1,0,0:0:0:0:
430,181,19926,2,0,B|424:229|424:229|435:249|435:249|429:302,1,119.999996337891,2|0,0:0|0:0,0:0:0:0:
377,356,20388,1,2,0:0:0:0:
243,272,20695,21,0,0:0:0:0:
86,301,21003,1,2,0:0:0:0:
243,272,21311,1,2,0:1:0:0:
86,301,21618,2,0,P|161:279|221:355,1,179.999994506836,2|2,0:1|0:0,0:0:0:0:
143,357,22234,1,2,0:0:0:0:
293,264,22695,22,0,L|417:272,2,119.999996337891,2|2|0,0:0|0:0|0:0,0:0:0:0:
234,314,23465,1,2,0:0:0:0:
125,236,23772,1,2,0:0:0:0:
160,103,24080,2,0,L|346:115,1,179.999994506836,2|0,0:0|0:0,0:0:0:0:
403,64,24695,21,2,0:0:0:0:
512,142,25003,1,2,0:0:0:0:
477,275,25311,2,0,L|291:263,1,179.999994506836,2|0,0:0|0:0,0:0:0:0:
337,187,25926,22,0,L|461:195,2,119.999996337891,2|2|2,0:0|0:0|0:0,0:0:0:0:
221,104,26849,1,2,0:0:0:0:
142,112,27003,1,0,0:0:0:0:
63,120,27157,1,2,0:0:0:0:
233,365,27618,6,0,L|240:276,1,89.9999972534181,0|0,1:0|0:0,0:0:0:0:
168,198,27926,2,0,L|367:182,1,179.999994506836,2|0,0:0|1:0,0:0:0:0:
282,16,28388,22,0,L|275:105,1,89.9999972534181,2|0,0:0|0:0,0:0:0:0:
367,90,28695,2,0,L|374:1,1,89.9999972534181,2|0,0:0|1:0,0:0:0:0:
282,16,29003,2,0,L|267:198,1,179.999994506836,2|2,0:0|0:0,0:0:0:0:
443,364,29618,22,0,L|436:275,1,89.9999972534181,2|0,0:0|0:0,0:0:0:0:
348,241,29926,2,0,L|341:330,1,89.9999972534181,2|0,0:0|1:0,0:0:0:0:
254,368,30234,2,0,L|247:279,1,89.9999972534181,2|0,0:0|0:0,0:0:0:0:
159,245,30541,2,0,L|152:334,1,89.9999972534181,2|0,0:0|1:0,0:0:0:0:
64,368,30849,2,0,L|42:88,1,269.999991760254,2|0,0:0|1:0,0:0:0:0:
278,36,31618,22,0,P|395:59|512:86,1,240,2|0,0:0|0:0,0:0:0:0:
482,215,32234,2,0,P|364:191|247:164,1,240,4|0,0:0|0:0,0:0:0:0:
129,109,32849,22,0,P|153:227|180:343,1,240,2|0,0:0|0:0,0:0:0:0:
276,296,33465,2,0,P|300:179|327:62,1,240,2|0,0:0|0:0,0:0:0:0:
418,116,34080,2,0,P|433:195|450:273,1,160,2|0,0:0|1:0,0:0:0:0:
207,381,34695,2,0,P|246:187|290:-2,1,389.999982147218,4|0,0:0|1:0,0:0:0:0:
389,44,35772,22,0,L|396:133,1,89.9999972534181,2|0,0:0|0:0,0:0:0:0:
428,225,36080,2,0,L|339:218,1,89.9999972534181,2|0,0:0|1:0,0:0:0:0:
245,194,36388,2,0,L|252:283,1,89.9999972534181,4|0,0:0|0:0,0:0:0:0:
259,379,36695,1,8,0:3:0:0:
259,379,36849,1,4,0:3:0:0:
113,135,37772,37,2,0:0:0:0:
113,135,38080,1,0,0:0:0:0:
113,135,38388,2,0,P|75:76|144:10,2,179.999994506836,2|2|0,0:0|0:0|0:0,0:0:0:0:
206,166,39618,2,0,P|275:163|298:256,2,179.999994506836,2|2|0,0:0|0:0|0:0,0:0:0:0:
133,232,40849,2,0,P|101:293|9:266,2,179.999994506836,2|2|2,0:0|0:0|0:0,0:0:0:0:
348,287,42388,21,2,0:0:0:0:
348,287,42695,1,0,0:0:0:0:
348,287,43003,1,2,0:0:0:0:
348,287,43311,2,0,P|393:246|509:246,2,179.999994506836,2|2|0,0:0|0:0|0:0,0:0:0:0:
254,237,44541,2,0,P|267:177|209:77,2,179.999994506836,2|2|0,0:0|0:0|0:0,0:0:0:0:
187,318,45772,21,0,1:3:0:0:
187,318,46234,1,8,0:3:0:0:
187,318,46695,1,4,0:3:0:0:
0,143,47157,5,2,0:0:0:0:
11,223,47311,1,0,0:0:0:0:
22,303,47465,1,2,0:0:0:0:
33,383,47618,1,2,0:0:0:0:
247,333,48080,21,2,0:0:0:0:
259,239,48234,1,0,0:0:0:0:
272,146,48388,1,2,0:0:0:0:
285,52,48541,1,2,0:0:0:0:
431,95,48849,21,2,0:0:0:0:
445,203,49003,1,2,1:3:0:0:
445,203,49311,1,2,1:3:0:0:
331,307,49618,21,2,0:0:0:0:
342,227,49772,1,0,0:0:0:0:
262,216,49926,1,2,0:0:0:0:
251,296,50080,1,2,0:0:0:0:
58,218,50541,21,2,0:0:0:0:
44,120,50695,1,0,0:0:0:0:
141,107,50849,1,2,0:0:0:0:
155,204,51003,1,2,0:0:0:0:
306,141,51311,21,2,0:0:0:0:
320,33,51465,1,0,1:0:0:0:
320,33,51772,1,0,1:0:0:0:
114,108,52080,37,2,0:0:0:0:
221,97,52234,1,0,1:0:0:0:
297,175,52388,1,2,0:0:0:0:
283,282,52541,1,0,1:0:0:0:
191,338,52695,1,2,0:0:0:0:
90,302,52849,1,2,0:0:0:0:
55,199,53003,1,0,1:0:0:0:
114,108,53157,1,2,0:0:0:0:
221,97,53311,1,2,0:0:0:0:
297,175,53465,1,0,1:0:0:0:
283,282,53618,1,2,0:0:0:0:
191,338,53772,1,0,1:0:0:0:
90,302,53926,1,2,0:0:0:0:
273,74,54234,21,2,0:0:0:0:
256,192,54311,12,2,55465,0:0:0:0:
273,74,55926,53,2,0:0:0:0:
273,74,56234,1,2,0:0:0:0:
273,74,56388,1,0,0:0:0:0:
359,253,56695,21,2,0:0:0:0:
407,171,56849,2,0,B|366:160|326:156|326:156|304:177|304:177|267:166|218:160,1,200,6|0,0:1|1:1,0:0:0:0:
123,152,57311,1,2,0:0:0:0:
0,357,57618,5,2,0:0:0:0:
168,340,57926,1,2,0:1:0:0:
336,323,58234,1,2,0:0:0:0:
504,306,58541,1,2,0:0:0:0:
414,243,58695,5,2,0:1:0:0:
414,243,58849,2,2,B|436:289|383:342|306:309|297:228|333:126|433:72,1,300.000011444092,2|2,0:1|0:1,0:1:0:0:
450,49,59311,2,2,B|433:26|433:26|362:2|295:58,1,150.000005722046,2|0,0:1|0:0,0:1:0:0:
187,109,59618,5,0,1:0:0:0:
187,109,59772,2,0,L|200:6,1,100,2|0,0:0|0:0,0:0:0:0:
100,38,60080,2,0,L|87:137,1,100,2|0,0:0|1:0,0:0:0:0:
38,234,60388,2,2,L|276:203,1,240,2|0,0:1|1:0,0:1:0:0:
460,323,61157,6,0,P|460:283|413:234,1,100,2|0,0:0|0:0,0:0:0:0:
340,273,61465,2,0,P|340:313|387:362,1,100,0|0,1:0|0:0,0:0:0:0:
470,100,61926,5,2,0:0:0:0:
347,143,62080,1,0,1:0:0:0:
252,50,62234,1,2,0:0:0:0:
375,7,62388,1,2,0:0:0:0:
160,177,62695,5,0,1:0:0:0:
259,201,62849,1,2,0:0:0:0:
186,275,63003,2,0,P|132:267|81:263,1,100,2|0,0:0|0:0,0:0:0:0:
21,338,63311,1,0,1:0:0:0:
21,338,63465,2,0,P|44:189|76:43,1,300,2|0,0:0|0:0,0:0:0:0:
265,110,64080,6,2,P|201:91|156:160,1,150.000005722046,2|0,0:1|0:0,0:1:0:0:
242,220,64541,2,0,B|224:232|224:232|208:256|214:296,1,80,2|0,1:0|0:0,0:0:0:0:
242,220,64849,2,0,B|224:232|224:232|208:256|214:296,1,80,2|0,1:0|0:0,0:0:0:0:
477,275,65157,21,2,0:1:0:0:
477,275,65311,1,0,0:0:0:0:
364,241,65465,2,0,B|346:228|346:228|330:204|336:164,1,80,2|0,1:0|0:0,0:0:0:0:
364,241,65772,2,0,B|346:228|346:228|330:204|336:164,1,80,2|0,1:0|0:0,0:0:0:0:
451,41,66080,21,2,1:1:0:0:
451,41,66234,1,0,0:0:0:0:
208,148,66541,5,2,0:0:0:0:
290,100,66695,2,0,B|301:141|305:181|305:181|284:203|284:203|295:240|301:289,1,200,6|0,0:1|1:1,0:0:0:0:
309,384,67157,1,2,0:0:0:0:
20,354,67465,5,2,0:0:0:0:
37,186,67772,1,2,0:1:0:0:
54,18,68080,1,2,0:0:0:0:
219,221,68388,5,2,0:0:0:0:
219,221,68541,2,2,B|240:154|187:116|143:124|105:178|148:233,2,225.000008583069,2|2|2,0:1|0:1|0:1,0:1:0:0:
134,311,69157,2,2,B|175:271|175:271|323:248|436:382,1,300.000011444092,2|0,0:1|1:0,0:1:0:0:
512,271,69618,6,0,L|504:168,1,100,2|0,0:0|0:0,0:0:0:0:
412,128,69926,2,0,L|404:227,1,100,2|0,0:0|1:0,0:0:0:0:
316,289,70234,2,2,L|297:49,1,240,2|0,0:1|1:0,0:1:0:0:
58,202,71003,6,0,P|98:202|147:249,1,100,2|0,0:0|0:0,0:0:0:0:
108,322,71311,2,0,P|68:322|19:275,1,100,0|0,1:0|0:0,0:0:0:0:
290,216,71772,5,2,0:0:0:0:
160,186,71926,1,0,1:0:0:0:
199,314,72080,1,2,0:0:0:0:
290,216,72234,1,2,0:0:0:0:
0,270,72541,6,0,P|4:220|11:170,1,100,2|0,1:2|0:0,0:0:0:0:
102,222,72849,2,0,P|130:180|161:141,1,100,2|0,0:0|0:0,0:0:0:0:
218,230,73157,1,0,1:0:0:0:
218,230,73311,2,0,P|364:197|512:175,1,300,2|0,0:0|1:0,0:0:0:0:
420,70,73926,6,2,P|351:87|310:30,1,150.000005722046,2|0,0:1|0:0,0:1:0:0:
207,71,74388,2,0,B|194:53|194:53|170:37|130:43,1,80,2|0,1:0|0:0,0:0:0:0:
207,71,74695,2,0,B|194:53|194:53|170:37|130:43,1,80,2|0,1:0|0:0,0:0:0:0:
56,221,75003,21,2,0:1:0:0:
137,153,75157,1,0,1:0:0:0:
56,221,75311,2,0,P|97:284|161:282,1,139.999995727539,2|0,1:0|0:0,0:0:0:0:
259,369,75618,22,0,P|311:287|407:287,1,200,2|2,1:0|1:0,0:0:0:0:
478,340,76080,1,0,0:0:0:0:
207,50,76849,38,0,L|306:58,1,100,0|0,1:0|0:0,0:0:0:0:
344,150,77157,2,0,L|245:142,1,100,2|0,0:0|0:0,0:0:0:0:
153,227,77465,21,0,1:0:0:0:
153,227,77618,1,2,0:0:0:0:
217,303,77772,2,0,P|122:336|63:267,1,200,2|0,0:0|1:0,0:0:0:0:
153,227,78234,22,0,B|177:270|177:270|367:252,1,200,2|0,0:0|0:0,0:0:0:0:
232,173,78695,2,0,B|241:73,1,100,0|0,1:0|0:0,0:0:0:0:
335,124,79003,2,0,P|430:91|489:160,1,200,2|0,0:0|1:0,0:0:0:0:
435,252,79465,22,0,B|452:441,2,129.999994049073,0|0|0,1:0|1:0|1:0,0:0:0:0:
335,236,79926,2,0,B|347:365,1,129.999994049073,0|0,1:0|1:0,0:0:0:0:
39,274,80849,21,2,0:0:0:0:
39,274,81003,1,0,0:0:0:0:
39,274,81311,1,6,0:1:0:0:
256,192,81388,12,0,86234,0:0:0:0:
