osu file format v14

[General]
AudioFilename: audio.mp3
AudioLeadIn: 0
PreviewTime: 37618
Countdown: 0
SampleSet: Soft
StackLeniency: 0.7
Mode: 0
LetterboxInBreaks: 0
WidescreenStoryboard: 0

[Editor]
DistanceSpacing: 1
BeatDivisor: 4
GridSize: 4
TimelineZoom: 1

[Metadata]
Title:MIIRO (TV Size)
TitleUnicode:海色 (TV Size)
Artist:AKINO from bless4
ArtistUnicode:AKINO from bless4
Creator:Sonnyc
Version:Hard
Source:艦隊これくしょん -艦これ-
Tags:みいろ opening kantai collection kancolle tatoe japanese anime pop
BeatmapID:2453551
BeatmapSetID:1167072

[Difficulty]
HPDrainRate:5
CircleSize:3.8
OverallDifficulty:6
ApproachRate:7.5
SliderMultiplier:1.6
SliderTickRate:2

[Events]
//Background and Video events
0,0,"bg.jpg",0,0
//Break Periods
2,12388,16332
//Storyboard Layer 0 (Background)
//Storyboard Layer 1 (Fail)
//Storyboard Layer 2 (Pass)
//Storyboard Layer 3 (Foreground)
//Storyboard Layer 4 (Overlay)
//Storyboard Sound Samples

[TimingPoints]
1465,307.692307692308,4,2,1,30,1,0
1618,-125,4,2,1,30,0,0
3926,-125,4,2,1,40,0,0
5157,-111.111111111111,4,2,1,30,0,0
7003,-125,4,2,1,40,0,0
7465,-125,4,2,1,60,0,0
12080,-125,4,2,1,5,0,0
17157,-125,4,2,1,30,0,0
25926,-125,4,2,1,45,0,0
27311,-100,4,2,1,60,0,0
31618,-111.111111111111,4,2,1,60,0,0
34695,-125,4,2,1,60,0,0
37772,-142.857142857143,4,2,1,30,0,0
45772,-142.857142857142,4,2,1,50,0,0
47003,-111.111111111111,4,2,1,60,0,0
51926,-89.2857142857143,4,2,1,60,0,0
55926,-125,4,2,1,40,0,0
56695,-100,4,2,1,60,0,0
56849,-100,4,2,1,70,0,1
58849,-83.3333333333333,4,2,1,80,0,1
59618,-100,4,2,1,70,0,1
61926,-100,4,2,1,60,0,0
64541,-100,4,2,1,80,0,0
65157,-100,4,2,1,60,0,0
65465,-100,4,2,1,80,0,0
66081,-100,4,2,1,60,0,0
66695,-100,4,2,1,70,0,1
68541,-83.3333333333333,4,2,1,70,0,1
69003,-83.3333333333333,4,2,1,80,0,1
69618,-100,4,2,1,70,0,1
71772,-100,4,2,1,60,0,0
74387,-100,4,2,1,80,0,0
75003,-100,4,2,1,60,0,0
86234,-76.9230769230769,4,2,1,5,0,0

[Colours]
Combo1 : 255,255,128
Combo2 : 0,255,255
Combo3 : 255,128,64
Combo4 : 0,128,255

[HitObjects]
355,159,1772,22,0,L|364:287,2,128,2|2|2,0:0|0:0|0:0,0:0:0:0:
454,76,2695,2,0,B|430:119|430:119|240:101,1,192,2|2,0:0|0:0,0:0:0:0:
72,93,3618,21,2,0:0:0:0:
72,93,3926,2,0,P|138:67|189:167,2,192,2|2|2,0:1|0:0|0:0,0:0:0:0:
112,263,5157,6,0,L|40:260,2,71.9999978027344,0|2|2,0:0|0:0|0:0,0:0:0:0:
168,322,5618,1,0,0:0:0:0:
168,322,5772,2,0,L|240:325,1,71.9999978027344,2|2,0:0|0:0,0:0:0:0:
268,251,6080,22,0,L|196:248,2,71.9999978027344,0|2|2,0:0|0:0|0:0,0:0:0:0:
324,310,6541,1,0,0:0:0:0:
324,310,6695,2,0,L|396:313,1,71.9999978027344,2|2,0:0|0:0,0:0:0:0:
479,275,7003,37,2,0:0:0:0:
479,275,7157,1,0,0:0:0:0:
456,114,7465,1,6,0:1:0:0:
256,192,7541,12,0,12080,0:0:0:0:
90,132,17157,53,2,0:0:0:0:
90,132,17465,2,0,B|142:127|142:127|157:135|157:135|214:130,1,128,2|0,0:0|0:0,0:0:0:0:
255,102,17926,2,0,P|303:140|289:213,2,128,2|0|2,0:0|0:0|0:0,0:0:0:0:
53,277,19618,21,2,0:0:0:0:
53,277,19772,1,0,0:0:0:0:
53,277,19926,2,0,B|105:272|105:272|120:280|120:280|177:275,1,128,2|0,0:0|0:0,0:0:0:0:
218,247,20388,1,2,0:0:0:0:
218,247,20695,2,0,P|266:285|252:358,2,128,2|2|2,0:0|0:0|0:1,0:0:0:0:
94,212,21618,2,0,P|86:120|158:62,1,192,2|2,0:0|0:0,0:0:0:0:
200,87,22234,1,2,0:0:0:0:
369,22,22695,22,0,L|501:35,2,128,2|2|0,0:0|0:0|0:0,0:0:0:0:
333,55,23465,1,2,0:0:0:0:
396,173,23772,1,2,0:0:0:0:
396,173,24080,2,0,P|304:165|246:237,1,192,2|0,0:0|0:0,0:0:0:0:
273,276,24695,21,2,0:0:0:0:
168,360,25003,1,2,0:0:0:0:
168,360,25311,2,0,P|76:368|18:296,1,192,2|0,0:0|0:0,0:0:0:0:
48,259,25926,22,0,L|35:127,2,128,2|2|2,0:0|0:0|0:0,0:0:0:0:
158,201,26849,1,2,0:0:0:0:
206,205,27003,1,0,0:0:0:0:
254,209,27157,1,2,0:0:0:0:
405,301,27618,38,0,L|400:218,1,80,0|0,1:0|0:0,0:0:0:0:
443,147,27926,2,0,L|277:137,1,160,2|0,0:0|1:0,0:0:0:0:
214,86,28388,2,0,L|48:96,1,160,2|2,0:1|0:0,0:0:0:0:
9,249,29003,2,0,L|175:239,1,160,2|2,0:0|0:0,0:0:0:0:
295,348,29618,21,2,0:0:0:0:
451,299,29926,1,2,0:1:0:0:
331,188,30234,1,2,0:0:0:0:
295,348,30541,1,2,0:1:0:0:
451,299,30849,1,2,0:0:0:0:
124,199,31618,22,0,P|187:177|274:157,1,143.999995605469,2|0,0:0|1:0,0:0:0:0:
445,135,32234,2,0,P|327:92|165:56,3,287.999991210938,4|2|2|2,0:0|0:0|0:0|0:0,0:0:0:0:
35,323,34695,2,0,P|189:266|405:217,1,384,4|0,0:0|1:0,0:0:0:0:
479,265,35772,21,2,0:1:0:0:
450,101,36080,1,2,0:0:0:0:
324,210,36388,1,4,0:0:0:0:
479,265,36695,1,8,0:3:0:0:
479,265,36849,1,4,0:3:0:0:
223,384,37772,38,0,L|233:272,1,111.999996582031,2|0,0:0|0:0,0:0:0:0:
313,216,38388,2,0,P|256:239|47:104,1,335.999989746094,2|0,0:0|0:0,0:0:0:0:
97,19,39618,2,0,P|154:-4|363:131,1,335.999989746094,2|0,0:0|0:0,0:0:0:0:
313,216,40849,2,0,P|256:239|47:104,1,335.999989746094,2|2,0:0|0:0,0:0:0:0:
217,1,42388,22,0,L|441:21,1,223.999993164063,2|2,0:0|0:0,0:0:0:0:
505,98,43311,2,0,P|528:155|393:364,1,335.999989746094,2|0,0:0|0:0,0:0:0:0:
295,335,44541,2,0,P|235:327|121:106,1,335.999989746094,2|0,0:0|0:0,0:0:0:0:
194,34,45772,21,0,1:0:0:0:
194,34,46234,2,0,L|377:17,1,167.999994873047,8|4,1:3|1:3,0:0:0:0:
470,169,47157,5,2,0:0:0:0:
470,169,47311,2,0,L|396:159,1,71.9999978027344,0|2,0:0|0:0,0:0:0:0:
320,150,47618,1,2,0:0:0:0:
189,48,48080,1,2,0:0:0:0:
189,48,48234,2,0,L|115:58,1,71.9999978027344,0|2,0:0|0:0,0:0:0:0:
39,67,48541,1,2,0:0:0:0:
105,173,48849,1,0,0:0:0:0:
105,173,49003,2,0,L|248:153,1,143.999995605469,2|2,1:3|1:3,0:0:0:0:
372,110,49618,21,2,0:0:0:0:
372,110,49772,2,0,L|362:184,1,71.9999978027344,0|2,0:0|0:0,0:0:0:0:
353,260,50080,1,2,0:0:0:0:
215,353,50541,1,2,0:0:0:0:
215,353,50695,2,0,L|205:279,1,71.9999978027344,0|2,0:0|0:0,0:0:0:0:
196,203,51003,1,2,0:0:0:0:
79,257,51311,1,0,0:0:0:0:
79,257,51465,2,0,L|99:114,1,143.999995605469,2|2,1:3|1:3,0:0:0:0:
245,35,52080,37,2,0:0:0:0:
331,24,52234,1,0,1:0:0:0:
393,82,52388,1,2,0:0:0:0:
385,167,52541,2,0,P|363:196|314:215,1,89.60000109375,0|2,1:0|0:0,0:0:0:0:
233,189,52849,1,2,0:0:0:0:
202,108,53003,1,0,1:0:0:0:
245,35,53157,2,0,P|278:19|331:24,1,89.60000109375,2|2,0:0|0:0,0:0:0:0:
393,82,53465,1,0,1:0:0:0:
385,167,53618,1,2,0:0:0:0:
315,214,53772,2,0,P|279:215|234:189,1,89.60000109375,0|2,1:0|0:0,0:0:0:0:
378,334,54234,21,2,0:0:0:0:
256,192,54311,12,2,55465,0:0:0:0:
70,129,56695,21,2,0:0:0:0:
70,129,56849,2,0,B|107:118|148:114|148:114|183:137|220:148,1,160,6|0,0:1|1:1,0:0:0:0:
302,122,57311,1,2,0:1:0:0:
450,185,57618,2,0,L|439:346,2,160,2|2|2,0:0|0:1|0:0,0:0:0:0:
302,122,58541,1,2,0:0:0:0:
220,148,58695,21,2,0:1:0:0:
220,148,58849,2,2,B|242:102|189:49|112:82|103:163|139:265|239:319,1,287.999991210938,2|2,0:1|0:1,0:1:0:0:
333,240,59618,5,0,1:0:0:0:
333,240,59772,1,2,0:0:0:0:
175,265,60080,1,2,0:0:0:0:
17,290,60388,2,2,L|257:303,1,240,2|0,0:1|1:0,0:1:0:0:
422,315,61157,5,2,0:0:0:0:
422,315,61465,1,0,1:0:0:0:
478,91,61926,5,2,0:0:0:0:
412,145,62080,2,0,P|371:131|331:120,1,80,0|2,1:0|0:0,0:0:0:0:
247,107,62388,1,2,0:0:0:0:
161,240,62695,6,0,P|122:250|84:263,2,80,0|2|2,1:0|0:0|0:0,0:0:0:0:
328,275,63311,1,0,1:0:0:0:
328,275,63465,1,2,0:0:0:0:
276,44,64080,6,0,P|331:20|396:96,1,160,2|0,0:1|0:0,0:0:0:0:
345,162,64541,1,2,1:0:0:0:
345,162,64849,1,2,1:0:0:0:
192,122,65157,22,0,P|157:149|155:201,1,80,2|0,0:1|0:1,0:1:0:0:
200,265,65465,1,2,1:0:0:0:
200,265,65772,1,2,1:0:0:0:
40,224,66080,21,2,1:0:0:0:
40,224,66234,1,0,0:0:0:0:
198,143,66541,5,2,0:0:0:0:
198,143,66695,2,0,B|209:180|213:221|213:221|190:256|179:293,1,160,6|0,0:1|1:1,0:0:0:0:
205,375,67157,1,2,0:1:0:0:
348,304,67465,2,0,L|509:315,2,160,2|2|2,0:0|0:1|0:0,0:0:0:0:
426,164,68388,21,2,0:0:0:0:
426,164,68541,2,2,B|449:69|350:-2|272:92|318:176,1,287.999991210938,2|2,0:1|0:1,0:1:0:0:
382,246,69157,2,2,B|341:206|341:206|193:183|80:317,1,287.999991210938,2|2,0:1|0:0,0:1:0:0:
168,114,69926,5,2,0:0:0:0:
10,89,70234,2,2,L|250:76,1,240,2|0,0:1|1:0,0:1:0:0:
409,71,71003,5,2,0:0:0:0:
409,71,71311,1,0,1:0:0:0:
198,179,71772,6,0,P|184:220|173:260,1,80,2|0,0:0|1:0,0:0:0:0:
222,332,72080,1,2,0:0:0:0:
222,332,72234,1,2,0:0:0:0:
342,227,72541,6,0,P|363:150|389:75,2,160,2|2|0,1:2|0:0|1:0,0:0:0:0:
386,303,73311,1,2,0:0:0:0:
138,329,73926,6,0,P|122:272|190:209,1,160,2|0,0:1|0:0,0:0:0:0:
272,254,74388,1,2,1:0:0:0:
272,254,74695,1,2,1:0:0:0:
383,138,75003,21,2,0:1:0:0:
383,138,75157,1,0,1:0:0:0:
383,138,75311,2,0,P|367:195|435:258,2,160,2|2|2,0:1|1:0|0:1,0:0:0:0:
460,91,76080,1,0,0:0:0:0:
246,143,76849,6,0,L|82:125,2,160,0|2|0,1:0|0:0|1:0,0:0:0:0:
326,102,77618,1,2,0:0:0:0:
326,102,77772,2,0,P|403:142|393:219,1,160,2|0,0:0|1:0,0:0:0:0:
473,260,78234,22,0,B|449:303|449:303|259:285,1,240,2|0,0:0|1:0,0:0:0:0:
120,365,79003,2,0,P|43:325|53:248,1,160,2|0,0:0|1:0,0:0:0:0:
112,202,79465,2,0,B|207:211,2,80,0|0|0,1:0|1:0|1:0,0:0:0:0:
93,116,79926,2,0,B|188:125,1,80,0|0,1:0|1:0,0:0:0:0:
431,149,80849,21,2,0:0:0:0:
431,149,81003,1,0,0:0:0:0:
452,308,81311,1,6,0:1:0:0:
256,192,81388,12,0,86234,0:0:0:0:
