osu file format v14

[General]
AudioFilename: audio.mp3
AudioLeadIn: 0
PreviewTime: 37618
Countdown: 0
SampleSet: Soft
StackLeniency: 0
Mode: 0
LetterboxInBreaks: 0
WidescreenStoryboard: 0

[Editor]
DistanceSpacing: 1
BeatDivisor: 4
GridSize: 4
TimelineZoom: 1

[Metadata]
Title:MIIRO (TV Size)
TitleUnicode:海色 (TV Size)
Artist:AKINO from bless4
ArtistUnicode:AKINO from bless4
Creator:Sonnyc
Version:Expert
Source:艦隊これくしょん -艦これ-
Tags:みいろ opening kantai collection kancolle tatoe japanese anime pop
BeatmapID:2434435
BeatmapSetID:1167072

[Difficulty]
HPDrainRate:6
CircleSize:4
OverallDifficulty:8.7
ApproachRate:9
SliderMultiplier:2.4
SliderTickRate:2

[Events]
//Background and Video events
0,0,"bg.jpg",0,0
//Break Periods
2,12388,16557
//Storyboard Layer 0 (Background)
//Storyboard Layer 1 (Fail)
//Storyboard Layer 2 (Pass)
//Storyboard Layer 3 (Foreground)
//Storyboard Layer 4 (Overlay)
//Storyboard Sound Samples

[TimingPoints]
1465,307.692307692308,4,2,1,30,1,0
1618,-142.857142857143,4,2,1,30,0,0
3926,-142.857142857143,4,2,1,40,0,0
5157,-142.857142857143,4,2,1,30,0,0
7003,-142.857142857143,4,2,1,40,0,0
7465,-142.857142857143,4,2,1,60,0,0
12080,-142.857142857143,4,2,1,5,0,0
17157,-166.666666666667,4,2,1,30,0,0
25926,-166.666666666667,4,2,1,45,0,0
27311,-111.111111111111,4,2,1,60,0,0
31618,-125,4,2,1,60,0,0
34695,-166.666666666667,4,2,1,60,0,0
35772,-111.111111111111,4,2,1,60,0,0
37772,-166.666666666666,4,2,1,30,0,0
45772,-166.666666666666,4,2,1,50,0,0
47003,-111.111111111111,4,2,1,60,0,0
55926,-125,4,2,1,40,0,0
56695,-100,4,2,1,60,0,0
56849,-100,4,2,1,70,0,1
57926,-86.9565217391304,4,2,1,70,0,1
58234,-76.9230769230769,4,2,1,70,0,1
58849,-66.6666666666667,4,2,1,80,0,1
59618,-100,4,2,1,70,0,1
60388,-200,4,2,1,70,0,1
61157,-100,4,2,1,70,0,1
61926,-100,4,2,1,60,0,0
64080,-133.333333333333,4,2,1,60,0,0
64311,-100,4,2,1,5,0,0
64388,-100,4,2,1,60,0,0
64541,-50,4,2,1,80,0,0
64618,-50,4,2,1,5,0,0
64849,-50,4,2,1,80,0,0
64926,-50,4,2,1,5,0,0
65157,-50,4,2,1,60,0,0
65465,-40,4,2,1,80,0,0
65542,-40,4,2,1,5,0,0
65772,-40,4,2,1,80,0,0
65850,-40,4,2,1,5,0,0
66081,-100,4,2,1,60,0,0
66695,-100,4,2,1,70,0,1
67772,-86.9565217391304,4,2,1,70,0,1
68080,-76.9230769230769,4,2,1,70,0,1
68541,-62.5,4,2,1,70,0,1
69003,-62.5,4,2,1,80,0,1
69157,-66.6666666666667,4,2,1,80,0,1
69618,-100,4,2,1,70,0,1
70234,-200,4,2,1,70,0,1
71003,-100,4,2,1,70,0,1
71772,-100,4,2,1,60,0,0
73926,-133.333333333333,4,2,1,60,0,0
74157,-100,4,2,1,5,0,0
74234,-100,4,2,1,60,0,0
74387,-50,4,2,1,80,0,0
74465,-50,4,2,1,5,0,0
74695,-50,4,2,1,80,0,0
74772,-50,4,2,1,5,0,0
75003,-66.6666666666667,4,2,1,60,0,0
75618,-100,4,2,1,60,0,0
79465,-66.6666666666667,4,2,1,60,0,0
86234,-66.6666666666667,4,2,1,5,0,0

[Colours]
Combo1 : 255,255,128
Combo2 : 0,255,255
Combo3 : 255,128,64
Combo4 : 0,128,255

[HitObjects]
313,262,1772,22,0,L|295:90,2,167.999994873047,2|2|2,0:0|0:0|0:0,0:0:0:0:
256,332,2541,1,2,0:0:0:0:
256,332,2695,2,0,P|177:352|134:284,1,167.999994873047,2|0,0:0|0:0,0:0:0:0:
76,220,3157,2,0,B|106:202|106:202|94:65,1,167.999994873047,2|0,0:0|0:0,0:0:0:0:
201,80,3618,22,0,B|297:88,1,83.9999974365235,2|0,0:0|0:0,0:0:0:0:
386,185,3926,2,0,P|308:165|249:304,2,251.999992309571,2|2|2,0:1|0:0|0:0,0:0:0:0:
97,47,5157,5,0,0:0:0:0:
116,136,5311,1,2,0:0:0:0:
135,226,5465,1,2,0:0:0:0:
0,197,5618,21,0,0:0:0:0:
135,226,5772,1,2,0:0:0:0:
271,255,5926,1,2,0:0:0:0:
252,165,6080,21,0,0:0:0:0:
271,255,6234,1,2,0:0:0:0:
291,345,6388,1,2,0:0:0:0:
156,315,6541,21,0,0:0:0:0:
291,345,6695,1,2,0:0:0:0:
427,374,6849,1,2,0:0:0:0:
512,208,7003,37,2,0:0:0:0:
512,208,7157,1,0,0:0:0:0:
512,208,7465,1,6,0:1:0:0:
256,192,7541,12,0,12080,0:0:0:0:
55,77,17157,53,2,0:0:0:0:
55,77,17465,2,0,B|117:72|117:72|135:82|135:82|201:76,1,143.999995605469,2|0,0:0|0:0,0:0:0:0:
254,21,17926,1,2,0:0:0:0:
240,186,18234,1,0,0:0:0:0:
226,351,18541,2,0,P|227:245|377:332,1,359.999989013672,2|0,0:0|0:0,0:0:0:0:
457,77,19618,21,2,0:0:0:0:
457,77,19772,1,0,0:0:0:0:
457,77,19926,2,0,B|395:72|395:72|377:82|377:82|311:76,1,143.999995605469,2|0,0:0|0:0,0:0:0:0:
258,21,20388,1,2,0:0:0:0:
338,231,20695,21,0,0:0:0:0:
117,195,21003,1,2,0:0:0:0:
338,231,21311,1,2,0:1:0:0:
117,194,21618,2,0,P|208:177|250:279,1,215.999993408203,2|2,0:1|0:0,0:0:0:0:
175,251,22234,1,2,0:0:0:0:
452,177,22695,22,0,L|445:326,2,143.999995605469,2|2|0,0:0|0:0|0:0,0:0:0:0:
396,119,23465,1,2,0:0:0:0:
233,136,23772,1,2,0:0:0:0:
70,152,24080,2,0,L|63:295,1,143.999995605469,2|0,0:0|0:0,0:0:0:0:
119,353,24541,21,0,0:0:0:0:
119,353,24695,1,2,0:0:0:0:
282,337,25003,1,2,0:0:0:0:
445,321,25311,2,0,L|455:105,1,215.999993408203,2|0,0:0|0:0,0:0:0:0:
383,73,25926,21,2,0:0:0:0:
445,321,26234,1,2,0:0:0:0:
383,73,26541,1,2,0:0:0:0:
445,321,26849,1,2,0:0:0:0:
450,221,27003,1,0,0:0:0:0:
455,121,27157,1,2,0:0:0:0:
455,121,27311,1,4,0:1:0:0:
44,301,27618,6,0,L|156:289,1,107.999996704102,0|0,1:0|0:0,0:0:0:0:
236,354,27926,2,0,L|260:130,1,215.999993408203,2|0,0:0|1:0,0:0:0:0:
451,192,28388,22,0,L|339:204,1,107.999996704102,2|0,0:0|0:0,0:0:0:0:
440,286,28695,2,0,L|332:297,1,107.999996704102,2|0,0:0|1:0,0:0:0:0:
232,218,29003,2,0,L|120:230,1,107.999996704102,2|0,0:0|0:0,0:0:0:0:
221,312,29311,2,0,L|109:324,1,107.999996704102,2|0,0:0|1:0,0:0:0:0:
4,248,29618,22,0,L|16:136,1,107.999996704102,2|0,0:0|0:0,0:0:0:0:
106,90,29926,2,0,L|118:202,1,107.999996704102,2|0,0:0|1:0,0:0:0:0:
211,245,30234,2,0,L|223:133,1,107.999996704102,2|0,0:0|0:0,0:0:0:0:
313,87,30541,2,0,L|325:199,1,107.999996704102,2|0,0:0|1:0,0:0:0:0:
418,242,30849,2,0,L|442:18,1,215.999993408203,2|0,0:0|0:0,0:0:0:0:
441,27,31311,1,0,1:0:0:0:
512,374,31618,22,0,P|385:348|228:320,1,288,2|0,0:0|0:0,0:0:0:0:
105,254,32234,2,0,P|232:228|389:200,1,288,4|0,0:0|0:0,0:0:0:0:
512,134,32849,22,0,P|385:108|228:80,1,288,2|0,0:0|0:0,0:0:0:0:
105,254,33465,2,0,P|232:228|389:200,1,288,2|0,0:0|0:0,0:0:0:0:
500,349,34080,2,0,P|407:329|312:311,1,192,2|0,0:0|1:0,0:0:0:0:
17,94,34695,2,0,P|206:55|441:13,1,431.999986816407,4|0,0:0|1:0,0:0:0:0:
505,170,35772,22,0,L|398:161,1,107.999996704102,2|0,0:0|0:0,0:0:0:0:
299,126,36080,2,0,L|308:233,1,107.999996704102,2|0,0:0|1:0,0:0:0:0:
209,198,36388,2,0,L|102:189,1,107.999996704102,6|0,0:0|0:0,0:0:0:0:
9,265,36695,21,8,0:3:0:0:
9,265,36772,1,8,0:3:0:0:
9,265,36849,1,8,0:3:0:0:
9,265,36926,1,8,0:3:0:0:
9,265,37003,1,8,0:3:0:0:
9,265,37080,1,4,0:3:0:0:
9,265,37157,1,4,0:0:0:0:
313,68,37772,5,2,0:0:0:0:
191,110,38080,1,0,0:0:0:0:
313,68,38388,2,0,P|368:150|388:268,2,215.999993408203,2|2|0,0:0|0:0|0:0,0:0:0:0:
191,110,39618,2,0,P|207:215|266:305,1,215.999993408203,2|0,0:0|0:0,0:0:0:0:
313,68,40541,1,0,0:0:0:0:
313,68,40849,2,0,P|368:150|388:268,2,215.999993408203,2|2|2,0:0|0:0|0:0,0:0:0:0:
66,309,42388,21,2,0:0:0:0:
87,181,42695,1,0,0:0:0:0:
66,309,43003,1,2,0:0:0:0:
87,181,43311,2,0,P|187:142|294:148,2,215.999993408203,2|2|0,0:0|0:0|0:0,0:0:0:0:
66,309,44541,2,0,P|156:367|261:384,2,215.999993408203,2|2|0,0:0|0:0|0:0,0:0:0:0:
170,258,45772,21,0,1:3:0:0:
170,258,46234,1,8,0:3:0:0:
170,258,46695,1,4,0:3:0:0:
39,62,47157,5,2,0:0:0:0:
122,46,47311,1,0,0:0:0:0:
206,30,47465,1,2,0:0:0:0:
289,14,47618,1,2,0:0:0:0:
473,271,48080,21,2,0:0:0:0:
372,252,48234,1,0,0:0:0:0:
271,233,48388,1,2,0:0:0:0:
170,214,48541,1,2,0:0:0:0:
62,384,48849,21,2,0:0:0:0:
188,360,49003,1,2,1:3:0:0:
188,360,49311,1,2,1:3:0:0:
405,23,49618,21,2,0:0:0:0:
320,8,49772,1,0,0:0:0:0:
306,91,49926,1,2,0:0:0:0:
389,106,50080,1,2,0:0:0:0:
65,171,50541,21,2,0:0:0:0:
164,154,50695,1,0,0:0:0:0:
181,253,50849,1,2,0:0:0:0:
82,270,51003,1,2,0:0:0:0:
270,384,51311,21,2,0:0:0:0:
397,366,51465,1,0,1:0:0:0:
270,384,51618,1,0,1:0:0:0:
397,366,51772,1,0,1:0:0:0:
397,366,51926,1,4,0:0:0:0:
477,141,52080,37,2,0:0:0:0:
366,5,52234,1,0,1:0:0:0:
197,48,52388,1,2,0:0:0:0:
169,218,52541,1,0,1:0:0:0:
311,316,52695,1,2,0:0:0:0:
461,227,52849,1,2,0:0:0:0:
439,53,53003,1,2,1:2:0:0:
273,1,53157,1,0,1:0:0:0:
157,129,53311,1,2,0:0:0:0:
225,287,53465,1,0,1:0:0:0:
400,294,53618,1,2,0:0:0:0:
477,141,53772,1,2,0:0:0:0:
366,5,53926,1,0,1:0:0:0:
414,380,54234,21,2,0:0:0:0:
256,192,54311,12,2,55465,0:0:0:0:
414,380,55926,53,2,0:0:0:0:
414,380,56234,1,2,0:0:0:0:
414,380,56388,1,0,0:0:0:0:
306,62,56695,21,2,0:0:0:0:
459,146,56849,2,0,B|410:133|362:129|362:129|336:154|336:154|292:141|233:134,1,240,6|0,0:1|1:1,0:0:0:0:
408,217,57311,2,0,P|426:264|443:341,1,120,2|0,0:0|0:0,0:0:0:0:
81,280,57618,6,0,P|99:210|164:208,1,120,2|0,0:0|1:0,0:0:0:0:
257,351,57926,2,0,P|187:368|152:314,1,138.000002632141,2|0,0:0|0:0,0:0:0:0:
240,148,58234,2,0,P|292:202|261:264,1,155.999992858887,2|0,0:0|1:0,0:0:0:0:
153,322,58541,1,2,0:0:0:0:
377,23,58695,5,2,0:1:0:0:
490,251,58849,2,2,B|514:301|457:357|375:322|365:235|404:126|511:69,1,360.000013732911,2|2,0:1|0:1,0:1:0:0:
312,328,59311,2,2,B|295:351|295:351|212:378|158:302,1,180.000006866455,2|0,0:1|0:0,0:1:0:0:
57,83,59618,5,2,1:2:0:0:
219,142,59772,2,0,L|100:159,1,120,2|0,0:0|0:0,0:0:0:0:
332,221,60080,2,0,L|315:102,1,120,2|0,0:0|1:0,0:0:0:0:
207,342,60388,2,2,L|409:312,1,180,2|0,0:1|1:0,0:1:0:0:
82,30,61157,6,0,P|43:64|42:130,1,120,2|0,0:0|0:0,0:0:0:0:
128,161,61465,2,0,P|170:121|168:63,1,120,0|0,1:0|0:0,0:0:0:0:
82,30,61772,1,4,0:0:0:0:
296,225,61926,5,2,0:0:0:0:
348,36,62080,1,0,1:0:0:0:
483,173,62234,1,2,0:0:0:0:
431,362,62388,2,0,P|419:305|401:245,1,120,2|0,0:0|0:0,0:0:0:0:
120,295,62695,5,0,1:0:0:0:
291,340,62849,1,2,0:0:0:0:
100,290,63003,2,0,P|162:283|218:266,1,120,2|0,0:0|0:0,0:0:0:0:
393,119,63311,1,0,1:0:0:0:
19,66,63465,2,0,P|125:120|241:152,1,240,2|4,0:0|0:3,0:0:0:0:
241,152,63849,1,4,0:3:0:0:
241,152,63926,1,8,0:3:0:0:
50,338,64080,6,0,P|87:286|151:305,1,135.000005149841,2|0,0:1|0:0,0:0:0:0:
141,311,64388,1,0,0:0:0:0:
368,273,64541,2,0,B|344:280|344:280|308:314|320:367,1,120,2|0,1:1|0:0,0:0:0:0:
368,273,64849,2,0,B|344:280|344:280|308:314|320:367,1,120,2|0,1:1|0:0,0:0:0:0:
109,181,65157,21,2,0:1:0:0:
109,181,65311,1,0,1:0:0:0:
398,129,65465,2,0,B|430:138|430:138|480:185|463:257,1,150,2|0,1:1|0:0,0:0:0:0:
398,129,65772,2,0,B|430:138|430:138|480:185|463:257,1,150,2|0,1:1|0:0,0:0:0:0:
71,16,66080,21,2,1:0:0:0:
71,16,66234,1,0,0:0:0:0:
280,308,66541,5,2,0:0:0:0:
196,155,66695,2,0,B|209:204|213:252|213:252|188:278|188:278|201:322|208:381,1,240,6|0,0:1|1:1,0:0:0:0:
125,206,67157,2,0,P|78:188|1:171,1,120,2|0,0:0|0:0,0:0:0:0:
362,38,67465,6,0,P|292:56|290:121,1,120,2|0,0:0|1:0,0:0:0:0:
433,214,67772,2,0,P|450:144|396:109,1,138.000002632141,2|0,0:0|0:0,0:0:0:0:
230,199,68080,2,0,P|284:251|346:220,1,155.999992858887,2|0,0:0|1:0,0:0:0:0:
92,18,68388,5,2,0:1:0:0:
15,267,68541,2,2,B|-7:179|54:127|104:136|146:207|95:281,2,288,2|2|2,0:1|0:1|0:1,0:1:0:0:
362,331,69157,2,2,B|328:285|328:285|162:231|54:383,1,360.000013732911,2|0,0:1|1:0,0:1:0:0:
451,262,69618,6,0,L|434:143,1,120,2|0,0:0|0:0,0:0:0:0:
187,51,69926,2,0,L|170:170,1,120,2|0,0:0|1:0,0:0:0:0:
375,302,70234,2,2,L|349:123,1,180,2|0,0:1|1:0,0:1:0:0:
25,335,71003,6,0,P|59:374|125:375,1,120,2|0,0:0|0:0,0:0:0:0:
156,289,71311,2,0,P|116:247|58:249,1,120,0|0,1:0|0:0,0:0:0:0:
25,335,71618,1,4,0:0:0:0:
285,231,71772,5,2,0:0:0:0:
477,274,71926,1,0,1:0:0:0:
419,86,72080,1,2,0:0:0:0:
285,231,72234,2,0,P|337:217|403:208,1,120,2|0,0:0|0:0,0:0:0:0:
0,180,72541,6,0,P|27:235|62:282,1,120,0|0,1:0|0:0,0:0:0:0:
138,89,72849,2,0,P|145:151|162:207,1,120,2|0,0:0|0:0,0:0:0:0:
297,383,73157,1,0,1:0:0:0:
371,8,73311,2,0,P|317:114|285:230,1,240,2|4,0:0|0:3,0:0:0:0:
285,230,73695,1,4,0:3:0:0:
285,230,73772,1,8,0:3:0:0:
50,60,73926,6,0,P|87:112|151:93,1,135.000005149841,2|0,0:1|0:0,0:0:0:0:
141,87,74234,1,0,0:0:0:0:
77,300,74388,2,0,B|95:282|95:282|142:268|182:305,1,120,2|0,1:1|0:0,0:0:0:0:
77,300,74695,2,0,B|95:282|95:282|142:268|182:305,1,120,2|0,1:1|0:0,0:0:0:0:
397,68,75003,21,2,1:0:0:0:
438,291,75157,1,0,1:0:0:0:
397,68,75311,2,0,P|359:96|354:222,1,180.000006866455,2|0,1:0|0:0,0:0:0:0:
149,306,75618,22,0,P|73:250|57:96,1,240,2|2,1:0|1:0,0:0:0:0:
195,36,76080,1,2,0:1:0:0:
195,36,76157,1,4,0:3:0:0:
195,36,76234,1,8,0:3:0:0:
50,112,76388,1,4,0:0:0:0:
461,188,76849,38,0,L|473:63,1,120,0|0,1:0|0:0,0:0:0:0:
360,139,77157,2,0,L|348:258,1,120,2|0,0:0|0:0,0:0:0:0:
102,181,77465,21,0,1:0:0:0:
228,215,77618,1,2,0:0:0:0:
83,177,77772,2,0,P|112:102|252:110,1,240,2|0,0:0|1:0,0:0:0:0:
203,384,78234,22,0,B|160:360|160:360|178:170,1,240,2|0,0:0|0:0,0:0:0:0:
377,293,78695,2,0,B|243:305,1,120,0|0,1:0|0:0,0:0:0:0:
441,164,79003,2,0,P|332:191|272:96,1,240,2|0,1:2|1:0,0:0:0:0:
72,194,79465,22,0,B|90:-5,2,180.000006866455,0|0|0,1:0|1:0|1:0,0:0:0:0:
173,145,79926,2,0,B|156:324,1,180.000006866455,0|0,1:0|1:0,0:0:0:0:
436,20,80849,21,2,0:0:0:0:
436,20,81003,1,0,0:0:0:0:
436,20,81311,1,6,0:1:0:0:
256,192,81388,12,0,86234,0:0:0:0:
