osu file format v14

[General]
AudioFilename: audio.mp3
AudioLeadIn: 0
PreviewTime: 60096
Countdown: 0
SampleSet: Soft
StackLeniency: 0.7
Mode: 0
LetterboxInBreaks: 0
WidescreenStoryboard: 0

[Editor]
Bookmarks: 68402
DistanceSpacing: 1
BeatDivisor: 4
GridSize: 8
TimelineZoom: 2.1

[Metadata]
Title:Just Moving On Now
TitleUnicode:Just Moving On Now
Artist:AKINO from bless4
ArtistUnicode:AKINO from bless4
Creator:mnyui
Version:Progression
Source:
Tags:艦隊これくしょん -艦これ- kantai collection kancolle combined fleet cut edit short version japanese anime female vocalist ver pop jpop j-pop 海色(みいろ) rock jrock j-rock
BeatmapID:2473047
BeatmapSetID:1186581

[Difficulty]
HPDrainRate:6
CircleSize:4
OverallDifficulty:9.2
ApproachRate:9.3
SliderMultiplier:1.7
SliderTickRate:1

[Events]
//Background and Video events
0,0,"jaklsdjsa.jpg",0,0
//Break Periods
//Storyboard Layer 0 (Background)
//Storyboard Layer 1 (Fail)
//Storyboard Layer 2 (Pass)
//Storyboard Layer 3 (Foreground)
//Storyboard Layer 4 (Overlay)
//Storyboard Sound Samples

[TimingPoints]
-66,324.324324324324,4,1,1,100,1,0
1231,-166.666666666667,4,2,1,65,0,0
8204,-166.666666666667,4,2,1,70,0,0
8528,-125,4,2,1,75,0,0
9015,-100,4,2,1,80,0,0
11447,-90.9090909090909,4,2,1,85,0,0
24096,-142.857142857143,4,2,1,85,0,0
24339,-142.857142857143,4,2,1,5,0,0
24420,-90.9090909090909,4,2,1,85,0,0
27177,-200,4,2,1,50,0,0
35609,-142.857142857143,4,2,2,40,0,0
36906,-142.857142857143,4,2,1,65,0,0
37312,-142.857142857143,4,2,1,5,0,0
37393,-100,4,2,1,70,0,0
47933,-111.111111111111,4,2,1,75,0,0
55717,-125,4,2,1,60,0,0
58312,-90.9090909090908,4,2,1,70,0,0
60906,-83.3333333333333,4,2,1,90,0,1
81663,-125,4,2,1,70,0,0
86852,-181.818181818182,4,2,1,60,0,0
86933,-181.818181818182,4,2,1,40,0,0

[Colours]
Combo1 : 159,0,0
Combo2 : 229,185,174
Combo3 : 91,64,69

[HitObjects]
95,96,1231,6,0,P|173:86|409:54,1,305.999990661621,2|0,0:0|0:0,0:0:0:0:
483,238,2528,2,0,P|399:227|353:327,1,203.999993774414,2|2,0:0|0:0,0:0:0:0:
121,254,3501,1,0,0:0:0:0:
208,352,3663,1,2,0:0:0:0:
208,352,3744,1,2,0:0:0:0:
208,352,3825,6,0,B|288:337|379:329,1,152.999995330811,2|2,0:0|0:0,0:0:0:0:
359,331,4474,1,2,0:0:0:0:
434,78,5123,2,0,P|417:152|403:236,1,152.999995330811,2|2,0:0|0:0,0:0:0:0:
404,227,5771,1,2,0:0:0:0:
123,264,6096,1,2,0:0:0:0:
262,181,6258,1,2,0:0:0:0:
25,118,6420,6,0,P|99:133|174:149,1,152.999995330811,2|2,0:0|0:0,0:0:0:0:
401,312,7393,2,0,L|409:261,1,50.9999984436036,2|0,0:0|0:0,0:0:0:0:
280,127,7717,2,0,P|289:177|298:227,1,101.999996887207
430,57,8204,5,2,3:2:0:0:
430,57,8285,1,0,3:0:0:0:
430,57,8366,1,10,0:0:0:0:
490,222,8528,1,2,3:2:0:0:
473,192,8609,1,0,3:0:0:0:
445,172,8690,1,8,0:0:0:0:
412,165,8771,1,0,3:0:0:0:
379,172,8852,1,2,3:2:0:0:
232,310,9015,6,0,P|190:301|148:293,1,85,6|2,3:2|0:0,0:0:0:0:
117,100,9339,1,0,3:0:0:0:
263,206,9501,1,2,3:2:0:0:
52,208,9663,1,2,3:2:0:0:
255,44,9825,5,8,0:0:0:0:
232,310,9988,1,10,0:0:0:0:
82,8,10150,1,10,0:0:0:0:
138,270,10798,5,2,3:2:0:0:
141,260,10879,1,0,3:0:0:0:
144,250,10961,1,10,0:0:0:0:
263,206,11123,1,2,3:2:0:0:
157,144,11285,1,0,3:0:0:0:
286,341,11447,6,0,B|343:329|416:314|416:314|458:356,1,187.000005706787,6|0,3:2|3:0,0:0:0:0:
381,129,11933,2,0,P|372:174|364:220,1,93.5000028533936,8|0,0:0|0:0,0:0:0:0:
157,144,12258,1,2,3:2:0:0:
311,42,12420,1,2,3:2:0:0:
273,245,12582,1,10,0:0:0:0:
172,5,12744,6,0,P|108:-2|56:107,1,187.000005706787,2|2,3:2|3:2,0:0:0:0:
267,152,13231,1,8,0:0:0:0:
130,253,13393,2,0,P|83:245|33:238,1,93.5000028533936,2|0,0:0|3:0,0:0:0:0:
135,72,13717,1,2,3:2:0:0:
201,310,13879,1,10,0:0:0:0:
380,97,14042,6,0,P|385:143|390:189,1,93.5000028533936,2|0,3:2|0:0,0:0:0:0:
223,42,14366,1,0,3:2:0:0:
223,42,14447,1,0,3:2:0:0:
223,42,14528,1,8,0:0:0:0:
162,218,14690,1,0,3:2:0:0:
289,118,14852,1,2,3:2:0:0:
316,303,15015,1,0,3:2:0:0:
191,131,15177,1,8,0:0:0:0:
55,350,15339,6,0,P|111:339|160:329,1,93.5000028533936,0|2,3:2|0:0,0:0:0:0:
71,125,15663,1,0,3:2:0:0:
71,125,15744,1,0,3:2:0:0:
71,125,15825,1,8,0:0:0:0:
260,207,15988,1,0,3:0:0:0:
44,252,16150,1,8,0:0:0:0:
213,46,16312,1,2,3:2:0:0:
258,40,16393,1,2,3:2:0:0:
299,62,16474,1,10,0:0:0:0:
320,103,16555,1,2,0:0:0:0:
314,148,16636,6,0,B|386:133|444:122|444:122|497:174,1,187.000005706787,6|2,3:2|3:2,0:0:0:0:
346,341,17123,2,0,P|297:330|247:319,1,93.5000028533936,8|0,0:0|0:0,0:0:0:0:
137,169,17447,1,2,3:2:0:0:
337,223,17609,1,0,3:2:0:0:
159,366,17771,2,0,P|151:319|143:273,1,93.5000028533936,10|0,0:0|3:2,0:0:0:0:
89,29,18096,5,2,0:0:0:0:
51,218,18258,1,0,3:2:0:0:
51,218,18339,1,0,3:0:0:0:
51,218,18420,1,10,0:0:0:0:
229,111,18582,1,0,3:2:0:0:
4,91,18744,5,2,0:0:0:0:
155,266,18906,1,0,3:2:0:0:
206,20,19069,2,0,P|218:70|228:110,1,93.5000028533936,10|10,0:0|0:0,0:0:0:0:
215,148,19312,1,10,0:0:0:0:
215,148,19393,5,14,0:0:0:0:
448,211,19555,1,0,3:0:0:0:
319,13,19717,1,0,3:2:0:0:
248,264,19879,5,12,0:0:0:0:
460,85,20042,1,0,3:2:0:0:
194,4,20204,1,0,3:2:0:0:
395,303,20366,5,12,0:0:0:0:
249,67,20528,1,0,3:2:0:0:
269,368,20690,1,2,3:2:0:0:
356,85,20852,5,12,0:0:0:0:
115,236,21015,1,0,3:2:0:0:
409,311,21177,1,2,3:2:0:0:
161,141,21339,5,12,0:0:0:0:
355,379,21501,1,0,3:2:0:0:
356,85,21663,5,14,0:0:0:0:
356,85,21744,1,0,3:0:0:0:
356,85,21825,1,8,3:0:0:0:
200,366,21988,5,14,0:0:0:0:
229,63,22150,1,0,3:0:0:0:
433,315,22312,1,0,3:0:0:0:
113,273,22474,5,12,0:0:0:0:
440,188,22636,1,0,3:2:0:0:
146,26,22798,1,2,3:2:0:0:
300,357,22961,5,10,0:0:0:0:
300,357,23123,1,2,3:2:0:0:
293,314,23447,5,2,3:2:0:0:
280,216,23771,5,2,3:2:0:0:
116,98,24096,6,0,P|107:150|99:201,1,89.2499972763062,2|0,3:2|0:0,0:0:0:0:
38,297,24420,6,0,P|84:229|185:242,1,187.000005706787,6|2,3:2|3:2,0:0:0:0:
352,155,24906,1,10,0:0:0:0:
300,309,25069,1,8,3:0:0:0:
300,309,25150,1,8,3:0:0:0:
300,309,25231,1,8,3:0:0:0:
224,151,25393,1,8,3:0:0:0:
187,308,25555,5,8,0:0:0:0:
323,231,25717,1,2,3:2:0:0:
198,319,25879,1,2,0:2:0:0:
385,299,26042,1,2,3:2:0:0:
211,235,26204,5,10,0:0:0:0:
415,172,26366,1,2,3:2:0:0:
415,172,26447,1,0,3:0:0:0:
415,172,26528,6,0,L|407:223,1,46.7500014266968,10|0,0:0|3:0,0:0:0:0:
373,380,26690,1,2,3:2:0:0:
12,368,27177,6,0,P|77:223|239:257,1,340,6|2,3:2|0:0,0:0:0:0:
452,205,29771,2,0,P|387:60|225:94,1,340,2|2,3:2|0:0,0:0:0:0:
12,368,32366,2,0,P|77:223|239:257,1,340,2|2,3:2|0:0,0:0:0:0:
248,128,34961,6,0,P|228:123|207:119,1,42.5,2|0,3:2|0:0,0:0:0:0:
274,218,35285,2,0,P|299:212|335:206,1,42.5,2|2,0:0|0:0,0:0:0:0:
440,196,35609,5,2,2:0:0:0:
440,196,35771,1,2,2:0:0:0:
466,87,35933,1,2,2:0:0:0:
366,127,36096,1,2,2:0:0:0:
241,75,36906,5,10,0:0:0:0:
320,323,37069,2,0,P|262:314|209:306,1,89.2499972763062,10|0,0:0|0:0,0:0:0:0:
68,201,37393,6,0,P|155:187|252:173,1,170,6|0,3:2|0:0,0:0:0:0:
148,94,37879,1,10,0:0:0:0:
86,300,38042,2,0,P|43:293|1:287,1,85,2|0,0:0|3:2,0:0:0:0:
152,188,38366,1,2,3:2:0:0:
0,112,38528,1,8,0:0:0:0:
243,250,38690,6,0,P|310:213|294:115,1,170,2|0,3:2|3:2,0:0:0:0:
138,9,39177,2,0,P|142:47|149:111,1,85,8|2,0:2|0:2,0:0:0:0:
371,46,39501,1,2,3:2:0:0:
242,174,39663,2,0,P|245:131|250:89,1,85,2|8,3:2|0:2,0:0:0:0:
391,17,39987,1,2,0:2:0:0:
492,260,40150,6,0,B|427:243|381:229|381:229|325:284,1,170,2|10,3:2|0:2,0:0:0:0:
140,153,40636,2,0,P|145:195|148:237,1,85,2|0,0:2|3:2,0:0:0:0:
343,141,40961,1,0,3:2:0:0:
135,48,41123,1,8,0:2:0:0:
244,212,41285,1,2,3:2:0:0:
304,27,41447,5,2,0:0:0:0:
127,194,41609,2,0,P|84:189|42:183,1,85,2|8,3:2|0:2,0:0:0:0:
200,316,41933,2,0,P|242:311|284:305,1,85,2|0,0:0|3:0,0:0:0:0:
441,217,42258,1,2,3:2:0:0:
233,127,42420,2,0,P|237:169|243:211,1,85,8|2,0:2|0:2,0:0:0:0:
492,138,42744,6,0,P|436:120|353:200,1,170,6|10,3:2|0:2,0:0:0:0:
355,184,43393,1,0,3:2:0:0:
216,228,43555,1,0,3:2:0:0:
323,104,43717,1,8,0:2:0:0:
338,300,43879,1,2,3:2:0:0:
228,128,44042,5,2,0:0:0:0:
97,336,44204,2,0,P|88:294|78:253,1,85,2|8,3:2|0:0,0:0:0:0:
228,128,44528,2,0,P|218:169|209:210,1,85,2|0,3:2|3:2,0:0:0:0:
20,162,44852,1,2,3:2:0:0:
118,9,45015,2,0,P|127:50|136:91,1,85,8|2,0:0|3:2,0:0:0:0:
421,207,45339,5,14,0:2:0:0:
221,38,45501,1,0,3:2:0:0:
271,283,45663,1,0,3:2:0:0:
372,42,45825,5,12,0:0:0:0:
136,180,45988,1,0,3:2:0:0:
434,223,46150,1,0,3:2:0:0:
434,223,46231,1,0,3:0:0:0:
434,223,46312,5,14,0:0:0:0:
264,112,46474,1,2,3:2:0:0:
217,384,46636,5,12,0:0:0:0:
347,161,46798,1,0,3:2:0:0:
74,234,46961,1,2,3:2:0:0:
375,331,47123,5,14,0:0:0:0:
172,95,47285,1,0,3:2:0:0:
172,95,47366,1,8,3:0:0:0:
172,95,47447,2,0,L|162:144,1,42.5,10|0,3:0|3:0,0:0:0:0:
85,297,47609,5,10,0:0:0:0:
79,265,47690,1,0,3:2:0:0:
74,234,47771,1,2,3:2:0:0:
69,202,47852,1,0,3:2:0:0:
64,171,47933,5,6,3:2:0:0:
356,76,48258,2,0,P|348:113|338:160,1,76.4999976654053,2|2,3:2|0:0,0:0:0:0:
235,264,48582,2,0,P|296:218|370:241,1,152.999995330811,2|2,3:2|3:2,0:0:0:0:
459,366,49069,1,2,0:0:0:0:
311,314,49231,5,2,3:2:0:0:
497,286,49393,2,0,P|504:248|512:211,1,76.4999976654053,2|0,0:0|3:2,0:0:0:0:
434,86,49717,1,2,0:0:0:0:
386,223,49879,1,0,3:2:0:0:
277,148,50042,2,0,P|282:110|287:72,1,76.4999976654053,10|0,0:0|3:2,0:0:0:0:
396,232,50366,1,10,0:0:0:0:
197,264,50528,6,0,P|192:226|186:188,1,76.4999976654053,4|0,3:2|0:0,0:0:0:0:
74,93,50852,2,0,P|68:130|64:168,1,76.4999976654053,0|0,3:2|0:0,0:0:0:0:
207,274,51177,2,0,P|201:233|196:192,1,76.4999976654053,0|0,3:2|0:0,0:0:0:0:
37,275,51501,2,0,P|77:269|118:264,1,76.4999976654053,0|2,3:2|0:0,0:0:0:0:
267,135,51825,5,2,3:2:0:0:
299,308,51988,2,0,P|258:302|217:297,1,76.4999976654053,2|0,0:0|3:2,0:0:0:0:
426,198,52312,2,0,P|432:239|437:280,1,76.4999976654053,2|0,0:0|3:2,0:0:0:0:
298,197,52636,2,0,P|304:156|309:115,1,76.4999976654053,10|0,0:0|3:2,0:0:0:0:
437,209,52961,1,10,0:0:0:0:
298,42,53123,6,0,P|335:36|373:31,1,76.4999976654053,4|0,3:2|0:0,0:0:0:0:
221,186,53447,2,0,P|183:180|145:175,1,76.4999976654053,0|0,3:2|0:0,0:0:0:0:
207,14,53771,2,0,P|213:52|218:90,1,76.4999976654053,0|0,3:2|0:0,0:0:0:0:
411,161,54096,1,2,3:2:0:0:
299,64,54258,1,2,0:0:0:0:
272,250,54420,6,0,P|316:244|358:240,1,76.4999976654053,2|2,3:2|3:2,0:0:0:0:
381,241,54663,1,0,3:2:0:0:
381,241,54744,1,0,3:2:0:0:
299,64,54906,1,10,0:0:0:0:
205,197,55069,1,0,3:2:0:0:
387,94,55231,1,2,3:2:0:0:
193,23,55393,1,0,3:2:0:0:
404,255,55555,1,2,3:2:0:0:
404,255,55636,1,0,3:2:0:0:
404,255,55717,6,0,P|414:184|425:113,1,136,4|0,3:2|0:0,0:0:0:0:
284,58,56204,1,0,3:2:0:0:
284,58,56285,1,0,3:0:0:0:
284,58,56366,2,0,P|292:125|299:193,1,136,8|2,0:0|0:0,0:0:0:0:
148,295,56852,1,2,3:2:0:0:
148,295,56933,1,2,0:0:0:0:
148,295,57015,5,2,0:0:0:0:
196,110,57177,1,8,0:0:0:0:
337,290,57339,2,0,P|301:281|268:275,1,68,0|0,3:2|0:0,0:0:0:0:
0,127,57663,5,10,0:0:0:0:
208,203,57825,1,2,3:2:0:0:
38,268,57988,1,2,3:2:0:0:
117,84,58150,1,2,3:2:0:0:
224,344,58312,5,14,0:0:0:0:
324,90,58474,1,2,3:2:0:0:
321,299,58636,5,8,0:0:0:0:
204,58,58798,1,2,3:2:0:0:
130,312,58961,5,8,0:0:0:0:
285,0,59123,1,2,3:2:0:0:
299,383,59285,5,8,0:0:0:0:
78,165,59447,2,0,P|123:153|168:143,1,93.5000028533936,6|0,3:2|0:0,0:0:0:0:
477,269,59771,5,6,3:2:0:0:
147,228,59933,1,6,3:2:0:0:
299,363,60906,6,0,P|289:313|278:255,1,101.999996887207,4|2,3:2|0:0,0:0:0:0:
440,199,61231,1,8,0:0:0:0:
190,107,61393,2,0,P|181:157|172:207,1,101.999996887207,2|0,0:0|3:2,0:0:0:0:
404,276,61717,1,2,0:0:0:0:
259,163,61879,1,8,0:0:0:0:
469,108,62042,6,0,P|458:166|449:211,1,101.999996887207,2|0,3:2|0:0,0:0:0:0:
290,126,62366,2,0,P|280:75|270:25,1,101.999996887207,2|8,3:2|0:0,0:0:0:0:
135,226,62690,1,2,0:0:0:0:
368,160,62852,1,2,3:2:0:0:
122,61,63015,1,2,3:2:0:0:
285,229,63177,1,8,0:0:0:0:
12,170,63339,6,0,P|65:156|111:146,1,101.999996887207,2|4,3:2|3:2,0:0:0:0:
313,328,63663,2,0,P|263:315|213:304,1,101.999996887207,2|8,0:0|0:0,0:0:0:0:
244,7,63988,2,0,P|232:57|220:107,1,101.999996887207,2|0,0:0|3:2,0:0:0:0:
445,235,64312,1,2,3:2:0:0:
335,27,64474,1,10,0:0:0:0:
247,281,64636,6,0,P|296:268|346:257,1,101.999996887207,2|4,3:2|3:2,0:0:0:0:
512,115,64961,2,0,P|462:102|412:91,1,101.999996887207,2|8,0:0|0:0,0:0:0:0:
119,161,65285,2,0,P|136:90|268:91,1,203.999993774414,2|0,3:2|3:2,0:0:0:0:
333,163,65771,1,10,0:0:0:0:
40,253,65933,1,2,3:2:0:0:
40,253,66015,1,0,3:0:0:0:
40,253,66096,6,0,P|30:198|20:140,1,101.999996887207,6|2,3:2|0:0,0:0:0:0:
252,284,66420,2,0,P|243:334|234:384,1,101.999996887207,10|0,0:0|0:0,0:0:0:0:
441,206,66744,1,2,3:2:0:0:
224,137,66906,1,0,3:2:0:0:
342,329,67069,2,0,P|395:315|447:305,1,101.999996887207,10|0,0:0|3:2,0:0:0:0:
355,76,67393,6,0,P|341:129|331:181,1,101.999996887207,6|0,3:2|0:0,0:0:0:0:
138,305,67717,2,0,P|127:255|115:205,1,101.999996887207,10|0,0:0|0:0,0:0:0:0:
183,10,68042,2,0,P|195:59|205:109,1,101.999996887207,2|0,3:2|3:2,0:0:0:0:
428,273,68366,2,0,P|438:223|450:173,1,101.999996887207,10|0,0:0|3:2,0:0:0:0:
444,148,68609,1,0,3:2:0:0:
444,148,68690,5,14,0:2:0:0:
227,300,68852,1,2,3:2:0:0:
309,46,69015,5,10,0:0:0:0:
334,341,69177,1,2,3:2:0:0:
334,341,69258,1,0,3:2:0:0:
334,341,69339,5,8,0:0:0:0:
132,142,69501,1,0,3:2:0:0:
416,51,69663,5,10,0:2:0:0:
176,232,69825,1,2,3:2:0:0:
465,259,69988,5,14,0:0:0:0:
444,226,70069,1,8,0:2:0:0:
411,208,70150,1,10,0:3:0:0:
374,207,70231,1,8,0:3:0:0:
340,225,70312,2,0,L|312:308,1,50.9999984436036,8|8,0:0|0:3,0:0:0:0:
212,384,70474,2,0,L|195:335,1,50.9999984436036,8|8,0:3|0:3,0:0:0:0:
280,159,70636,6,0,L|252:242,1,50.9999984436036,2|0,3:2|3:0,0:0:0:0:
114,315,70798,2,0,L|97:266,1,50.9999984436036,2|0,3:2|3:0,0:0:0:0:
6,103,70961,1,8,0:0:0:0:
39,98,71042,1,0,3:0:0:0:
78,115,71123,1,8,0:0:0:0:
111,133,71204,1,8,0:0:0:0:
149,133,71285,6,4,P|156:94|166:32,1,101.999996887207,4|2,3:2|0:0,3:2:0:0:
309,126,71609,1,10,0:0:0:0:
178,224,71772,1,2,0:0:0:0:
394,143,71934,2,0,P|385:92|376:42,1,101.999996887207,2|2,3:2|3:2,0:0:0:0:
246,176,72258,1,8,0:0:0:0:
456,257,72420,6,0,P|468:207|479:157,1,101.999996887207,2|0,3:2|0:0,0:0:0:0:
323,346,72744,2,0,P|311:297|300:247,1,101.999996887207,2|8,3:2|0:0,0:0:0:0:
220,98,73069,1,2,0:0:0:0:
153,292,73231,1,2,3:2:0:0:
315,84,73393,1,2,3:2:0:0:
323,346,73555,1,8,0:0:0:0:
144,55,73717,1,10,0:0:0:0:
144,55,73798,1,8,0:0:0:0:
144,55,73879,5,4,3:2:0:0:
58,311,74042,2,0,P|48:260|39:210,1,101.999996887207,2|10,0:0|0:0,0:0:0:0:
270,86,74366,2,0,P|261:136|251:186,1,101.999996887207,2|0,0:0|3:2,0:0:0:0:
483,289,74690,1,2,3:2:0:0:
394,57,74852,1,10,0:0:0:0:
336,307,75015,1,2,3:2:0:0:
481,11,75177,5,14,0:0:0:0:
401,238,75339,1,2,3:2:0:0:
401,238,75420,1,0,3:0:0:0:
401,238,75501,5,8,0:0:0:0:
295,13,75663,1,2,3:2:0:0:
216,296,75825,5,8,0:0:0:0:
426,138,75988,1,0,3:2:0:0:
426,138,76069,1,0,3:0:0:0:
426,138,76150,5,2,3:2:0:0:
163,72,76312,1,2,3:2:0:0:
436,332,76474,6,0,P|382:323|327:314,1,101.999996887207,6|0,3:2|0:0,0:0:0:0:
258,90,76798,1,8,0:0:0:0:
120,308,76961,1,2,3:2:0:0:
120,308,77042,1,0,3:0:0:0:
120,308,77123,1,0,3:2:0:0:
338,209,77285,1,0,3:2:0:0:
124,14,77447,6,0,P|44:69|59:165,1,203.999993774414,14|0,0:0|3:2,0:0:0:0:
234,266,77933,1,0,3:2:0:0:
137,107,78096,1,8,0:0:0:0:
53,343,78258,1,2,3:2:0:0:
286,110,78420,5,2,3:2:0:0:
50,245,78582,1,2,3:2:0:0:
351,285,78744,1,8,0:0:0:0:
176,72,78906,1,2,3:2:0:0:
176,72,78988,1,0,3:2:0:0:
176,72,79069,5,12,0:0:0:0:
283,351,79231,1,2,3:2:0:0:
383,62,79393,1,2,3:2:0:0:
143,197,79555,5,14,0:0:0:0:
462,271,79717,1,2,3:2:0:0:
276,18,79879,1,2,3:2:0:0:
432,353,80042,5,2,3:2:0:0:
495,12,80204,1,14,0:0:0:0:
53,61,81015,5,10,0:3:0:0:
53,61,81096,1,8,0:3:0:0:
53,61,81177,1,10,0:3:0:0:
218,142,81339,1,8,0:0:0:0:
4,223,81501,1,2,0:0:0:0:
4,223,81582,1,0,3:0:0:0:
4,223,81663,6,0,P|73:210|151:199,1,136,4|0,3:2|0:0,0:0:0:0:
218,142,82150,1,0,3:2:0:0:
53,61,82312,2,0,P|61:98|68:133,1,68,8|0,0:0|3:2,0:0:0:0:
208,47,82636,2,0,P|174:41|141:34,1,68
226,158,82961,2,0,P|258:153|293:146,1,68,2|2,3:2|3:2,0:0:0:0:
425,94,83285,1,0,3:2:0:0:
304,58,83447,1,2,3:2:0:0:
372,244,83609,2,0,P|378:210|385:177,1,68,8|2,0:0|3:2,0:0:0:0:
182,248,83933,1,2,0:0:0:0:
322,327,84096,1,0,3:2:0:0:
281,136,84258,6,0,P|287:169|293:202,1,68,6|0,3:2|0:0,0:0:0:0:
88,234,84582,1,2,0:0:0:0:
197,114,84744,1,0,3:2:0:0:
147,319,84906,1,8,0:0:0:0:
33,142,85069,1,2,3:2:0:0:
33,142,85150,1,2,0:0:0:0:
33,142,85231,1,2,3:2:0:0:
262,54,85393,5,6,3:2:0:0:
408,300,85717,5,6,3:2:0:0:
153,204,86042,5,6,3:2:0:0:
430,104,86366,5,6,3:2:0:0:
41,344,86852,6,0,P|157:66|472:187,1,701.250021400452,6|0,3:2|0:0,0:0:0:0:
