osu file format v14

[General]
AudioFilename: audio.mp3
AudioLeadIn: 0
PreviewTime: 60056
Countdown: 0
SampleSet: Normal
StackLeniency: 0.7
Mode: 1
LetterboxInBreaks: 0
WidescreenStoryboard: 0

[Editor]
DistanceSpacing: 1.3
BeatDivisor: 4
GridSize: 4
TimelineZoom: 1

[Metadata]
Title:Just Moving On Now
TitleUnicode:Just Moving On Now
Artist:AKINO from bless4
ArtistUnicode:AKINO from bless4
Creator:Faputa
Version:Futsuu
Source:
Tags:艦隊これくしょん 艦これ kantai collection kancolle 海色 miiro shimakaze combined fleet cut short version
BeatmapID:1870185
BeatmapSetID:894025

[Difficulty]
HPDrainRate:8
CircleSize:2
OverallDifficulty:4
ApproachRate:10
SliderMultiplier:1.4
SliderTickRate:1

[Events]
//Background and Video events
0,0,"shimakaze.jpg",0,100
//Break Periods
2,27418,31958
//Storyboard Layer 0 (Background)
//Storyboard Layer 1 (Fail)
//Storyboard Layer 2 (Pass)
//Storyboard Layer 3 (Foreground)
//Storyboard Sound Samples

[TimingPoints]
624,324.324324324324,4,1,0,40,1,8
624,-111.111111111111,4,1,0,40,0,0
1273,324.324324324324,4,1,0,40,1,0
1273,-111.111111111111,4,1,0,40,0,0
8245,-100,4,1,0,70,0,0
28516,-111.111111111111,4,1,0,40,0,0
36948,-100,4,1,0,60,0,0
37435,-100,4,1,0,70,0,0
48300,-100,4,1,0,60,0,0
52678,-100,4,1,0,62,0,0
52840,-100,4,1,0,63,0,0
53002,-100,4,1,0,64,0,0
53164,-100,4,1,0,65,0,0
59813,-100,4,1,0,66,0,0
59975,-100,4,1,0,67,0,0
60948,-100,4,1,0,80,0,1
80408,-100,4,1,0,70,0,0

[HitObjects]
255,190,1110,5,8,0:0:0:0:
255,190,1435,1,8,0:0:0:0:
255,190,1921,1,0,0:0:0:0:
255,190,2083,1,8,0:0:0:0:
255,190,2408,1,8,0:0:0:0:
255,190,2732,1,0,0:0:0:0:
255,190,3218,1,8,0:0:0:0:
255,190,3381,1,8,0:0:0:0:
255,190,3705,1,8,0:0:0:0:
255,190,4354,1,0,0:0:0:0:
255,190,4840,1,0,0:0:0:0:
255,190,5002,1,8,0:0:0:0:
255,190,5327,1,8,0:0:0:0:
255,190,5651,1,8,0:0:0:0:
255,190,6137,1,0,0:0:0:0:
255,190,6462,1,8,0:0:0:0:
255,190,6948,1,0,0:0:0:0:
255,190,7435,1,8,0:0:0:0:
255,190,8245,1,0,0:0:0:0:
255,190,8408,1,8,0:0:0:0:
255,190,8732,1,8,0:0:0:0:
255,190,9056,1,8,0:0:0:0:
255,190,9381,1,0,0:0:0:0:
255,190,9705,1,0,0:0:0:0:
255,190,10029,1,8,0:0:0:0:
255,190,10191,1,8,0:0:0:0:
255,190,10840,1,0,0:0:0:0:
255,190,11002,1,8,0:0:0:0:
255,190,11327,1,0,0:0:0:0:
255,190,11489,1,12,0:0:0:0:
255,190,12300,1,8,0:0:0:0:
255,190,12624,1,0,0:0:0:0:
255,190,12786,1,8,0:0:0:0:
255,190,13110,1,0,0:0:0:0:
255,190,13435,1,8,0:0:0:0:
255,190,13921,1,8,0:0:0:0:
255,190,14083,1,0,0:0:0:0:
255,190,14732,1,0,0:0:0:0:
255,190,14894,1,8,0:0:0:0:
255,190,15218,1,0,0:0:0:0:
255,190,15543,1,8,0:0:0:0:
255,190,15867,1,0,0:0:0:0:
255,190,16029,1,0,0:0:0:0:
255,190,16191,1,8,0:0:0:0:
255,190,16516,1,0,0:0:0:0:
255,190,16678,1,12,0:0:0:0:
255,190,17489,1,0,0:0:0:0:
255,190,17813,1,8,0:0:0:0:
255,190,18137,1,0,0:0:0:0:
255,190,18462,1,8,0:0:0:0:
255,190,18786,1,0,0:0:0:0:
255,190,19110,1,8,0:0:0:0:
255,190,19272,1,8,0:0:0:0:
255,190,19435,1,0,0:0:0:0:
255,190,19921,1,8,0:0:0:0:
255,190,20408,1,8,0:0:0:0:
255,190,20732,1,0,0:0:0:0:
255,190,20894,1,8,0:0:0:0:
255,190,21381,1,8,0:0:0:0:
255,190,21705,1,0,0:0:0:0:
255,190,22029,1,8,0:0:0:0:
255,190,22516,1,8,0:0:0:0:
255,190,23002,1,12,0:0:0:0:
255,190,23164,1,12,0:0:0:0:
255,190,23489,1,4,0:0:0:0:
255,190,23813,1,4,0:0:0:0:
255,190,24137,1,12,0:0:0:0:
255,190,24462,1,12,0:0:0:0:
255,190,24948,1,8,0:0:0:0:
255,190,25110,1,0,0:0:0:0:
255,190,25272,1,0,0:0:0:0:
255,190,25597,1,8,0:0:0:0:
255,190,25921,1,8,0:0:0:0:
255,190,26245,1,0,0:0:0:0:
255,190,26570,1,8,0:0:0:0:
255,190,26732,1,8,0:0:0:0:
255,190,27056,1,0,0:0:0:0:
255,190,27218,1,12,0:0:0:0:
255,190,32408,5,0,0:0:0:0:
255,190,35002,1,8,0:0:0:0:
255,190,36948,5,4,0:0:0:0:
255,190,37110,1,4,0:0:0:0:
255,190,37435,1,12,0:0:0:0:
255,190,37921,1,8,0:0:0:0:
255,190,38408,1,0,0:0:0:0:
255,190,38570,1,8,0:0:0:0:
255,190,38732,1,0,0:0:0:0:
255,190,39056,1,0,0:0:0:0:
255,190,39218,1,8,0:0:0:0:
255,190,39543,1,8,0:0:0:0:
255,190,40191,1,8,0:0:0:0:
255,190,40678,1,0,0:0:0:0:
255,190,41002,1,0,0:0:0:0:
255,190,41164,1,8,0:0:0:0:
255,190,41327,1,0,0:0:0:0:
255,190,41651,1,8,0:0:0:0:
255,190,41975,1,8,0:0:0:0:
255,190,42300,1,0,0:0:0:0:
255,190,42462,1,8,0:0:0:0:
255,190,42786,1,4,0:0:0:0:
255,190,43435,1,0,0:0:0:0:
255,190,43759,1,8,0:0:0:0:
255,190,44083,1,0,0:0:0:0:
255,190,44245,1,8,0:0:0:0:
437,196,44570,1,8,0:0:0:0:
255,190,44894,1,0,0:0:0:0:
255,190,45381,1,8,0:0:0:0:
255,190,45867,1,8,0:0:0:0:
255,190,46191,1,0,0:0:0:0:
255,190,46354,1,8,0:0:0:0:
255,190,46678,1,8,0:0:0:0:
255,190,47164,1,8,0:0:0:0:
255,190,47975,1,8,0:0:0:0:
255,190,48300,1,0,0:0:0:0:
255,190,48462,1,0,0:0:0:0:
255,190,48624,1,8,0:0:0:0:
255,190,48948,1,0,0:0:0:0:
255,190,49272,1,8,0:0:0:0:
255,190,49759,1,8,0:0:0:0:
255,190,50083,1,8,0:0:0:0:
255,190,50408,1,8,0:0:0:0:
255,190,50570,1,0,0:0:0:0:
255,190,51218,1,0,0:0:0:0:
255,190,51543,1,8,0:0:0:0:
255,190,51867,1,0,0:0:0:0:
255,190,52191,1,8,0:0:0:0:
255,190,52354,1,0,0:0:0:0:
255,190,52678,1,8,0:0:0:0:
255,190,53002,1,8,0:0:0:0:
255,190,53164,1,0,0:0:0:0:
255,190,53813,1,8,0:0:0:0:
255,190,54137,1,8,0:0:0:0:
255,190,54462,1,0,0:0:0:0:
255,190,54624,1,0,0:0:0:0:
255,190,54948,1,8,0:0:0:0:
255,190,55272,1,8,0:0:0:0:
255,190,55435,1,0,0:0:0:0:
255,190,55759,1,8,0:0:0:0:
255,190,56408,1,8,0:0:0:0:
255,190,56732,1,0,0:0:0:0:
255,190,56894,1,0,0:0:0:0:
255,190,57218,1,8,0:0:0:0:
255,190,57705,1,8,0:0:0:0:
255,190,57867,1,0,0:0:0:0:
255,190,58029,1,8,0:0:0:0:
255,190,58354,1,0,0:0:0:0:
255,190,58516,1,0,0:0:0:0:
255,190,58840,1,8,0:0:0:0:
255,190,59164,1,0,0:0:0:0:
255,190,59489,1,12,0:0:0:0:
255,190,59813,1,12,0:0:0:0:
255,190,59975,1,12,0:0:0:0:
255,190,60948,1,12,0:0:0:0:
255,190,61272,1,0,0:0:0:0:
255,190,61435,1,8,0:0:0:0:
255,190,61759,1,8,0:0:0:0:
255,190,61921,1,0,0:0:0:0:
255,190,62083,1,8,0:0:0:0:
255,190,62570,1,8,0:0:0:0:
255,190,62894,1,0,0:0:0:0:
255,190,63056,1,8,0:0:0:0:
255,190,63381,1,8,0:0:0:0:
255,190,64029,1,0,0:0:0:0:
255,190,64354,1,8,0:0:0:0:
255,190,64516,1,0,0:0:0:0:
255,190,64678,1,8,0:0:0:0:
255,190,65002,1,0,0:0:0:0:
255,190,65327,1,8,0:0:0:0:
255,190,66137,1,12,0:0:0:0:
255,190,66462,1,4,0:0:0:0:
255,190,66786,1,12,0:0:0:0:
255,190,67110,1,12,0:0:0:0:
255,190,67435,1,0,0:0:0:0:
255,190,67759,1,8,0:0:0:0:
255,190,67921,1,0,0:0:0:0:
255,190,68083,1,8,0:0:0:0:
255,190,68408,1,0,0:0:0:0:
255,190,68732,1,8,0:0:0:0:
255,190,69381,1,0,0:0:0:0:
255,190,69705,1,8,0:0:0:0:
255,190,70029,1,0,0:0:0:0:
255,190,70191,1,8,0:0:0:0:
255,190,70516,1,4,0:0:0:0:
255,190,70678,1,12,0:0:0:0:
255,190,70840,1,12,0:0:0:0:
255,190,71327,1,4,0:0:0:0:
255,190,71651,1,8,0:0:0:0:
255,190,71975,1,0,0:0:0:0:
255,190,72137,1,8,0:0:0:0:
255,190,72462,1,8,0:0:0:0:
255,190,72948,1,8,0:0:0:0:
255,190,73272,1,0,0:0:0:0:
255,190,73435,1,8,0:0:0:0:
255,190,73759,1,8,0:0:0:0:
255,190,74408,1,8,0:0:0:0:
255,190,74732,1,0,0:0:0:0:
255,190,74894,1,8,0:0:0:0:
255,190,75056,1,0,0:0:0:0:
255,190,75381,1,0,0:0:0:0:
255,190,75705,1,8,0:0:0:0:
255,190,76191,1,0,0:0:0:0:
255,190,76516,1,12,0:0:0:0:
255,190,77002,1,0,0:0:0:0:
255,190,77489,1,8,0:0:0:0:
255,190,77975,1,0,0:0:0:0:
255,190,78137,1,8,0:0:0:0:
255,190,78462,1,8,0:0:0:0:
255,190,78786,1,0,0:0:0:0:
255,190,79110,1,12,0:0:0:0:
255,190,79597,1,12,0:0:0:0:
255,190,80083,1,12,0:0:0:0:
255,190,80245,1,12,0:0:0:0:
255,190,81056,1,8,0:0:0:0:
255,190,81381,1,0,0:0:0:0:
255,190,81705,1,8,0:0:0:0:
255,190,82029,1,0,0:0:0:0:
255,190,82354,1,8,0:0:0:0:
255,190,82516,1,0,0:0:0:0:
255,190,83002,1,0,0:0:0:0:
255,190,83164,1,0,0:0:0:0:
255,190,83651,1,8,0:0:0:0:
255,190,83975,1,0,0:0:0:0:
255,190,84300,1,8,0:0:0:0:
255,190,84624,1,0,0:0:0:0:
255,190,84786,1,0,0:0:0:0:
255,190,84948,1,8,0:0:0:0:
255,190,85435,1,12,0:0:0:0:
255,190,85759,1,12,0:0:0:0:
255,190,86083,1,4,0:0:0:0:
255,190,86408,1,4,0:0:0:0:
255,190,86894,1,12,0:0:0:0:
256,192,87056,12,0,89489,0:0:0:0:
