osu file format v14

[General]
AudioFilename: audio.mp3
AudioLeadIn: 0
PreviewTime: 60056
Countdown: 1
SampleSet: Soft
StackLeniency: 0.2
Mode: 0
LetterboxInBreaks: 0
WidescreenStoryboard: 0

[Editor]
DistanceSpacing: 0.5
BeatDivisor: 4
GridSize: 8
TimelineZoom: 1.1

[Metadata]
Title:Just Moving On Now
TitleUnicode:Just Moving On Now
Artist:AKINO from bless4
ArtistUnicode:AKINO from bless4
Creator:- Matha -
Version:Limit Break
Source:
Tags:艦隊これくしょん 艦これ kantai collection kancolle 海色 miiro shimakaze combined fleet cut short version Japanese game anime
BeatmapID:1920802
BeatmapSetID:918871

[Difficulty]
HPDrainRate:6
CircleSize:4.2
OverallDifficulty:8.7
ApproachRate:9.4
SliderMultiplier:1.9
SliderTickRate:1

[Events]
//Background and Video events
0,0,"BG.jpg",0,0
//Break Periods
//Storyboard Layer 0 (Background)
//Storyboard Layer 1 (Fail)
//Storyboard Layer 2 (Pass)
//Storyboard Layer 3 (Foreground)
//Storyboard Sound Samples

[TimingPoints]
1273,324.324324324324,4,2,1,30,1,0
1273,-200,4,2,1,30,0,0
6462,-200,4,2,1,35,0,0
8245,-200,4,2,1,45,0,0
9056,-111.111111111111,4,2,1,45,0,0
9705,-111.111111111111,4,2,1,50,0,0
9867,-111.111111111111,4,2,1,55,0,0
10029,-111.111111111111,4,2,1,60,0,0
10191,-111.111111111111,4,2,1,65,0,0
10840,-111.111111111111,4,2,1,35,0,0
11489,-111.111111111111,4,2,1,55,0,0
26570,-83.3333333333333,4,2,1,45,0,0
26732,-200,4,2,1,35,0,0
27218,-200,4,2,1,15,0,0
29732,-200,4,2,1,5,0,0
29813,-200,4,2,1,15,0,0
32327,-200,4,2,1,5,0,0
32408,-200,4,2,1,15,0,0
34921,-200,4,2,1,5,0,0
35002,-200,4,2,1,15,0,0
36948,-83.3333333333333,4,2,1,35,0,0
37110,-166.666666666667,4,2,1,35,0,0
37354,-166.666666666667,4,2,1,5,0,0
37435,-125,4,2,1,40,0,0
57056,-125,4,2,1,45,0,0
58354,-125,4,2,1,60,0,0
59813,-71.4285714285714,4,2,1,60,0,0
59894,-71.4285714285714,4,2,1,5,0,0
59975,-55.5555555555556,4,2,1,60,0,0
60300,-55.5555555555556,4,2,1,5,0,0
60948,-100,4,2,1,70,0,1
66381,-100,4,2,1,5,0,1
66462,-100,4,2,1,70,0,1
70029,-100,4,2,1,70,0,0
71327,-100,4,2,1,70,0,1
80245,-100,4,2,1,60,0,0
81705,-125,4,2,1,60,0,0
85435,-71.4285714285714,4,2,1,60,0,0
85678,-71.4285714285714,4,2,1,5,0,0
85759,-71.4285714285714,4,2,1,60,0,0
86002,-71.4285714285714,4,2,1,5,0,0
86083,-125,4,2,1,50,0,0
86408,-250,4,2,1,40,0,0
86894,-166.666666666667,4,2,1,40,0,0
89489,-166.666666666667,4,2,1,20,0,0

[HitObjects]
83,307,1273,6,0,B|93:259|93:259|81:219|81:219|94:148,2,142.5,2|0|0,0:0|0:0|0:0,0:0:0:0:
27,115,2570,6,0,P|68:130|137:72,1,142.5,0|0,1:0|1:0,0:0:0:0:
376,35,3543,1,0,1:0:0:0:
440,86,3705,1,0,1:0:0:0:
437,95,3786,1,0,1:0:0:0:
434,104,3867,6,0,B|380:134|340:111|340:111|294:86|242:115,1,190,2|0,0:0|1:0,0:0:0:0:
297,180,4840,1,0,0:0:0:0:
136,72,5164,6,0,B|140:127|140:127|159:151|159:151|165:208,1,142.5,0|0,1:0|0:0,0:0:0:0:
167,222,5813,1,0,1:0:0:0:
168,237,6137,1,0,0:0:0:0:
70,187,6300,1,2,0:0:0:0:
138,310,6462,6,0,B|179:325|211:307|211:307|244:289|285:304,1,142.5,2|0,0:0|0:0,0:0:0:0:
340,358,7110,1,0,0:0:0:0:
179,190,7435,2,0,P|172:215|166:248,1,47.5,0|0,1:0|0:0,0:0:0:0:
253,155,7759,6,0,P|290:132|358:141,1,95,2|0,0:0|0:0,0:0:0:0:
413,179,8245,5,4,3:0:0:0:
421,146,8327,1,4,3:0:0:0:
419,112,8408,1,8,0:0:0:0:
324,221,8570,5,8,3:0:0:0:
353,254,8651,1,8,3:0:0:0:
394,272,8732,1,8,0:0:0:0:
439,270,8813,1,0,3:1:0:0:
479,250,8894,1,4,3:0:0:0:
253,155,9056,6,0,L|157:169,1,85.4999973907472,2|0,0:0|0:0,0:0:0:0:
48,191,9381,1,8,0:0:0:0:
239,257,9543,1,2,0:0:0:0:
96,79,9705,5,8,0:0:0:0:
0,293,9867,1,8,0:0:0:0:
199,52,10029,1,8,0:0:0:0:
263,374,10191,1,12,0:0:0:0:
263,374,10840,5,4,3:0:0:0:
275,369,10921,1,4,3:0:0:0:
286,363,11002,1,8,0:0:0:0:
194,257,11164,1,8,3:0:0:0:
173,351,11327,1,4,3:0:0:0:
343,292,11489,6,0,B|348:235|348:235|376:197|376:197|380:112,1,170.999994781494,6|2,0:0|0:0,0:0:0:0:
199,140,11975,2,0,L|291:161,1,85.4999973907472,8|0,0:0|0:0,0:0:0:0:
463,207,12300,1,2,0:0:0:0:
312,75,12462,1,2,0:0:0:0:
343,292,12624,1,8,0:0:0:0:
369,18,12786,6,0,P|297:-2|231:72,1,170.999994781494,2|2,0:0|0:0,0:0:0:0:
379,130,13272,2,0,L|475:113,1,85.4999973907472,8|0,0:0|0:0,0:0:0:0:
253,242,13597,1,2,0:0:0:0:
312,75,13759,1,2,0:0:0:0:
343,292,13921,1,8,0:0:0:0:
199,140,14083,6,0,L|101:123,1,85.4999973907472,2|0,0:0|0:0,0:0:0:0:
211,341,14408,1,2,0:0:0:0:
236,335,14489,1,2,0:0:0:0:
261,329,14570,1,8,0:0:0:0:
143,212,14732,1,2,0:0:0:0:
87,367,14894,1,2,0:0:0:0:
42,188,15056,1,2,0:0:0:0:
144,300,15218,1,8,0:0:0:0:
199,140,15381,6,0,L|214:33,1,85.4999973907472,2|0,0:0|0:0,0:0:0:0:
276,238,15705,1,2,0:0:0:0:
251,244,15786,1,2,0:0:0:0:
226,250,15867,1,8,0:0:0:0:
325,117,16029,1,2,0:0:0:0:
407,269,16191,1,8,0:0:0:0:
377,51,16354,1,4,3:0:0:0:
338,33,16435,1,4,3:0:0:0:
296,36,16516,1,8,3:2:0:0:
260,59,16597,1,4,3:0:0:0:
240,96,16678,6,0,B|200:117|156:92|156:92|118:66|53:96,1,170.999994781494,6|0,0:0|0:0,0:0:0:0:
105,241,17164,2,0,L|116:147,1,85.4999973907472,8|0,0:0|0:0,0:0:0:0:
205,235,17489,1,2,0:0:0:0:
40,311,17651,1,2,0:0:0:0:
165,384,17813,2,0,L|156:284,1,85.4999973907472,8|0,0:0|0:0,0:0:0:0:
163,92,18137,5,2,0:0:0:0:
263,181,18300,1,2,0:0:0:0:
287,175,18381,1,2,0:0:0:0:
312,169,18462,1,8,0:0:0:0:
114,156,18624,1,2,0:0:0:0:
292,35,18786,5,0,0:0:0:0:
285,270,18948,1,2,0:0:0:0:
245,105,19110,1,8,0:0:0:0:
157,298,19272,1,4,3:0:0:0:
131,295,19354,1,4,3:0:0:0:
105,290,19435,5,8,0:0:0:0:
15,155,19597,1,2,0:0:0:0:
143,54,19759,1,2,0:0:0:0:
115,305,19921,5,8,0:0:0:0:
0,147,20083,1,2,0:0:0:0:
285,270,20245,1,2,0:0:0:0:
127,327,20408,5,8,0:0:0:0:
146,33,20570,1,2,0:0:0:0:
206,229,20732,5,2,0:0:0:0:
294,28,20894,1,8,0:0:0:0:
361,220,21056,1,2,0:0:0:0:
290,50,21218,5,2,0:0:0:0:
284,286,21381,1,8,0:0:0:0:
454,135,21543,1,2,0:0:0:0:
171,149,21705,1,8,0:0:0:0:
145,150,21786,1,8,0:0:0:0:
119,150,21867,1,2,0:0:0:0:
383,322,22029,5,8,0:0:0:0:
274,157,22191,1,2,0:0:0:0:
210,365,22354,1,2,0:0:0:0:
421,237,22516,5,8,0:0:0:0:
114,283,22678,1,2,0:0:0:0:
216,24,22840,1,2,0:0:0:0:
286,308,23002,5,8,0:0:0:0:
398,160,23164,6,0,L|420:156,1,21.3749993476868,2|0,0:0|0:0,0:0:0:0:
419,156,23489,6,0,L|441:160,1,21.3749993476868,2|0,0:0|0:0,0:0:0:0:
440,159,23813,6,0,L|462:155,1,21.3749993476868,2|0,0:0|0:0,0:0:0:0:
461,155,24137,6,0,L|470:247,1,85.4999973907472,2|0,0:0|0:0,0:0:0:0:
306,138,24462,2,0,L|511:156,1,170.999994781494,2|2,0:0|0:0,0:0:0:0:
401,299,24948,1,8,0:0:0:0:
266,211,25110,1,4,3:0:0:0:
249,213,25191,1,4,3:0:0:0:
232,215,25272,5,2,0:0:0:0:
315,286,25435,1,2,0:0:0:0:
306,138,25597,5,8,0:0:0:0:
224,306,25759,1,2,0:0:0:0:
315,286,25921,1,0,0:0:0:0:
154,235,26083,5,2,0:0:0:0:
286,377,26245,1,8,0:0:0:0:
315,286,26408,1,2,0:0:0:0:
148,384,26570,6,0,L|143:324,1,56.9999982604981
130,146,26732,1,0,0:0:0:0:
130,146,27218,6,0,B|157:175|194:147|186:82|95:73|28:163|69:227|107:282|177:265|140:217|90:169|-44:295|36:376|36:376|82:334|43:278|43:278|0:192|23:119|47:87|86:68,1,736.25
68,78,29813,6,0,B|103:45|177:42|223:83|223:83|261:116|333:135|372:109|372:109|308:89|254:144|244:177|275:236|275:236|300:276|307:329|269:364|269:364|292:344|329:353,1,736.25,0|0,1:0|0:0,0:0:0:0:
323,351,32408,6,0,B|338:291|257:250|218:319|218:319|187:380|122:386|40:356|26:271|48:233|116:234|145:289|145:289|174:237|135:179|135:179|170:218|207:228|253:206,1,736.25,0|0,1:0|0:0,0:0:0:0:
241,210,35002,6,0,P|242:173|250:145,1,47.5,0|0,1:0|0:0,0:0:0:0:
330,163,35327,2,0,P|333:186|335:210,1,47.5,0|0,1:0|0:0,0:0:0:0:
286,99,35651,5,0,1:0:0:0:
244,20,35812,1,0,1:0:0:0:
362,40,35976,1,0,1:0:0:0:
335,210,36138,1,0,1:0:0:0:
335,210,36948,6,0,L|392:200,1,56.9999982604981,8|0,0:0|0:0,0:0:0:0:
512,141,37110,6,0,L|408:129,1,85.4999973907472,8|0,0:0|0:0,0:0:0:0:
391,200,37435,6,0,P|354:157|401:58,1,152,6|0,0:0|0:0,0:0:0:0:
473,219,37921,2,0,L|486:316,1,76,8|0,0:0|0:0,0:0:0:0:
307,334,38245,1,2,0:0:0:0:
391,200,38408,1,2,0:0:0:0:
428,381,38570,1,8,0:0:0:0:
308,246,38732,6,0,B|250:240|250:240|214:258|214:258|155:252,1,152,2|2,0:0|0:0,0:0:0:0:
188,93,39218,2,0,L|196:176,1,76,8|0,0:0|0:0,0:0:0:0:
217,371,39543,1,2,0:0:0:0:
308,246,39705,1,2,0:0:0:0:
107,186,39867,1,8,0:0:0:0:
107,186,40191,6,0,B|93:34,1,152,4|8,0:0|0:0,0:0:0:0:
188,93,40678,1,2,0:0:0:0:
23,211,40840,1,2,0:0:0:0:
127,270,41002,1,2,0:0:0:0:
68,114,41164,1,8,0:0:0:0:
41,302,41327,1,2,0:0:0:0:
202,204,41489,6,0,L|287:222,1,76,2|2,0:0|0:0,0:0:0:0:
413,255,41813,1,8,0:0:0:0:
302,312,41975,1,2,0:0:0:0:
342,154,42137,1,2,0:0:0:0:
389,365,42300,1,2,0:0:0:0:
213,302,42462,2,0,L|126:319,1,76,8|0,0:0|0:0,0:0:0:0:
0,138,42786,6,0,B|52:149|52:149|89:137|89:137|178:157,1,152,6|0,0:0|0:0,0:0:0:0:
147,150,43435,1,2,0:0:0:0:
61,252,43597,1,2,0:0:0:0:
44,59,43759,1,8,0:0:0:0:
161,233,43921,2,0,L|154:278,1,38,2|0,0:0|0:0,0:0:0:0:
241,365,44083,6,0,L|229:271,1,76,2|2,0:0|0:0,0:0:0:0:
203,89,44408,1,8,0:0:0:0:
321,187,44570,1,2,0:0:0:0:
147,150,44732,1,2,0:0:0:0:
268,28,44894,1,2,0:0:0:0:
228,189,45056,2,0,L|240:282,1,76,8|2,0:0|0:0,0:0:0:0:
294,110,45381,5,12,0:0:0:0:
135,26,45543,1,2,0:0:0:0:
4,154,45705,1,2,0:0:0:0:
142,41,45867,5,12,0:0:0:0:
280,121,46029,1,2,0:0:0:0:
91,295,46191,1,2,0:0:0:0:
68,292,46272,1,2,0:0:0:0:
45,289,46354,1,8,0:0:0:0:
180,127,46516,1,4,3:0:0:0:
253,357,46678,5,12,0:0:0:0:
229,56,46840,1,2,0:0:0:0:
75,210,47002,1,2,0:0:0:0:
370,260,47164,5,12,0:0:0:0:
180,127,47327,1,4,3:0:0:0:
215,140,47408,1,4,3:0:0:0:
252,136,47489,1,2,0:0:0:0:
342,47,47651,5,8,0:0:0:0:
311,80,47732,1,4,3:0:0:0:
291,121,47813,1,4,3:0:0:0:
284,165,47894,1,4,3:0:0:0:
290,210,47975,5,2,0:0:0:0:
290,210,48300,2,0,L|279:297,1,76,2|0,0:0|0:0,0:0:0:0:
153,286,48624,2,0,L|143:210,1,76,2|0,0:0|0:0,0:0:0:0:
219,344,48948,2,0,P|184:368|132:361,1,76,2|0,0:0|0:0,0:0:0:0:
32,288,49272,5,2,0:0:0:0:
8,363,49435,1,0,0:0:0:0:
153,286,49597,2,0,L|143:210,1,76,2|0,0:0|0:0,0:0:0:0:
128,122,49921,5,2,0:0:0:0:
255,265,50083,1,8,0:0:0:0:
266,179,50245,1,2,0:0:0:0:
61,209,50408,1,10,0:0:0:0:
225,101,50570,6,0,P|259:90|320:104,1,76,2|0,0:0|0:0,0:0:0:0:
431,162,50894,2,0,P|397:173|336:159,1,76,2|0,0:0|0:0,0:0:0:0:
378,3,51218,2,0,L|387:84,1,76,2|0,0:0|0:0,0:0:0:0:
257,254,51543,2,0,L|265:178,1,76,2|0,0:0|0:0,0:0:0:0:
298,93,51867,5,2,0:0:0:0:
357,169,52029,1,0,0:0:0:0:
386,78,52191,1,2,0:0:0:0:
265,178,52354,1,0,0:0:0:0:
408,243,52516,1,2,0:0:0:0:
257,254,52678,6,0,L|193:266,1,38,8|0,0:0|0:0,0:0:0:0:
117,285,52840,1,2,0:0:0:0:
315,337,53002,6,0,L|277:329,1,38,8|0,0:0|0:0,0:0:0:0:
154,206,53164,6,0,L|142:113,1,76,2|0,0:0|0:0,0:0:0:0:
229,11,53489,2,0,L|219:86,1,76,2|0,0:0|0:0,0:0:0:0:
78,80,53813,2,0,P|110:52|162:51,1,76,2|0,0:0|0:0,0:0:0:0:
295,137,54137,2,0,P|267:162|230:170,1,76,2|0,0:0|0:0,0:0:0:0:
336,61,54462,5,2,0:0:0:0:
389,177,54624,1,2,0:0:0:0:
385,191,54705,1,2,0:0:0:0:
381,205,54786,1,2,0:0:0:0:
295,137,54948,1,8,0:0:0:0:
449,120,55110,1,2,0:0:0:0:
312,293,55272,1,8,0:0:0:0:
467,283,55435,1,2,0:0:0:0:
251,221,55597,1,2,0:0:0:0:
236,225,55678,1,2,0:0:0:0:
221,229,55759,6,0,P|177:198|187:81,1,152,6|0,0:0|0:0,0:0:0:0:
239,19,56245,1,2,0:0:0:0:
242,35,56327,1,2,0:0:0:0:
245,50,56408,2,0,B|242:150|242:150|246:117|273:103,1,152,8|2,0:0|0:0,0:0:0:0:
323,165,56894,1,2,0:0:0:0:
338,165,56975,1,2,0:0:0:0:
353,164,57056,5,2,0:0:0:0:
346,249,57218,1,2,0:0:0:0:
495,203,57381,2,0,L|405:212,1,76,8|2,0:0|0:0,0:0:0:0:
261,266,57705,5,8,0:0:0:0:
417,301,57867,1,2,0:0:0:0:
353,164,58029,1,2,0:0:0:0:
280,362,58191,1,2,0:0:0:0:
419,210,58354,5,12,0:0:0:0:
167,184,58516,1,2,0:0:0:0:
346,249,58678,5,8,0:0:0:0:
154,90,58840,1,2,0:0:0:0:
140,349,59002,5,8,0:0:0:0:
243,128,59164,1,2,0:0:0:0:
368,379,59327,5,8,0:0:0:0:
154,90,59489,2,0,L|145:10,1,76,6|0,0:0|0:0,0:0:0:0:
72,57,59813,6,0,L|81:135,1,66.4999979705811,6|0,0:0|0:0,0:0:0:0:
79,123,59975,6,0,B|33:137|4:91|54:43|118:103|118:103|173:158|229:126|231:83|184:51|142:104,1,341.999989562989,8|0,0:0|0:0,0:0:0:0:
154,90,60948,6,0,L|146:226,1,95,6|0,0:0|0:0,0:0:0:0:
133,345,61272,1,8,0:0:0:0:
231,197,61435,1,2,0:0:0:0:
0,245,61597,2,0,L|116:256,1,95,2|0,0:0|0:0,0:0:0:0:
253,300,61921,2,0,L|193:307,1,47.5,8|0,0:0|0:0,0:0:0:0:
311,246,62083,6,0,L|423:266,1,95,2|0,0:0|0:0,0:0:0:0:
265,383,62408,1,2,0:0:0:0:
231,197,62570,2,0,L|217:93,1,95,8|0,0:0|0:0,0:0:0:0:
311,246,62894,1,2,0:0:0:0:
148,184,63056,1,2,0:0:0:0:
359,175,63218,1,8,0:0:0:0:
205,305,63381,1,2,0:0:0:0:
311,246,63543,6,0,B|355:271|400:249|400:249|449:228|516:269,1,190,2|8,0:0|0:0,0:0:0:0:
377,363,64029,1,2,0:0:0:0:
359,175,64191,2,0,L|350:76,1,95,2|0,0:0|0:0,0:0:0:0:
279,323,64516,1,8,0:0:0:0:
440,321,64678,1,2,0:0:0:0:
311,246,64840,6,0,L|211:254,1,95,2|2,0:0|0:0,0:0:0:0:
85,371,65164,1,8,0:0:0:0:
151,178,65327,1,2,0:0:0:0:
9,268,65489,1,2,0:0:0:0:
36,273,65570,1,2,0:0:0:0:
64,277,65651,1,2,0:0:0:0:
69,91,65813,2,0,L|77:162,1,47.5,8|0,0:0|0:0,0:0:0:0:
85,371,65975,1,2,0:0:0:0:
269,174,66137,6,0,P|209:142|149:180,1,142.5,6|0,0:0|0:0,0:0:0:0:
150,177,66462,2,0,L|164:290,1,95,8|0,0:0|0:0,0:0:0:0:
176,384,66786,1,2,0:0:0:0:
64,277,66948,1,2,0:0:0:0:
328,304,67110,2,0,L|230:319,1,95,8|0,0:0|0:0,0:0:0:0:
332,121,67435,6,0,L|453:142,1,95,2|0,0:0|0:0,0:0:0:0:
509,241,67759,1,8,0:0:0:0:
479,69,67921,1,0,0:0:0:0:
403,337,68083,1,2,0:0:0:0:
425,137,68245,1,2,0:0:0:0:
477,365,68408,1,8,0:0:0:0:
371,205,68570,1,2,0:0:0:0:
509,241,68732,5,12,0:0:0:0:
285,323,68894,1,2,0:0:0:0:
338,124,69056,5,8,0:0:0:0:
403,337,69218,1,2,0:0:0:0:
425,137,69381,5,8,0:0:0:0:
338,384,69543,1,2,0:0:0:0:
287,53,69705,5,12,0:0:0:0:
348,278,69867,1,2,0:0:0:0:
129,195,70029,1,8,0:0:0:0:
112,211,70110,1,8,0:0:0:0:
101,233,70191,1,4,3:0:0:0:
98,256,70272,1,4,3:0:0:0:
103,279,70354,5,8,0:0:0:0:
137,239,70435,1,4,3:0:0:0:
155,191,70516,1,4,3:0:0:0:
153,139,70597,1,4,3:0:0:0:
134,91,70678,6,0,L|75:104,1,47.5,4|4,3:0|3:0,0:0:0:0:
3,14,70840,2,0,L|62:27,1,47.5,4|4,3:0|3:0,0:0:0:0:
232,98,71002,2,0,L|278:108,1,47.5,8|4,0:0|3:0,0:0:0:0:
245,1,71164,2,0,L|198:11,1,47.5,8|8,0:0|0:0,0:0:0:0:
155,191,71327,6,0,L|174:296,1,95,6|0,0:0|0:0,0:0:0:0:
250,384,71651,1,8,0:0:0:0:
82,300,71813,1,0,0:0:0:0:
283,210,71975,2,0,L|266:322,1,95,2|2,0:0|0:0,0:0:0:0:
149,384,72300,1,8,0:0:0:0:
231,123,72462,6,0,P|292:109|380:191,1,190,2|2,0:0|0:0,0:0:0:0:
201,292,72948,2,0,L|184:198,1,95,8|0,0:0|0:0,0:0:0:0:
120,37,73272,1,2,0:0:0:0:
40,223,73435,1,2,0:0:0:0:
231,123,73597,1,8,0:0:0:0:
205,110,73678,1,0,0:0:0:0:
176,110,73759,1,8,0:0:0:0:
148,117,73840,1,8,0:0:0:0:
126,135,73921,5,6,0:0:0:0:
318,215,74083,1,0,0:0:0:0:
285,18,74245,1,8,0:0:0:0:
184,198,74408,5,2,0:0:0:0:
413,149,74570,2,0,L|532:175,1,95,2|2,0:0|0:0,0:0:0:0:
301,100,74894,1,8,0:0:0:0:
330,310,75056,1,2,0:0:0:0:
413,149,75218,5,8,0:0:0:0:
237,340,75381,1,2,0:0:0:0:
301,100,75543,5,8,0:0:0:0:
417,349,75705,1,2,0:0:0:0:
379,56,75867,5,8,0:0:0:0:
204,264,76029,1,2,0:0:0:0:
175,261,76110,1,2,0:0:0:0:
146,258,76191,1,8,0:0:0:0:
301,100,76354,1,2,0:0:0:0:
417,349,76516,6,0,P|475:347|512:236,1,190,6|8,0:0|0:0,0:0:0:0:
337,363,77002,1,2,0:0:0:0:
426,179,77164,2,0,L|446:294,1,95,2|2,0:0|0:0,0:0:0:0:
232,262,77489,2,0,L|289:268,1,47.5,8|0,0:0|0:0,0:0:0:0:
442,272,77651,1,2,0:0:0:0:
330,114,77813,6,0,L|353:-3,1,95,2|2,0:0|0:0,0:0:0:0:
361,251,78137,1,8,0:0:0:0:
223,121,78300,1,0,0:0:0:0:
219,341,78462,1,0,0:0:0:0:
290,182,78624,1,2,0:0:0:0:
73,320,78786,1,8,0:0:0:0:
335,367,78948,1,2,0:0:0:0:
362,358,79029,1,2,0:0:0:0:
388,348,79110,5,12,0:0:0:0:
119,229,79272,1,2,0:0:0:0:
219,341,79435,1,2,0:0:0:0:
129,211,79597,5,8,0:0:0:0:
408,340,79759,1,6,0:0:0:0:
334,75,79921,1,2,0:0:0:0:
215,362,80083,5,2,0:0:0:0:
139,0,80245,1,6,0:0:0:0:
139,0,81056,1,8,0:0:0:0:
111,7,81137,1,2,0:0:0:0:
83,14,81218,1,2,0:0:0:0:
201,103,81381,1,8,0:0:0:0:
278,20,81543,1,0,0:0:0:0:
191,115,81705,6,0,B|178:181|178:181|198:217|198:217|173:310,1,190,6|0,0:0|0:0,0:0:0:0:
169,317,82191,1,2,0:0:0:0:
275,221,82354,2,0,L|359:212,1,76,8|2,0:0|0:0,0:0:0:0:
446,202,82678,1,2,0:0:0:0:
446,202,83002,5,2,0:0:0:0:
387,134,83164,1,2,0:0:0:0:
403,286,83327,1,2,0:0:0:0:
451,80,83489,1,2,0:0:0:0:
479,319,83651,5,8,0:0:0:0:
387,134,83813,1,2,0:0:0:0:
340,339,83975,1,2,0:0:0:0:
509,139,84137,1,2,0:0:0:0:
313,215,84300,6,0,B|272:230|272:230|196:208,1,114,6|0,0:0|0:0,0:0:0:0:
181,204,84624,5,8,0:0:0:0:
241,321,84786,1,2,0:0:0:0:
267,142,84948,1,8,0:0:0:0:
138,293,85110,1,2,0:0:0:0:
340,339,85272,1,2,0:0:0:0:
286,55,85435,6,0,B|237:55|201:79|185:125|185:125|169:84|105:80,1,199.499993911743,6|0,0:0|0:0,0:0:0:0:
14,129,85759,2,0,P|18:194|107:140,1,199.499993911743,6|0,0:0|0:0,0:0:0:0:
134,84,86083,6,0,L|122:2,1,76,6|0,0:0|0:0,0:0:0:0:
267,142,86408,6,0,L|259:225,1,76,6|0,0:0|0:0,0:0:0:0:
259,217,86894,6,0,B|283:230|277:265|239:278|175:224|175:156|175:156|175:246|75:334|0:297|-9:207|80:134|163:181|106:330|161:387|328:398|385:298|367:190|295:156|295:156|338:162|371:139,1,911.99997216797,6|0,0:0|0:0,0:0:0:0:
