osu file format v14

[General]
AudioFilename: Brand New Tatoe Scenario.mp3
AudioLeadIn: 0
PreviewTime: 75999
Countdown: 0
SampleSet: Normal
StackLeniency: 0.7
Mode: 0
LetterboxInBreaks: 0
EpilepsyWarning: 1
WidescreenStoryboard: 0

[Editor]
Bookmarks: 128459
DistanceSpacing: 2.5
BeatDivisor: 4
GridSize: 8
TimelineZoom: 1.500006

[Metadata]
Title:Brand New Miiro Scenario
TitleUnicode:Brand New Miiro Scenario
Artist:AKINO from bless4 & CHiCO with HoneyWorks & Shiena Nishizawa
ArtistUnicode:AKINO from bless4 & CHiCO with HoneyWorks & Shiena Nishizawa
Creator:Taburet
Version:Tabureto4ka
Source:Chippy
Tags:Ai No Scenario Brand New World Miiro
BeatmapID:1259744
BeatmapSetID:595687

[Difficulty]
HPDrainRate:5
CircleSize:3.6
OverallDifficulty:8.5
ApproachRate:9.9
SliderMultiplier:1.8
SliderTickRate:1

[Events]
//Background and Video events
0,0,"TATOMEMEHAHASOFUNNYXDDDDDDDDDDDDDDDDDDD.PNG",0,0
//Break Periods
//Storyboard Layer 0 (Background)
//Storyboard Layer 1 (Fail)
//Storyboard Layer 2 (Pass)
//Storyboard Layer 3 (Foreground)
//Storyboard Sound Samples

[TimingPoints]
721,307.692307692308,4,1,0,100,1,0
721,-125,4,1,0,100,0,0
4413,-125,4,1,0,100,0,0
6721,-100,4,1,0,100,0,0
16697,333.333333333333,4,1,0,100,1,0
27363,-142.857142857143,4,1,0,100,0,0
37030,-83.3333333333333,4,1,0,100,0,0
39363,-100,4,1,0,100,0,0
43363,-142.857142857143,4,1,0,100,0,0
46030,-100,4,1,0,100,0,0
48019,292.682926829268,4,1,0,100,1,0
48019,-125,4,1,0,100,0,0
48311,-76.9230769230769,4,1,0,100,0,0
75999,307.692307692308,4,1,0,100,1,0
84152,-100,4,1,0,100,0,1
86768,-100,4,1,0,100,0,0
93999,-100,4,1,0,100,0,1
96460,-100,4,1,0,100,0,0
101921,307.692307692308,4,1,0,100,1,0
102229,-83.3333333333333,4,1,0,100,0,0
109459,-83.3333333333333,4,1,0,100,0,1
112075,-83.3333333333333,4,1,0,100,0,0
119306,-83.3333333333333,4,1,0,100,0,1
121767,-83.3333333333333,4,1,0,100,0,0
127593,307.692307692308,4,1,0,5,1,0
128477,307.692307692308,4,1,0,5,1,0
128670,307.692307692308,4,1,0,5,1,0
128862,307.692307692308,4,1,0,5,1,0
129092,307.692307692308,4,1,0,5,1,0
129284,307.692307692308,4,1,0,5,1,0
129514,307.692307692308,4,1,0,5,1,0

[Colours]
Combo1 : 204,198,29
Combo2 : 255,66,70
Combo3 : 148,171,92
Combo4 : 120,120,237

[HitObjects]
148,103,721,6,0,P|190:150|157:222,1,144,2|0,0:0|0:0,0:0:0:0:
27,310,1336,2,0,L|180:294,1,144
263,221,1797,1,2,0:0:0:0:
335,284,1951,6,0,P|349:194|361:127,1,144,2|2,0:0|0:0,0:0:0:0:
396,40,2413,2,0,P|338:7|240:108,1,216,2|0,0:0|0:0,0:0:0:0:
139,80,3182,6,0,L|156:234,1,144,2|0,0:0|0:0,0:0:0:0:
154,223,3644,2,0,L|305:182,1,144,2|0,0:0|0:0,0:0:0:0:
209,326,4105,1,2,0:0:0:0:
209,326,4413,6,0,P|172:308|126:296,1,72
317,228,4721,1,2,0:0:0:0:
120,207,4874,6,0,P|90:235|63:274,1,72
329,185,5182,1,2,0:0:0:0:
191,114,5336,6,0,P|196:78|208:44,1,72
329,146,5644,1,2,0:0:0:0:
209,326,5797,6,0,P|235:357|272:387,1,72
317,105,6105,1,2,0:0:0:0:
127,228,6721,6,0,P|35:229|1:156,1,180,4|2,0:1|0:0,0:0:0:0:
213,97,7182,2,0,P|215:153|216:195,1,90,8|0,0:0|0:0,0:0:0:0:
237,18,7490,1,2,0:0:0:0:
80,166,7644,1,2,0:0:0:0:
299,193,7797,1,8,0:0:0:0:
213,97,7951,1,0,0:0:0:0:
113,265,8105,6,0,P|165:252|218:245,1,90,2|2,0:0|0:0,0:0:0:0:
372,342,8413,1,8,0:0:0:0:
423,211,8567,2,0,P|410:168|393:127,1,90,0|2,0:0|0:0,0:0:0:0:
208,182,8874,1,2,0:0:0:0:
355,261,9028,1,8,0:0:0:0:
171,102,9182,6,0,P|127:144|185:264,1,180,4|2,0:1|0:0,0:0:0:0:
297,318,9644,2,0,L|406:305,1,90,8|0,0:0|0:0,0:0:0:0:
282,71,9951,1,2,0:0:0:0:
328,182,10105,1,2,0:0:0:0:
426,27,10259,1,8,0:0:0:0:
171,103,10413,1,0,0:0:0:0:
171,103,10490,1,0,0:0:0:0:
171,103,10567,5,2,0:0:0:0:
269,274,10721,1,2,0:0:0:0:
304,130,10874,1,8,0:0:0:0:
136,211,11028,2,0,L|151:315,1,90,0|2,0:0|0:0,0:0:0:0:
304,130,11336,2,0,L|291:40,1,90,2|8,0:0|0:0,0:0:0:0:
56,183,11644,6,0,P|123:130|204:160,1,180,4|2,0:1|0:0,0:0:0:0:
362,296,12105,2,0,P|369:240|376:206,1,90,8|0,0:0|0:0,0:0:0:0:
189,272,12413,1,2,0:0:0:0:
304,130,12567,1,2,0:0:0:0:
189,272,12721,2,0,L|81:264,1,90,8|0,0:0|0:0,0:0:0:0:
124,141,13028,5,2,0:0:0:0:
276,263,13182,1,2,0:0:0:0:
321,60,13336,1,8,0:0:0:0:
205,168,13490,1,0,0:0:0:0:
205,168,13567,1,0,0:0:0:0:
205,168,13644,1,2,0:0:0:0:
361,295,13797,2,0,L|357:206,1,90,2|8,0:0|0:0,0:0:0:0:
236,83,14105,1,8,0:0:0:0:
236,83,14182,1,0,0:0:0:0:
236,83,14259,5,8,0:0:0:0:
139,226,14413,1,0,0:0:0:0:
361,295,14567,1,8,0:0:0:0:
109,214,14721,1,0,0:0:0:0:
364,185,14874,1,8,0:0:0:0:
118,63,15028,1,8,0:0:0:0:
251,300,15182,1,0,0:0:0:0:
353,61,15336,1,8,0:0:0:0:
247,217,15490,5,8,0:0:0:0:
424,120,15644,1,0,0:0:0:0:
177,70,15797,1,8,0:0:0:0:
253,344,15951,1,0,0:0:0:0:
253,344,16028,1,8,0:0:0:0:
253,344,16105,1,8,0:0:0:0:
364,123,16259,1,8,0:0:0:0:
238,271,16721,5,4,0:0:0:0:
338,206,16863,1,0,0:0:0:0:
233,148,17030,1,8,0:0:0:0:
364,219,17197,1,0,0:0:0:0:
215,289,17363,1,2,0:0:0:0:
318,341,17530,1,0,0:0:0:0:
191,214,17697,1,8,0:0:0:0:
365,170,17863,1,0,0:0:0:0:
243,365,18030,5,2,0:0:0:0:
284,215,18197,1,0,0:0:0:0:
116,281,18363,1,8,0:0:0:0:
299,207,18530,1,0,0:0:0:0:
102,289,18696,2,0,P|93:218|91:180,1,90,2|0,0:0|0:0,0:0:0:0:
143,104,19030,1,8,0:0:0:0:
249,283,19196,1,0,0:0:0:0:
249,283,19280,1,0,0:0:0:0:
249,283,19363,6,0,P|329:268|345:266,1,90,2|0,0:0|0:0,0:0:0:0:
91,178,19696,2,0,P|137:185|187:195,1,90,8|0,0:0|0:0,0:0:0:0:
375,350,20030,2,0,P|426:288|392:193,1,180,2|8,0:0|0:0,0:0:0:0:
303,126,20530,1,0,0:0:0:0:
231,223,20696,6,0,P|154:243|138:243,1,90,2|0,0:0|0:0,0:0:0:0:
82,131,21030,2,0,P|126:135|168:151,1,90,8|0,0:0|0:0,0:0:0:0:
320,287,21363,1,2,0:0:0:0:
315,177,21530,2,0,L|309:71,1,90,0|8,0:0|0:0,0:0:0:0:
413,231,21863,1,0,0:0:0:0:
413,231,21946,1,0,0:0:0:0:
413,231,22030,5,2,0:0:0:0:
202,174,22196,1,0,0:0:0:0:
440,237,22363,1,8,0:0:0:0:
274,285,22530,1,0,0:0:0:0:
399,152,22696,1,2,0:0:0:0:
181,267,22863,1,0,0:0:0:0:
390,344,23030,2,0,P|399:296|401:243,1,90,8|0,0:0|0:0,0:0:0:0:
281,180,23363,6,0,P|272:132|270:79,1,90,2|0,0:0|0:0,0:0:0:0:
393,23,23696,1,8,0:0:0:0:
323,259,23863,2,0,P|257:268|192:184,1,180
357,131,24363,1,8,0:0:0:0:
389,317,24530,1,0,0:0:0:0:
389,317,24696,6,0,P|400:265|399:221,1,90,2|0,0:0|0:0,0:0:0:0:
192,98,25030,1,8,0:0:0:0:
299,191,25196,1,0,0:0:0:0:
146,250,25363,1,2,0:0:0:0:
317,280,25530,1,8,0:3:0:0:
317,280,25613,1,0,0:0:0:0:
317,280,25696,1,8,0:0:0:0:
197,180,25863,1,4,0:0:0:0:
389,130,26030,6,0,P|386:177|381:226,1,90,0|2,0:0|0:0,0:0:0:0:
217,324,26363,1,12,0:0:0:0:
177,334,26446,1,0,0:0:0:0:
137,325,26530,1,0,0:0:0:0:
104,301,26613,1,0,0:0:0:0:
92,261,26696,1,2,0:0:0:0:
210,169,26863,1,8,0:3:0:0:
310,338,27030,1,4,0:3:0:0:
201,156,27196,1,4,0:3:0:0:
383,229,27363,6,0,P|396:153|397:98,2,125.999996154785,4|0|8,0:0|0:0|0:0,0:0:0:0:
299,280,28196,2,0,P|248:271|224:269,1,62.9999980773926
143,289,28530,1,0,0:0:0:0:
128,194,28696,6,0,P|123:159|121:129,1,62.9999980773926,2|8,0:0|0:0,0:0:0:0:
186,57,29030,1,2,0:0:0:0:
285,90,29196,1,2,0:0:0:0:
209,150,29363,1,8,0:0:0:0:
312,69,29530,2,0,L|304:204,1,125.999996154785
297,301,30030,6,0,B|328:313|328:313|357:287|357:287|416:307|470:269,1,188.999994232178,4|2,0:0|0:0,0:0:0:0:
402,200,30696,2,0,P|386:140|382:56,1,125.999996154785,8|0,0:0|0:0,0:0:0:0:
301,136,31196,1,0,0:0:0:0:
301,136,31363,5,2,0:0:0:0:
191,156,31530,2,0,P|184:108|183:71,1,62.9999980773926,8|0,0:3|0:0,0:0:0:0:
300,224,31863,2,0,P|297:255|292:286,1,62.9999980773926,2|8,0:0|0:0,0:0:0:0:
214,341,32196,1,2,0:0:0:0:
123,312,32363,1,2,0:0:0:0:
126,317,32696,6,0,P|110:268|106:192,1,125.999996154785,4|0,0:0|0:0,0:0:0:0:
170,118,33196,1,2,0:0:0:0:
263,143,33363,2,0,P|297:150|336:156,1,62.9999980773926,8|0,0:0|0:0,0:0:0:0:
399,81,33696,2,0,P|365:74|326:68,1,62.9999980773926
263,143,34030,6,0,L|270:217,1,62.9999980773926,2|8,0:0|0:0,0:0:0:0:
421,334,34530,1,2,0:0:0:0:
421,334,34696,2,0,L|409:198,1,125.999996154785,8|0,0:0|0:0,0:0:0:0:
283,332,35363,6,0,B|250:284|196:289|196:289|189:280|189:280|142:302|86:294|61:253,1,251.999992309571,4|8,0:0|0:0,0:0:0:0:
138,201,36196,1,0,0:0:0:0:
138,201,36363,2,0,P|127:162|121:119,1,62.9999980773926
221,146,36696,1,8,0:3:0:0:
221,146,36780,1,0,0:0:0:0:
221,146,36863,1,0,0:0:0:0:
318,68,37030,6,0,P|313:126|307:177,1,107.999996704102,12|0,0:0|0:0,0:0:0:0:
221,258,37363,1,4,0:0:0:0:
412,332,37530,1,2,0:0:0:0:
408,299,37613,1,2,0:0:0:0:
404,267,37696,1,8,0:0:0:0:
400,235,37780,1,2,0:0:0:0:
396,203,37863,1,2,0:0:0:0:
392,171,37946,1,2,0:0:0:0:
388,139,38030,5,4,0:0:0:0:
284,176,38196,1,0,0:0:0:0:
215,90,38363,1,8,0:0:0:0:
292,277,38530,1,0,0:0:0:0:
292,277,38613,1,0,0:0:0:0:
292,277,38696,1,2,0:0:0:0:
171,205,38863,1,0,0:0:0:0:
181,334,39030,1,8,0:0:0:0:
306,201,39196,1,0,0:0:0:0:
315,171,39280,1,0,0:0:0:0:
320,140,39363,6,0,P|325:91|322:42,1,90,2|2,0:0|0:0,0:0:0:0:
171,205,39696,1,8,0:0:0:0:
302,297,39863,1,0,0:0:0:0:
302,297,39946,1,0,0:0:0:0:
302,297,40030,1,2,0:0:0:0:
173,324,40196,1,2,0:0:0:0:
306,201,40363,1,8,0:0:0:0:
108,127,40530,1,0,0:0:0:0:
108,127,40613,1,0,0:0:0:0:
108,127,40696,6,0,P|110:171|115:216,1,90,2|0,0:0|0:0,0:0:0:0:
247,359,41030,1,8,0:0:0:0:
235,253,41196,1,0,0:0:0:0:
235,253,41280,1,0,0:0:0:0:
235,253,41363,1,2,0:0:0:0:
350,344,41530,1,2,0:0:0:0:
306,201,41696,1,8,0:0:0:0:
131,283,41863,1,2,0:0:0:0:
191,109,42030,5,4,0:0:0:0:
325,212,42196,1,2,0:0:0:0:
192,242,42363,1,2,0:0:0:0:
328,89,42530,1,2,0:0:0:0:
179,97,42696,5,2,0:0:0:0:
341,224,42863,1,2,0:0:0:0:
180,254,43030,1,2,0:0:0:0:
338,78,43196,1,2,0:0:0:0:
257,169,43363,6,0,L|125:157,1,125.999996154785,4|2,0:0|0:0,0:0:0:0:
61,276,44030,2,0,L|193:288,1,125.999996154785,2|0,0:0|0:0,0:0:0:0:
361,338,44696,6,0,P|351:268|341:209,1,125.999996154785,2|0,0:0|0:0,0:0:0:0:
216,91,45363,2,0,P|169:97|116:100,2,94.499997116089,4|4|4,0:3|0:3|0:3,0:0:0:0:
297,26,46030,6,0,P|312:67|314:124,1,90,4|0,0:0|0:0,0:0:0:0:
238,193,46363,2,0,L|143:187,1,90
43,154,46696,1,12,0:0:0:0:
98,293,46863,1,8,0:3:0:0:
98,293,46946,1,8,0:3:0:0:
98,293,47030,1,0,0:0:0:0:
256,185,47196,1,8,0:0:0:0:
288,220,48019,6,0,L|296:112,1,108
256,40,48311,6,0,P|263:97|245:152,1,116.999994644165,6|0,0:0|0:0,0:0:0:0:
88,236,48604,1,2,0:0:0:0:
32,104,48750,1,8,0:0:0:0:
212,248,48897,1,0,0:0:0:0:
60,312,49043,1,2,0:0:0:0:
160,156,49189,1,2,0:0:0:0:
276,300,49336,1,8,0:0:0:0:
84,160,49482,6,0,P|76:102|79:43,1,116.999994644165,2|0,0:0|0:0,0:0:0:0:
212,248,49775,2,0,P|215:306|207:364,1,116.999994644165,2|8,0:0|0:0,0:0:0:0:
60,312,50067,1,0,0:0:0:0:
236,172,50214,1,2,0:0:0:0:
64,176,50360,1,2,0:0:0:0:
136,276,50506,1,8,0:0:0:0:
175,83,50653,1,2,0:0:0:0:
291,231,50799,6,0,P|397:260|456:167,1,233.999989288331,6|8,0:0|0:0,0:0:0:0:
336,36,51238,1,0,0:0:0:0:
364,172,51384,1,2,0:0:0:0:
444,48,51531,1,2,0:0:0:0:
292,232,51677,1,8,0:0:0:0:
175,83,51823,6,0,B|115:39|51:75|51:75|63:175,1,233.999989288331,2|2,0:0|0:0,0:0:0:0:
304,324,52262,2,0,L|417:295,1,116.999994644165,10|0,0:1|0:0,0:0:0:0:
136,288,52555,2,0,L|22:259,1,116.999994644165,2|2,0:1|0:0,0:0:0:0:
364,172,52848,1,10,0:1:0:0:
228,284,52994,1,0,0:0:0:0:
264,128,53140,6,0,L|279:12,1,116.999994644165,6|0,0:0|0:0,0:0:0:0:
300,240,53433,1,8,0:0:0:0:
372,63,53579,2,0,P|430:66|482:91,1,116.999994644165,0|2,0:0|0:0,0:0:0:0:
220,200,53872,2,0,P|193:148|188:90,1,116.999994644165,2|8,0:0|0:0,0:0:0:0:
413,263,54165,6,0,P|381:312|334:345,1,116.999994644165,2|0,0:0|0:0,0:0:0:0:
364,172,54458,1,0,0:0:0:0:
192,296,54604,2,0,L|77:274,1,116.999994644165,8|0,0:0|0:0,0:0:0:0:
300,240,54897,1,2,0:0:0:0:
252,76,55043,1,2,0:0:0:0:
252,76,55116,1,0,0:0:0:0:
252,76,55189,2,0,L|194:87,1,58.4999973220826,8|0,0:0|0:0,0:0:0:0:
55,88,55336,2,0,P|56:117|66:144,1,58.4999973220826
280,156,55482,5,14,0:1:0:0:
248,352,55628,1,0,0:0:0:0:
94,226,55775,1,0,0:0:0:0:
344,328,55921,5,14,0:1:0:0:
192,296,56067,1,0,0:0:0:0:
295,180,56214,1,0,0:0:0:0:
88,328,56360,5,14,0:1:0:0:
360,240,56506,1,0,0:0:0:0:
148,49,56653,1,0,0:0:0:0:
272,280,56799,5,14,0:1:0:0:
4,168,56945,1,8,0:0:0:0:
168,248,57092,1,0,0:0:0:0:
196,240,57165,1,0,0:0:0:0:
220,223,57238,2,0,P|236:199|246:172,1,58.4999973220826,8|0,0:0|0:0,0:0:0:0:
336,112,57384,2,0,P|330:83|318:57,1,58.4999973220826,8|0,0:0|0:0,0:0:0:0:
181,67,57531,1,8,0:0:0:0:
433,145,57677,6,0,B|444:200|444:200|412:376,1,233.999989288331,6|2,0:0|0:0,0:0:0:0:
192,332,58116,2,0,P|248:318|306:319,1,116.999994644165,8|0,0:0|0:0,0:0:0:0:
112,344,58409,1,2,0:0:0:0:
254,202,58555,1,2,0:0:0:0:
408,332,58701,1,8,0:0:0:0:
160,244,58848,6,0,L|166:127,1,116.999994644165,2|0,0:0|0:0,0:0:0:0:
352,184,59140,1,2,0:0:0:0:
256,40,59287,1,8,0:0:0:0:
254,202,59433,1,0,0:0:0:0:
380,56,59579,1,2,0:0:0:0:
319,278,59726,1,2,0:0:0:0:
288,120,59872,1,8,0:0:0:0:
436,280,60018,6,0,P|324:254|225:311,1,233.999989288331,6|2,0:0|0:0,0:0:0:0:
40,272,60458,1,8,0:0:0:0:
108,364,60604,2,0,P|143:318|153:261,1,116.999994644165,0|2,0:0|0:0,0:0:0:0:
32,64,60897,2,0,L|44:180,1,116.999994644165,2|8,0:0|0:0,0:0:0:0:
128,312,61189,6,0,B|180:276|180:276|347:309,1,233.999989288331,2|2,0:0|0:0,0:0:0:0:
468,136,61628,1,10,0:1:0:0:
436,280,61775,1,0,0:0:0:0:
336,56,61921,1,2,0:1:0:0:
380,196,62067,1,2,0:0:0:0:
181,52,62214,1,10,0:1:0:0:
289,151,62360,1,0,0:0:0:0:
47,127,62506,6,0,P|39:236|141:275,1,233.999989288331,6|8,0:0|0:0,0:0:0:0:
131,73,62945,2,0,L|116:189,1,116.999994644165,0|2,0:0|0:0,0:0:0:0:
296,352,63238,2,0,L|311:236,1,116.999994644165,2|8,0:0|0:0,0:0:0:0:
39,235,63531,6,0,P|84:272|141:275,1,116.999994644165,2|0,0:0|0:0,0:0:0:0:
289,151,63823,1,2,0:0:0:0:
116,189,63970,2,0,L|118:305,1,116.999994644165,8|0,0:0|0:0,0:0:0:0:
288,272,64262,1,2,0:0:0:0:
184,116,64409,1,2,0:0:0:0:
356,199,64555,1,8,0:0:0:0:
116,189,64701,1,0,0:0:0:0:
356,199,64848,6,0,B|432:184|424:108|424:108|321:80,1,233.999989288331,6|8,0:0|0:0,0:0:0:0:
204,203,65287,2,0,P|194:261|209:317,1,116.999994644165,0|2,0:0|0:0,0:0:0:0:
352,120,65579,1,0,0:0:0:0:
352,120,65653,1,0,0:0:0:0:
352,119,65726,2,0,P|361:62|346:6,1,116.999994644165,8|0,0:0|0:0,0:0:0:0:
288,272,66018,5,2,0:0:0:0:
460,157,66165,1,2,0:1:0:0:
484,210,66238,1,2,0:1:0:0:
475,267,66311,1,2,0:1:0:0:
438,311,66384,1,2,0:1:0:0:
383,328,66458,1,2,0:1:0:0:
327,314,66531,1,2,0:1:0:0:
288,272,66604,5,2,0:1:0:0:
262,257,66677,1,2,0:0:0:0:
235,247,66750,1,2,0:0:0:0:
206,243,66823,1,2,0:0:0:0:
177,245,66897,1,2,0:0:0:0:
149,253,66970,1,2,0:0:0:0:
123,267,67043,1,2,0:0:0:0:
100,286,67116,1,2,0:0:0:0:
82,308,67189,6,0,P|190:311|211:205,1,233.999989288331,6|8,0:0|0:0,0:0:0:0:
92,56,67628,2,0,B|71:92|71:92|79:167,1,116.999994644165,2|0,0:0|0:0,0:0:0:0:
288,272,67921,2,0,B|308:235|308:235|300:160,1,116.999994644165,2|8,0:0|0:0,0:0:0:0:
240,24,68214,1,0,0:0:0:0:
184,208,68360,6,0,L|414:246,1,233.999989288331,6|8,0:0|0:0,0:0:0:0:
468,88,68799,2,0,L|352:107,1,116.999994644165,2|0,0:0|0:0,0:0:0:0:
360,308,69092,2,0,L|475:288,1,116.999994644165,2|8,0:0|0:0,0:0:0:0:
229,150,69384,6,0,P|126:164|144:268,1,233.999989288331,6|0,0:0|0:0,0:0:0:0:
376,204,69823,1,10,0:0:0:0:
184,208,69970,1,0,0:0:0:0:
276,36,70116,1,2,0:0:0:0:
308,252,70262,2,0,P|320:308|314:366,1,116.999994644165,2|8,0:0|0:0,0:0:0:0:
476,280,70555,6,0,B|484:240|484:240|472:208|472:208|516:128|465:58,1,233.999989288331,6|2,0:0|0:0,0:0:0:0:
259,145,70994,2,0,L|376:136,1,116.999994644165,8|0,0:0|0:0,0:0:0:0:
204,84,71287,1,2,0:0:0:0:
396,132,71433,1,2,0:0:0:0:
228,280,71579,1,8,0:0:0:0:
228,280,71872,5,14,0:1:0:0:
320,88,72018,1,0,0:0:0:0:
292,336,72165,5,0,0:0:0:0:
127,185,72311,5,14,0:1:0:0:
424,240,72458,1,0,0:0:0:0:
112,304,72604,1,0,0:0:0:0:
388,56,72750,5,14,0:1:0:0:
292,336,72897,1,0,0:0:0:0:
72,80,73043,1,0,0:0:0:0:
184,360,73189,5,14,0:1:0:0:
336,152,73336,1,0,0:1:0:0:
28,324,73482,1,0,0:1:0:0:
184,48,73628,1,14,0:1:0:0:
478,176,73775,1,0,0:0:0:0:
124,159,73921,5,14,0:1:0:0:
415,273,74067,1,0,0:0:0:0:
162,287,74214,1,14,0:1:0:0:
384,221,74360,1,0,0:0:0:0:
220,337,74506,5,14,0:1:0:0:
291,46,74653,1,0,0:0:0:0:
111,233,74799,1,14,0:1:0:0:
399,149,74945,1,0,0:0:0:0:
115,57,75092,5,14,0:1:0:0:
395,325,75238,1,14,0:1:0:0:
124,332,75384,1,12,0:0:0:0:
304,256,75531,6,0,L|296:197,3,58.4999973220826,12|0|0|0,0:0|0:0|0:0|0:0,0:0:0:0:
97,111,75999,6,0,L|108:8,1,90
13,154,76306,1,0,0:0:0:0:
179,242,76460,1,0,0:0:0:0:
179,242,76768,1,0,0:0:0:0:
179,242,76922,6,0,P|233:261|291:160,1,180,4|8,0:1|0:0,0:0:0:0:
97,111,77383,1,0,0:0:0:0:
179,242,77537,1,2,0:0:0:0:
34,301,77691,2,0,P|51:259|65:216,1,90,0|8,0:0|0:0,0:0:0:0:
97,111,77999,1,0,0:0:0:0:
179,242,78152,5,2,0:0:0:0:
304,102,78306,1,0,0:0:0:0:
179,242,78460,2,0,L|193:330,1,90,8|8,0:0|0:0,0:0:0:0:
411,169,78768,1,2,0:0:0:0:
255,215,78922,1,0,0:0:0:0:
423,294,79075,1,8,0:0:0:0:
232,135,79229,1,8,0:0:0:0:
232,135,79306,1,8,0:0:0:0:
232,135,79383,6,0,P|173:198|202:278,1,180,4|8,0:1|0:0,0:0:0:0:
433,262,79845,2,0,P|445:211|455:161,1,90,0|2,0:0|0:0,0:0:0:0:
283,0,80152,2,0,P|289:45|298:91,1,90,0|8,0:0|0:0,0:0:0:0:
265,266,80460,1,0,0:0:0:0:
352,155,80614,5,2,0:0:0:0:
176,226,80768,1,0,0:0:0:0:
176,226,80845,1,0,0:0:0:0:
176,226,80922,1,8,0:0:0:0:
323,341,81075,1,0,0:0:0:0:
232,135,81229,2,0,P|187:143|140:151,1,90,2|0,0:0|0:0,0:0:0:0:
0,271,81537,2,0,P|19:324|44:379,1,90,8|8,0:0|0:0,0:0:0:0:
33,355,81768,1,8,0:0:0:0:
33,355,81845,5,4,0:1:0:0:
255,215,81999,1,0,0:0:0:0:
177,342,82152,1,8,0:0:0:0:
385,220,82306,1,0,0:0:0:0:
263,91,82460,2,0,B|195:106|195:106|135:92|135:92|56:111,1,180,2|8,0:0|0:0,0:0:0:0:
88,104,82922,1,0,0:0:0:0:
0,271,83075,5,2,0:0:0:0:
0,271,83229,1,0,0:0:0:0:
88,104,83383,1,8,0:0:0:0:
255,215,83537,1,0,0:0:0:0:
225,12,83691,1,4,0:3:0:0:
157,177,83845,1,8,0:0:0:0:
157,177,83922,1,8,0:0:0:0:
157,177,83999,1,8,0:0:0:0:
340,10,84152,6,0,P|422:20|458:103,1,180,4|0,0:1|0:0,0:0:0:0:
210,115,84614,1,8,0:0:0:0:
275,266,84768,1,0,0:0:0:0:
370,92,84922,5,8,0:0:0:0:
204,310,85075,1,0,0:0:0:0:
126,98,85229,5,8,0:0:0:0:
246,189,85383,1,8,0:0:0:0:
246,189,85460,1,8,0:0:0:0:
246,189,85537,5,8,0:0:0:0:
105,270,85691,1,0,0:0:0:0:
53,54,85845,1,8,0:0:0:0:
210,115,85999,1,0,0:0:0:0:
3,243,86152,1,8,0:0:0:0:
288,105,86306,1,8,0:3:0:0:
324,133,86383,1,8,0:3:0:0:
343,173,86460,1,8,0:3:0:0:
341,217,86537,1,8,0:3:0:0:
318,256,86614,1,8,0:3:0:0:
281,280,86691,1,8,0:3:0:0:
236,278,86768,6,0,L|56:234,1,180,4|8,0:1|0:0,0:0:0:0:
341,217,87229,2,0,P|329:261|313:303,1,90,0|2,0:0|0:0,0:0:0:0:
210,115,87537,2,0,P|222:71|238:29,1,90,0|8,0:0|0:0,0:0:0:0:
256,196,87845,1,0,0:0:0:0:
123,89,87999,5,2,0:0:0:0:
151,241,88152,1,0,0:0:0:0:
325,56,88306,1,8,0:0:0:0:
271,228,88460,2,0,P|255:197|235:146,1,90,0|2,0:0|0:0,0:0:0:0:
325,56,88768,1,0,0:0:0:0:
151,241,88922,1,8,0:0:0:0:
325,56,89075,1,8,0:0:0:0:
325,56,89152,1,8,0:0:0:0:
325,56,89229,6,0,P|405:97|480:31,1,180,4|8,0:1|0:0,0:0:0:0:
279,256,89691,1,0,0:0:0:0:
383,195,89845,1,2,0:0:0:0:
310,371,89999,1,0,0:0:0:0:
216,168,90152,1,8,0:0:0:0:
401,308,90306,1,8,0:0:0:0:
401,308,90383,1,8,0:0:0:0:
401,308,90460,6,0,P|458:258|417:167,1,180,4|8,0:1|0:0,0:0:0:0:
214,67,90922,1,0,0:0:0:0:
279,256,91075,1,2,0:0:0:0:
337,105,91229,2,0,L|280:116,1,45,8|8,0:0|0:0,0:0:0:0:
216,168,91383,1,8,0:0:0:0:
59,47,91537,1,8,0:0:0:0:
59,47,91614,1,8,0:0:0:0:
59,47,91691,6,0,P|53:96|46:144,1,90,4|0,0:1|0:0,0:0:0:0:
184,321,91999,1,8,0:0:0:0:
259,115,92152,1,0,0:0:0:0:
401,308,92306,2,0,P|383:216|367:126,1,180,2|8,0:0|0:0,0:0:0:0:
202,274,92768,1,0,0:0:0:0:
259,115,92922,6,0,P|214:129|163:140,1,90,2|0,0:0|0:0,0:0:0:0:
57,246,93229,1,8,0:0:0:0:
138,63,93383,1,0,0:0:0:0:
9,162,93537,1,2,0:0:0:0:
220,41,93691,1,8,0:0:0:0:
220,41,93768,1,8,0:0:0:0:
220,41,93845,1,8,0:0:0:0:
115,210,93999,6,0,P|136:298|162:384,1,180,4|0,0:1|0:0,0:0:0:0:
474,236,94460,1,8,0:0:0:0:
438,96,94614,1,0,0:0:0:0:
366,311,94768,5,8,0:0:0:0:
347,118,94922,1,0,0:0:0:0:
233,334,95075,5,8,0:0:0:0:
255,109,95229,1,8,0:0:0:0:
112,297,95383,5,8,0:0:0:0:
178,51,95537,1,0,0:0:0:0:
0,261,95691,1,8,0:0:0:0:
233,334,95845,1,0,0:0:0:0:
178,51,95999,1,8,0:0:0:0:
64,205,96152,1,8,0:0:0:0:
64,205,96229,1,8,0:0:0:0:
64,205,96306,1,8,0:0:0:0:
178,51,96460,6,0,B|242:62|242:62|295:47|295:47|386:60,1,180,4|0,0:1|0:0,0:0:0:0:
480,294,96922,2,0,P|463:250|454:207,1,90,8|0,0:0|0:0,0:0:0:0:
351,89,97229,1,2,0:0:0:0:
261,263,97383,1,0,0:0:0:0:
351,89,97537,2,0,P|419:97|475:103,1,90,8|0,0:0|0:0,0:0:0:0:
283,343,97845,6,0,P|340:283|282:182,1,180,2|8,0:0|0:0,0:0:0:0:
134,123,98306,1,0,0:0:0:0:
261,263,98460,1,2,0:0:0:0:
202,53,98614,1,2,0:0:0:0:
112,283,98768,1,8,0:0:0:0:
286,142,98922,1,8,0:0:0:0:
286,142,98999,1,8,0:0:0:0:
286,142,99075,6,0,P|330:154|405:167,1,90,4|0,0:1|0:0,0:0:0:0:
283,343,99383,1,8,0:0:0:0:
197,181,99537,1,8,0:0:0:0:
372,261,99691,1,8,0:0:0:0:
156,350,99845,1,8,0:0:0:0:
316,54,99999,1,8,0:0:0:0:
449,324,100152,1,8,0:0:0:0:
197,181,100306,6,0,P|171:218|140:250,1,90
267,29,100614,1,2,0:0:0:0:
94,186,100768,2,0,P|51:200|7:206,1,90
372,261,101075,1,2,0:0:0:0:
392,40,101922,6,0,P|376:80|388:144,1,90,2|0,0:0|0:0,0:0:0:0:
440,244,102228,6,0,L|432:360,1,107.999996704102,4|0,0:0|0:0,0:0:0:0:
112,192,102536,1,8,0:0:0:0:
216,272,102690,2,0,P|272:276|320:256,1,107.999996704102,2|0,0:0|0:0,0:0:0:0:
284,44,102997,2,0,P|228:40|180:60,1,107.999996704102,2|8,0:0|0:0,0:0:0:0:
48,312,103305,1,2,0:0:0:0:
48,312,103382,1,0,0:0:0:0:
48,312,103459,5,0,0:0:0:0:
0,96,103613,1,0,0:0:0:0:
127,271,103767,2,0,P|133:335|113:372,1,107.999996704102,8|0,0:0|0:0,0:0:0:0:
363,221,104074,1,0,0:0:0:0:
251,154,104228,2,0,P|228:105|240:52,1,107.999996704102,2|8,0:0|0:0,0:0:0:0:
255,277,104536,1,0,0:0:0:0:
255,277,104613,1,0,0:0:0:0:
255,277,104690,6,0,P|351:240|447:289,1,215.999993408203,2|8,0:0|0:0,0:0:0:0:
119,204,105151,2,0,L|-5:189,1,107.999996704102,2|0,0:0|0:0,0:0:0:0:
405,125,105459,2,0,L|512:112,1,107.999996704102,2|8,0:0|0:0,0:0:0:0:
230,18,105767,1,2,0:0:0:0:
154,304,105921,6,0,P|95:307|46:281,1,107.999996704102,0|0,0:0|0:0,0:0:0:0:
293,119,106228,1,8,0:0:0:0:
362,346,106382,2,0,L|478:355,1,107.999996704102
225,219,106690,1,0,0:0:0:0:
354,21,106844,1,10,0:0:0:0:
503,237,106997,1,0,0:0:0:0:
503,237,107074,1,0,0:0:0:0:
503,237,107151,5,4,0:0:0:0:
189,117,107305,1,2,0:0:0:0:
283,365,107459,1,8,0:0:0:0:
462,122,107613,1,0,0:0:0:0:
357,198,107767,2,0,L|386:302,1,107.999996704102,2|0,0:0|0:0,0:0:0:0:
48,155,108074,1,8,0:0:0:0:
167,206,108228,1,0,0:0:0:0:
167,206,108305,1,0,0:0:0:0:
167,206,108382,6,0,P|227:202|273:160,1,107.999996704102,2|0,0:0|0:0,0:0:0:0:
396,25,108690,1,8,0:0:0:0:
385,277,108844,2,0,L|379:386,1,107.999996704102,2|0,0:0|3:0,0:0:0:0:
336,376,109074,1,0,0:0:0:0:
299,353,109151,1,0,3:0:0:0:
280,313,109228,1,0,3:0:0:0:
282,269,109305,2,0,P|306:234|331:217,1,53.9999983520508,0|0,0:0|0:0,3:0:0:0:
425,184,109459,6,0,P|356:202|253:102,1,215.999993408203,6|0,0:0|0:0,0:0:0:0:
81,276,109921,2,0,P|83:329|63:382,1,107.999996704102,14|0,0:0|0:0,0:0:0:0:
357,103,110228,2,0,P|355:49|373:0,1,107.999996704102,6|0,0:0|0:0,0:0:0:0:
503,250,110536,1,10,0:0:0:0:
317,297,110690,1,0,0:0:0:0:
317,297,110767,1,0,0:0:0:0:
317,297,110844,6,0,L|196:284,1,107.999996704102,6|0,0:0|0:0,0:0:0:0:
2,36,111151,2,0,L|109:47,1,107.999996704102,14|0,0:0|0:0,0:0:0:0:
329,69,111459,1,2,0:0:0:0:
415,272,111613,1,0,0:0:0:0:
415,272,111690,1,0,0:0:0:0:
415,272,111767,1,8,0:0:0:0:
388,224,111844,1,0,0:0:0:0:
343,194,111921,1,0,0:0:0:0:
288,192,111997,1,0,0:0:0:0:
241,218,112074,6,0,B|166:261|120:160|28:216,1,215.999993408203,6|8,0:0|0:0,0:0:0:0:
202,115,112536,1,2,0:0:0:0:
202,115,112613,1,0,0:0:0:0:
202,115,112690,1,0,0:0:0:0:
288,333,112844,1,0,0:0:0:0:
293,16,112997,1,8,0:0:0:0:
166,318,113151,2,0,P|112:335|53:325,1,107.999996704102,2|0,0:0|0:0,0:0:0:0:
343,194,113459,6,0,L|462:207,1,107.999996704102,2|8,0:0|0:0,0:0:0:0:
112,47,113767,1,2,0:0:0:0:
24,141,113921,2,0,P|67:171|121:175,1,107.999996704102
423,263,114228,1,8,0:0:0:0:
389,235,114305,1,0,0:0:0:0:
346,226,114382,1,0,0:0:0:0:
303,235,114459,1,0,0:0:0:0:
268,261,114536,6,0,L|253:371,1,107.999996704102,6|0,0:0|0:0,0:0:0:0:
486,203,114844,1,8,0:0:0:0:
386,121,114997,2,0,L|400:13,1,107.999996704102,0|2,0:0|0:0,0:0:0:0:
108,161,115305,1,2,0:0:0:0:
220,349,115459,1,8,0:0:0:0:
501,77,115613,6,0,P|444:15|307:27,1,215.999993408203,2|0,0:0|0:0,0:0:0:0:
239,243,116074,2,0,L|218:363,1,107.999996704102,8|0,0:0|0:0,0:0:0:0:
108,161,116382,1,0,0:0:0:0:
369,132,116536,1,2,0:0:0:0:
360,174,116613,1,0,0:0:0:0:
351,216,116690,1,8,0:0:0:0:
340,258,116767,1,0,0:0:0:0:
325,298,116844,1,0,0:0:0:0:
365,283,116921,1,0,0:0:0:0:
405,268,116997,5,4,0:0:0:0:
170,203,117151,1,2,0:0:0:0:
460,160,117305,1,8,0:0:0:0:
294,371,117459,1,0,0:0:0:0:
262,143,117613,2,0,B|242:-4|242:-4|207:69,1,215.999993408203,2|8,0:0|0:0,0:0:0:0:
117,280,118074,1,0,0:0:0:0:
329,229,118228,6,0,P|363:181|368:126,1,107.999996704102,2|0,0:0|0:0,0:0:0:0:
117,280,118536,1,8,0:0:0:0:
378,317,118690,2,0,L|503:301,1,107.999996704102,2|0,0:0|0:0,0:0:0:0:
222,254,118997,1,0,0:0:0:0:
222,254,119074,1,0,0:0:0:0:
222,254,119151,1,8,0:0:0:0:
277,43,119305,5,6,0:0:0:0:
191,347,119459,1,2,0:0:0:0:
42,214,119613,1,2,0:0:0:0:
369,53,119767,1,10,0:0:0:0:
336,179,119921,2,0,L|312:284,1,107.999996704102,0|6,0:0|0:0,0:0:0:0:
231,51,120228,1,0,0:0:0:0:
359,357,120382,2,0,P|298:371|245:340,1,107.999996704102,10|0,0:0|0:0,0:0:0:0:
377,33,120690,6,0,L|493:56,1,107.999996704102,6|0,0:0|0:0,0:0:0:0:
135,33,120997,2,0,L|19:56,1,107.999996704102,14|0,0:0|0:0,0:0:0:0:
179,276,121305,1,0,0:0:0:0:
312,94,121459,1,0,0:0:0:0:
322,135,121536,1,0,0:0:0:0:
347,170,121613,1,8,0:0:0:0:
381,196,121690,1,0,0:0:0:0:
422,207,121767,6,0,B|325:148|309:237|212:187,1,215.999993408203,4|0,0:0|0:0,0:0:0:0:
97,132,122228,2,0,P|52:97|31:37,1,107.999996704102,10|0,0:0|0:0,0:0:0:0:
179,276,122536,2,0,P|129:303|65:299,1,107.999996704102,2|0,0:0|0:0,0:0:0:0:
274,133,122844,1,8,0:0:0:0:
265,366,122997,1,0,0:0:0:0:
265,366,123074,1,0,0:0:0:0:
265,366,123151,5,2,0:0:0:0:
325,58,123305,1,0,0:0:0:0:
212,200,123459,1,8,0:0:0:0:
405,278,123613,1,2,0:0:0:0:
405,278,123767,2,0,L|517:266,1,107.999996704102,2|0,0:0|0:0,0:0:0:0:
178,106,124074,2,0,L|70:117,1,107.999996704102,10|0,0:0|0:0,0:0:0:0:
256,192,124382,5,0,0:0:0:0:
256,192,124536,1,0,0:0:0:0:
400,190,124690,1,8,0:0:0:0:
127,102,124844,1,0,0:0:0:0:
295,333,124997,1,0,0:0:0:0:
295,46,125151,1,0,0:0:0:0:
127,277,125305,1,8,0:0:0:0:
400,190,125459,1,0,0:0:0:0:
256,192,125613,5,2,0:0:0:0:
458,262,125767,1,0,0:0:0:0:
346,119,125921,1,2,0:0:0:0:
451,345,126074,1,0,0:0:0:0:
475,49,126228,1,2,0:0:0:0:
349,264,126382,1,2,0:0:0:0:
466,130,126536,1,2,0:0:0:0:
152,215,126690,5,6,0:0:0:0:
224,48,128439,5,0,0:0:0:0:
320,48,128439,5,0,0:0:0:0:
288,48,128439,5,0,0:0:0:0:
256,112,128439,5,0,0:0:0:0:
256,80,128439,5,0,0:0:0:0:
192,48,128439,5,0,0:0:0:0:
88,48,128439,5,0,0:0:0:0:
48,48,128439,5,0,0:0:0:0:
120,48,128439,5,0,0:0:0:0:
352,48,128439,5,0,0:0:0:0:
152,48,128439,5,0,0:0:0:0:
256,48,128439,5,0,0:0:0:0:
256,144,128439,5,0,0:0:0:0:
384,48,128439,5,0,0:0:0:0:
448,48,128439,5,0,0:0:0:0:
416,48,128439,5,0,0:0:0:0:
256,176,128439,5,0,0:0:0:0:
256,248,128439,5,0,0:0:0:0:
256,216,128439,5,0,0:0:0:0:
256,280,128439,5,0,0:0:0:0:
256,352,128439,5,0,0:0:0:0:
256,320,128439,5,0,0:0:0:0:
448,48,128630,5,0,0:0:0:0:
416,48,128630,5,0,0:0:0:0:
384,48,128630,5,0,0:0:0:0:
256,48,128630,5,0,0:0:0:0:
256,144,128630,5,0,0:0:0:0:
256,176,128630,5,0,0:0:0:0:
256,352,128630,5,0,0:0:0:0:
256,320,128630,5,0,0:0:0:0:
256,280,128630,5,0,0:0:0:0:
256,248,128630,5,0,0:0:0:0:
256,216,128630,5,0,0:0:0:0:
256,112,128630,5,0,0:0:0:0:
256,80,128630,5,0,0:0:0:0:
288,48,128630,5,0,0:0:0:0:
224,48,128630,5,0,0:0:0:0:
320,48,128630,5,0,0:0:0:0:
192,48,128630,5,0,0:0:0:0:
352,48,128630,5,0,0:0:0:0:
152,48,128630,5,0,0:0:0:0:
120,48,128630,5,0,0:0:0:0:
88,48,128630,5,0,0:0:0:0:
48,48,128630,5,0,0:0:0:0:
224,48,128823,5,0,0:0:0:0:
320,48,128823,5,0,0:0:0:0:
288,48,128823,5,0,0:0:0:0:
256,112,128823,5,0,0:0:0:0:
256,80,128823,5,0,0:0:0:0:
192,48,128823,5,0,0:0:0:0:
88,48,128823,5,0,0:0:0:0:
48,48,128823,5,0,0:0:0:0:
120,48,128823,5,0,0:0:0:0:
352,48,128823,5,0,0:0:0:0:
152,48,128823,5,0,0:0:0:0:
256,48,128823,5,0,0:0:0:0:
256,144,128823,5,0,0:0:0:0:
384,48,128823,5,0,0:0:0:0:
448,48,128823,5,0,0:0:0:0:
416,48,128823,5,0,0:0:0:0:
256,176,128823,5,0,0:0:0:0:
256,248,128823,5,0,0:0:0:0:
256,216,128823,5,0,0:0:0:0:
256,280,128823,5,0,0:0:0:0:
256,352,128823,5,0,0:0:0:0:
256,320,128823,5,0,0:0:0:0:
448,48,129092,5,0,0:0:0:0:
416,48,129092,5,0,0:0:0:0:
384,48,129092,5,0,0:0:0:0:
256,48,129092,5,0,0:0:0:0:
256,144,129092,5,0,0:0:0:0:
256,176,129092,5,0,0:0:0:0:
256,352,129092,5,0,0:0:0:0:
256,320,129092,5,0,0:0:0:0:
256,280,129092,5,0,0:0:0:0:
256,248,129092,5,0,0:0:0:0:
256,216,129092,5,0,0:0:0:0:
256,112,129092,5,0,0:0:0:0:
256,80,129092,5,0,0:0:0:0:
288,48,129092,5,0,0:0:0:0:
224,48,129092,5,0,0:0:0:0:
320,48,129092,5,0,0:0:0:0:
192,48,129092,5,0,0:0:0:0:
352,48,129092,5,0,0:0:0:0:
152,48,129092,5,0,0:0:0:0:
120,48,129092,5,0,0:0:0:0:
88,48,129092,5,0,0:0:0:0:
48,48,129092,5,0,0:0:0:0:
224,48,129245,5,0,0:0:0:0:
320,48,129245,5,0,0:0:0:0:
288,48,129245,5,0,0:0:0:0:
256,112,129245,5,0,0:0:0:0:
256,80,129245,5,0,0:0:0:0:
192,48,129245,5,0,0:0:0:0:
88,48,129245,5,0,0:0:0:0:
48,48,129245,5,0,0:0:0:0:
120,48,129245,5,0,0:0:0:0:
352,48,129245,5,0,0:0:0:0:
152,48,129245,5,0,0:0:0:0:
256,48,129245,5,0,0:0:0:0:
256,144,129245,5,0,0:0:0:0:
384,48,129245,5,0,0:0:0:0:
448,48,129245,5,0,0:0:0:0:
416,48,129245,5,0,0:0:0:0:
256,176,129245,5,0,0:0:0:0:
256,248,129245,5,0,0:0:0:0:
256,216,129245,5,0,0:0:0:0:
256,280,129245,5,0,0:0:0:0:
256,352,129245,5,0,0:0:0:0:
256,320,129245,5,0,0:0:0:0:
448,48,129514,5,0,0:0:0:0:
416,48,129514,5,0,0:0:0:0:
384,48,129514,5,0,0:0:0:0:
256,48,129514,5,0,0:0:0:0:
256,144,129514,5,0,0:0:0:0:
256,176,129514,5,0,0:0:0:0:
256,352,129514,5,0,0:0:0:0:
256,320,129514,5,0,0:0:0:0:
256,280,129514,5,0,0:0:0:0:
256,248,129514,5,0,0:0:0:0:
256,216,129514,5,0,0:0:0:0:
256,112,129514,5,0,0:0:0:0:
256,80,129514,5,0,0:0:0:0:
288,48,129514,5,0,0:0:0:0:
224,48,129514,5,0,0:0:0:0:
320,48,129514,5,0,0:0:0:0:
192,48,129514,5,0,0:0:0:0:
352,48,129514,5,0,0:0:0:0:
152,48,129514,5,0,0:0:0:0:
120,48,129514,5,0,0:0:0:0:
88,48,129514,5,0,0:0:0:0:
48,48,129514,5,0,0:0:0:0:
432,296,129514,5,0,0:0:0:0:
320,128,129514,5,0,0:0:0:0:
256,32,129514,5,0,0:0:0:0:
232,56,129514,5,0,0:0:0:0:
272,56,129514,5,0,0:0:0:0:
288,80,129514,5,0,0:0:0:0:
304,104,129514,5,0,0:0:0:0:
336,152,129514,5,0,0:0:0:0:
352,176,129514,5,0,0:0:0:0:
368,200,129514,5,0,0:0:0:0:
384,224,129514,5,0,0:0:0:0:
400,248,129514,5,0,0:0:0:0:
416,272,129514,5,0,0:0:0:0:
240,56,129514,5,0,0:0:0:0:
224,80,129514,5,0,0:0:0:0:
208,104,129514,5,0,0:0:0:0:
192,128,129514,5,0,0:0:0:0:
176,152,129514,5,0,0:0:0:0:
160,176,129514,5,0,0:0:0:0:
144,200,129514,5,0,0:0:0:0:
128,224,129514,5,0,0:0:0:0:
112,248,129514,5,0,0:0:0:0:
96,272,129514,5,0,0:0:0:0:
80,296,129514,5,0,0:0:0:0:
200,216,129514,5,0,0:0:0:0:
232,216,129514,5,0,0:0:0:0:
264,216,129514,5,0,0:0:0:0:
296,216,129514,5,0,0:0:0:0:
320,216,129514,5,0,0:0:0:0:
64,320,129514,5,0,0:0:0:0:
48,344,129514,5,0,0:0:0:0:
448,320,129514,5,0,0:0:0:0:
464,344,129514,5,0,0:0:0:0:
224,48,129821,5,0,0:0:0:0:
320,48,129821,5,0,0:0:0:0:
288,48,129821,5,0,0:0:0:0:
256,112,129821,5,0,0:0:0:0:
256,80,129821,5,0,0:0:0:0:
192,48,129821,5,0,0:0:0:0:
88,48,129821,5,0,0:0:0:0:
48,48,129821,5,0,0:0:0:0:
120,48,129821,5,0,0:0:0:0:
352,48,129821,5,0,0:0:0:0:
152,48,129821,5,0,0:0:0:0:
256,48,129821,5,0,0:0:0:0:
256,144,129821,5,0,0:0:0:0:
384,48,129821,5,0,0:0:0:0:
448,48,129821,5,0,0:0:0:0:
416,48,129821,5,0,0:0:0:0:
256,176,129821,5,0,0:0:0:0:
256,248,129821,5,0,0:0:0:0:
256,216,129821,5,0,0:0:0:0:
256,280,129821,5,0,0:0:0:0:
256,352,129821,5,0,0:0:0:0:
256,320,129821,5,0,0:0:0:0:
210,36,129821,5,0,0:0:0:0:
188,41,129821,5,0,0:0:0:0:
147,60,129821,5,0,0:0:0:0:
113,89,129821,5,0,0:0:0:0:
107,277,129821,5,0,0:0:0:0:
177,331,129821,5,0,0:0:0:0:
220,344,129821,5,0,0:0:0:0:
331,332,129821,5,0,0:0:0:0:
402,278,129821,5,0,0:0:0:0:
256,32,129821,5,0,0:0:0:0:
278,33,129821,5,0,0:0:0:0:
300,36,129821,5,0,0:0:0:0:
322,42,129821,5,0,0:0:0:0:
343,50,129821,5,0,0:0:0:0:
362,61,129821,5,0,0:0:0:0:
380,75,129821,5,0,0:0:0:0:
396,91,129821,5,0,0:0:0:0:
409,109,129821,5,0,0:0:0:0:
419,129,129821,5,0,0:0:0:0:
427,150,129821,5,0,0:0:0:0:
431,172,129821,5,0,0:0:0:0:
432,195,129821,5,0,0:0:0:0:
429,217,129821,5,0,0:0:0:0:
423,239,129821,5,0,0:0:0:0:
414,259,129821,5,0,0:0:0:0:
387,295,129821,5,0,0:0:0:0:
370,310,129821,5,0,0:0:0:0:
351,322,129821,5,0,0:0:0:0:
310,339,129821,5,0,0:0:0:0:
288,344,129821,5,0,0:0:0:0:
265,346,129821,5,0,0:0:0:0:
243,346,129821,5,0,0:0:0:0:
198,338,129821,5,0,0:0:0:0:
157,321,129821,5,0,0:0:0:0:
138,308,129821,5,0,0:0:0:0:
122,294,129821,5,0,0:0:0:0:
95,258,129821,5,0,0:0:0:0:
86,237,129821,5,0,0:0:0:0:
80,216,129821,5,0,0:0:0:0:
77,193,129821,5,0,0:0:0:0:
78,171,129821,5,0,0:0:0:0:
82,149,129821,5,0,0:0:0:0:
89,127,129821,5,0,0:0:0:0:
100,108,129821,5,0,0:0:0:0:
129,74,129821,5,0,0:0:0:0:
167,49,129821,5,0,0:0:0:0:
254,32,129821,5,0,0:0:0:0:
232,33,129821,5,0,0:0:0:0:
112,248,129975,5,0,0:0:0:0:
152,48,129975,5,0,0:0:0:0:
344,48,129975,5,0,0:0:0:0:
376,48,129975,5,0,0:0:0:0:
312,48,129975,5,0,0:0:0:0:
280,48,129975,5,0,0:0:0:0:
248,48,129975,5,0,0:0:0:0:
216,48,129975,5,0,0:0:0:0:
184,48,129975,5,0,0:0:0:0:
112,48,129975,5,0,0:0:0:0:
112,80,129975,5,0,0:0:0:0:
112,120,129975,5,0,0:0:0:0:
112,152,129975,5,0,0:0:0:0:
112,184,129975,5,0,0:0:0:0:
112,216,129975,5,0,0:0:0:0:
112,280,129975,5,0,0:0:0:0:
112,312,129975,5,0,0:0:0:0:
112,344,129975,5,0,0:0:0:0:
376,344,129975,5,0,0:0:0:0:
344,344,129975,5,0,0:0:0:0:
312,344,129975,5,0,0:0:0:0:
248,344,129975,5,0,0:0:0:0:
280,344,129975,5,0,0:0:0:0:
216,344,129975,5,0,0:0:0:0:
184,344,129975,5,0,0:0:0:0:
152,344,129975,5,0,0:0:0:0:
160,192,129975,5,0,0:0:0:0:
200,192,129975,5,0,0:0:0:0:
232,192,129975,5,0,0:0:0:0:
272,192,129975,5,0,0:0:0:0:
