osu file format v14

[General]
AudioFilename: audio.mp3
AudioLeadIn: 0
PreviewTime: 58230
Countdown: 0
SampleSet: None
StackLeniency: 0.7
Mode: 1
LetterboxInBreaks: 0
WidescreenStoryboard: 0

[Editor]
Bookmarks: 188897
DistanceSpacing: 0.5
BeatDivisor: 1
GridSize: 8
TimelineZoom: 1.399999

[Metadata]
Title:F.A.T.E. -intense Remix-
TitleUnicode:F.A.T.E. -intense Remix-
Artist:AKIHIRO NAMBA (Hi-STANDARD/NAMBA69) x TAKESHI UEDA (AA=)
ArtistUnicode:AKIHIRO NAMBA (Hi-STANDARD/NAMBA69) × TAKESHI UEDA (AA=)
Creator:ibacot
Version:Basic
Source:God Eater 2 Rage Burst
Tags:ゴッドイーター2 レイジバースト 難波章浩 上田剛士 Yuyoyuppe ゆよゆっぺ - Kuncung - game rock Hitsu Reyzra - [Rizelxtric -
BeatmapID:1349509
BeatmapSetID:565545

[Difficulty]
HPDrainRate:7
CircleSize:2
OverallDifficulty:2
ApproachRate:10
SliderMultiplier:1.4
SliderTickRate:1

[Events]
//Background and Video events
0,0,"GE2 Rage Burst .jpg",0,90
//Break Periods
//Storyboard Layer 0 (Background)
//Storyboard Layer 1 (Fail)
//Storyboard Layer 2 (Pass)
//Storyboard Layer 3 (Foreground)
//Storyboard Sound Samples

[TimingPoints]
453,444.444444444444,4,1,0,35,1,0
11119,-100,4,1,0,50,0,0
12897,-100,4,1,0,55,0,0
14230,-100,4,1,0,65,0,0
14675,-100,4,1,0,70,0,0
28897,-100,4,1,0,50,0,0
29786,-100,4,1,0,55,0,0
56452,-100,4,1,0,60,0,0
59119,-100,4,1,0,70,0,1
73341,-100,4,1,0,80,0,1
87564,-100,4,1,0,70,0,0
103564,-100,4,1,0,45,0,0
116008,-100,4,1,0,55,0,0
132008,-100,4,1,0,70,0,1
146230,-100,4,1,0,80,0,1
160452,-100,4,1,0,60,0,0
175564,-100,4,1,0,45,0,0
182675,-100,4,1,0,35,0,0
188230,-100,4,1,0,45,0,0
188897,-100,4,1,0,55,0,0

[HitObjects]
256,192,453,5,4,0:0:0:0:
256,192,1341,1,8,0:0:0:0:
256,192,3119,1,8,0:0:0:0:
256,192,4008,1,4,0:0:0:0:
256,192,4897,1,8,0:0:0:0:
256,192,6675,1,8,0:0:0:0:
256,192,7564,1,4,0:0:0:0:
256,192,8452,1,8,0:0:0:0:
256,192,10230,1,8,0:0:0:0:
256,192,11119,1,12,0:0:0:0:
256,192,11564,1,0,0:0:0:0:
256,192,12008,1,0,0:0:0:0:
256,192,12452,1,0,0:0:0:0:
256,192,12897,1,8,0:0:0:0:
256,192,13786,1,0,0:0:0:0:
256,192,14230,1,8,0:0:0:0:
256,192,14675,1,4,0:0:0:0:
256,192,15564,1,8,0:0:0:0:
256,192,16452,1,0,0:0:0:0:
256,192,17341,1,8,0:0:0:0:
256,192,18230,1,4,0:0:0:0:
256,192,19119,1,8,0:0:0:0:
256,192,20008,1,0,0:0:0:0:
256,192,20897,1,8,0:0:0:0:
256,192,21786,1,4,0:0:0:0:
256,192,22675,1,8,0:0:0:0:
256,192,23564,1,0,0:0:0:0:
256,192,24008,1,0,0:0:0:0:
256,192,24452,1,8,0:0:0:0:
256,192,25341,1,4,0:0:0:0:
256,192,26230,1,8,0:0:0:0:
256,192,27119,1,0,0:0:0:0:
256,192,27341,12,0,28897,0:0:0:0:
256,192,29786,5,0,0:0:0:0:
256,192,30230,1,8,0:0:0:0:
256,192,30675,1,0,0:0:0:0:
256,192,31564,1,8,0:0:0:0:
256,192,32008,1,0,0:0:0:0:
256,192,32452,1,8,0:0:0:0:
256,192,33341,1,0,0:0:0:0:
256,192,33786,1,0,0:0:0:0:
256,192,34230,1,8,0:0:0:0:
256,192,35119,1,8,0:0:0:0:
256,192,36008,1,4,0:0:0:0:
256,192,36897,1,0,0:0:0:0:
256,192,37341,1,8,0:0:0:0:
256,192,37786,1,0,0:0:0:0:
256,192,38675,1,0,0:0:0:0:
256,192,39119,1,8,0:0:0:0:
256,192,39564,1,0,0:0:0:0:
256,192,40008,1,8,0:0:0:0:
256,192,40897,1,8,0:0:0:0:
256,192,41341,1,0,0:0:0:0:
256,192,42230,1,0,0:0:0:0:
256,192,42675,1,8,0:0:0:0:
256,192,43119,1,4,0:0:0:0:
256,192,44452,1,0,0:0:0:0:
256,192,44897,1,8,0:0:0:0:
256,192,45341,1,0,0:0:0:0:
256,192,46230,1,0,0:0:0:0:
256,192,46674,1,8,0:0:0:0:
256,192,47119,1,8,0:0:0:0:
256,192,48008,1,0,0:0:0:0:
256,192,48452,1,8,0:0:0:0:
256,192,49341,1,8,0:0:0:0:
256,192,50230,1,4,0:0:0:0:
256,192,51564,1,8,0:0:0:0:
256,192,52008,1,0,0:0:0:0:
256,192,52452,1,0,0:0:0:0:
256,192,53341,1,0,0:0:0:0:
256,192,53786,1,8,0:0:0:0:
256,192,54230,1,8,0:0:0:0:
256,192,55119,1,8,0:0:0:0:
256,192,55564,1,12,0:0:0:0:
256,192,56452,1,8,0:0:0:0:
256,192,56897,1,0,0:0:0:0:
256,192,57341,2,0,L|304:192,8,35
256,192,59119,1,4,0:0:0:0:
256,192,60008,1,8,0:0:0:0:
256,192,60897,1,8,0:0:0:0:
256,192,61786,1,12,0:0:0:0:
256,192,62675,1,0,0:0:0:0:
256,192,63119,1,0,0:0:0:0:
256,192,63564,1,8,0:0:0:0:
256,192,64452,1,8,0:0:0:0:
256,192,65341,1,8,0:0:0:0:
256,192,65786,1,8,0:0:0:0:
256,192,66230,1,4,0:0:0:0:
256,192,67119,1,8,0:0:0:0:
256,192,68008,1,0,0:0:0:0:
256,192,68897,1,8,0:0:0:0:
256,192,69341,1,0,0:0:0:0:
256,192,69786,1,0,0:0:0:0:
256,192,70675,1,8,0:0:0:0:
256,192,71564,1,12,0:0:0:0:
256,192,72452,1,8,0:0:0:0:
256,192,72897,1,0,0:0:0:0:
256,192,73341,1,4,0:0:0:0:
256,192,74230,1,0,0:0:0:0:
256,192,74675,1,0,0:0:0:0:
256,192,75119,1,8,0:0:0:0:
256,192,76008,1,8,0:0:0:0:
256,192,76897,1,0,0:0:0:0:
256,192,77341,1,8,0:0:0:0:
256,192,77786,1,0,0:0:0:0:
256,192,78675,1,8,0:0:0:0:
256,192,79564,1,0,0:0:0:0:
256,192,80008,1,8,0:0:0:0:
256,192,80452,1,4,0:0:0:0:
256,192,81341,1,0,0:0:0:0:
256,192,82231,1,8,0:0:0:0:
256,192,82675,1,8,0:0:0:0:
256,192,83119,1,0,0:0:0:0:
256,192,84008,1,4,0:0:0:0:
256,192,84452,1,12,0:0:0:0:
256,192,84897,1,12,0:0:0:0:
256,192,85341,1,4,0:0:0:0:
256,192,85786,2,0,L|320:192,12,35
256,192,87564,1,12,0:0:0:0:
256,192,88453,1,8,0:0:0:0:
256,192,89341,1,0,0:0:0:0:
256,192,90230,1,8,0:0:0:0:
256,192,91119,1,4,0:0:0:0:
256,192,92008,1,8,0:0:0:0:
256,192,92897,1,0,0:0:0:0:
256,192,93785,1,8,0:0:0:0:
256,192,94674,1,4,0:0:0:0:
256,192,95563,1,8,0:0:0:0:
256,192,96896,1,0,0:0:0:0:
256,192,97340,1,8,0:0:0:0:
256,192,98229,1,4,0:0:0:0:
256,192,99118,1,8,0:0:0:0:
256,192,100008,1,0,0:0:0:0:
256,192,100230,2,0,L|320:192,10,35
256,192,101786,1,12,0:0:0:0:
256,192,103564,1,0,0:0:0:0:
256,192,104452,1,8,0:0:0:0:
256,192,105341,1,4,0:0:0:0:
256,192,107119,1,0,0:0:0:0:
256,192,108008,1,8,0:0:0:0:
256,192,108452,1,0,0:0:0:0:
256,192,108897,1,4,0:0:0:0:
256,192,110675,1,8,0:0:0:0:
256,192,112452,1,4,0:0:0:0:
256,192,113786,1,0,0:0:0:0:
256,192,114230,1,8,0:0:0:0:
256,192,115119,1,8,0:0:0:0:
256,192,116008,1,4,0:0:0:0:
256,192,116897,1,8,0:0:0:0:
256,192,117786,1,0,0:0:0:0:
256,192,118230,1,0,0:0:0:0:
256,192,119119,1,8,0:0:0:0:
256,192,119564,1,0,0:0:0:0:
256,192,120008,1,0,0:0:0:0:
256,192,120897,1,8,0:0:0:0:
256,192,121341,1,0,0:0:0:0:
256,192,122231,1,0,0:0:0:0:
256,192,122675,1,8,0:0:0:0:
256,192,123119,1,4,0:0:0:0:
256,192,124452,1,8,0:0:0:0:
256,192,124897,1,0,0:0:0:0:
256,192,125341,1,0,0:0:0:0:
256,192,126230,1,8,0:0:0:0:
256,192,126674,1,0,0:0:0:0:
256,192,127119,1,8,0:0:0:0:
256,192,128008,1,8,0:0:0:0:
256,192,128452,1,0,0:0:0:0:
256,192,129341,1,8,0:0:0:0:
256,192,129786,1,8,0:0:0:0:
256,192,130230,2,0,L|296:192,7,35
256,192,132008,1,4,0:0:0:0:
256,192,132897,1,8,0:0:0:0:
256,192,133786,1,0,0:0:0:0:
256,192,134675,1,12,0:0:0:0:
256,192,135119,1,12,0:0:0:0:
256,192,136452,1,0,0:0:0:0:
256,192,137341,1,8,0:0:0:0:
256,192,138230,1,8,0:0:0:0:
256,192,138675,1,0,0:0:0:0:
256,192,139119,1,4,0:0:0:0:
256,192,140008,1,8,0:0:0:0:
256,192,140897,1,0,0:0:0:0:
256,192,141786,1,4,0:0:0:0:
256,192,142230,1,4,0:0:0:0:
256,192,143564,1,8,0:0:0:0:
256,192,144452,1,12,0:0:0:0:
256,192,145341,1,8,0:0:0:0:
256,192,145786,1,0,0:0:0:0:
256,192,146230,1,4,0:0:0:0:
256,192,147119,1,0,0:0:0:0:
256,192,147564,1,0,0:0:0:0:
256,192,148008,1,8,0:0:0:0:
256,192,148897,1,8,0:0:0:0:
256,192,149786,1,8,0:0:0:0:
256,192,150230,1,0,0:0:0:0:
256,192,150675,1,0,0:0:0:0:
256,192,151564,1,8,0:0:0:0:
256,192,152453,1,0,0:0:0:0:
256,192,152897,1,8,0:0:0:0:
256,192,153341,1,0,0:0:0:0:
256,192,154230,1,0,0:0:0:0:
256,192,155120,1,8,0:0:0:0:
256,192,155564,1,8,0:0:0:0:
256,192,156008,1,0,0:0:0:0:
256,192,156897,1,0,0:0:0:0:
256,192,157341,1,8,0:0:0:0:
256,192,157786,1,8,0:0:0:0:
256,192,158674,1,12,0:0:0:0:
256,192,159564,1,8,0:0:0:0:
256,192,160008,1,0,0:0:0:0:
256,192,160453,1,4,0:0:0:0:
256,192,161342,1,8,0:0:0:0:
256,192,162230,1,0,0:0:0:0:
256,192,163119,1,0,0:0:0:0:
256,192,164008,1,12,0:0:0:0:
256,192,164897,1,8,0:0:0:0:
256,192,165786,1,8,0:0:0:0:
256,192,166230,1,0,0:0:0:0:
256,192,166675,1,8,0:0:0:0:
256,192,167564,1,4,0:0:0:0:
256,192,168452,1,8,0:0:0:0:
256,192,169341,1,0,0:0:0:0:
256,192,170230,1,8,0:0:0:0:
256,192,171119,1,0,0:0:0:0:
256,192,171564,1,0,0:0:0:0:
256,192,172008,1,8,0:0:0:0:
256,192,172897,1,8,0:0:0:0:
256,192,173119,2,0,L|304:192,10,35
256,192,174675,1,4,0:0:0:0:
256,192,175564,1,0,0:0:0:0:
256,192,176452,1,8,0:0:0:0:
256,192,177341,1,0,0:0:0:0:
256,192,178230,1,4,0:0:0:0:
256,192,179119,1,8,0:0:0:0:
256,192,180008,1,0,0:0:0:0:
256,192,180897,1,8,0:0:0:0:
256,192,181341,1,0,0:0:0:0:
256,192,181786,1,4,0:0:0:0:
256,192,182675,1,8,0:0:0:0:
256,192,183564,1,0,0:0:0:0:
256,192,184452,1,8,0:0:0:0:
256,192,185341,1,0,0:0:0:0:
256,192,185786,1,0,0:0:0:0:
256,192,186230,1,8,0:0:0:0:
256,192,186675,1,0,0:0:0:0:
256,192,187119,2,0,L|312:192,14,35
256,192,188897,1,12,0:0:0:0:
