osu file format v14

[General]
AudioFilename: audio.mp3
AudioLeadIn: 0
PreviewTime: 58625
Countdown: 0
SampleSet: Soft
StackLeniency: 0.7
Mode: 2
LetterboxInBreaks: 0
WidescreenStoryboard: 0

[Editor]
DistanceSpacing: 1.3
BeatDivisor: 4
GridSize: 16
TimelineZoom: 1.5

[Metadata]
Title:Kando Reduction
TitleUnicode:感弩≠Reduction
Artist:AKIAKANE
ArtistUnicode:秋赤音
Creator:Deif
Version:Feelings
Source:
Tags:AlexDemon- Polish Catch Tournament 2K23 2023 Semifinals HardRock HR1 AKI AKANE やいり Yairi madamxx Utaite Vocaloid DRAGONFLY J-Rock JRock Rock Japanese
BeatmapID:4401659
BeatmapSetID:2098447

[Difficulty]
HPDrainRate:6
CircleSize:4.2
OverallDifficulty:9.6
ApproachRate:9.6
SliderMultiplier:2.24
SliderTickRate:2

[Events]
//Background and Video events
Video,-1800,"video.avi"
0,0,"BG.jpg",0,0
//Break Periods
2,147150,153750
//Storyboard Layer 0 (Background)
//Storyboard Layer 1 (Fail)
//Storyboard Layer 2 (Pass)
//Storyboard Layer 3 (Foreground)
//Storyboard Layer 4 (Overlay)
//Storyboard Sound Samples

[TimingPoints]
758,304.568527918782,4,2,0,60,1,0
10504,-100,4,2,1,70,0,0
10808,-100,4,2,0,70,0,0
10961,-100,4,2,1,70,0,0
11722,-100,4,2,0,70,0,0
11875,-100,4,2,1,70,0,0
13245,-100,4,2,0,70,0,0
13398,-100,4,2,1,70,0,0
14159,-100,4,2,0,70,0,0
14312,-100,4,2,1,70,0,0
15681,-100,4,2,0,70,0,0
15834,-100,4,2,1,70,0,0
16595,-100,4,2,0,70,0,0
16748,-100,4,2,1,70,0,0
20098,304.568527918782,4,1,2,60,1,1
20098,-33.3333333333333,4,1,2,60,0,1
20174,-100,4,1,1,60,0,0
20707,-100,4,3,0,65,0,0
20783,-100,4,1,1,60,0,0
21316,-100,4,1,2,60,0,0
21392,-100,4,1,1,60,0,0
21925,-100,4,3,0,65,0,0
22001,-100,4,1,1,60,0,0
22534,-100,4,1,2,60,0,0
22610,-100,4,1,1,60,0,0
23143,-100,4,3,0,65,0,0
23219,-100,4,1,1,60,0,0
23752,-100,4,1,2,60,0,0
23828,-100,4,1,1,60,0,0
24361,-100,4,3,0,65,0,0
24437,-100,4,1,1,60,0,0
24666,-46.9483568075117,4,1,1,60,0,0
24971,-100,4,1,2,60,0,0
25047,-100,4,1,1,60,0,0
25580,-100,4,3,0,65,0,0
25656,-100,4,1,1,60,0,0
26189,-100,4,1,2,60,0,0
26265,-100,4,1,1,60,0,0
26798,-100,4,3,0,65,0,0
26874,-100,4,1,1,60,0,0
27407,-100,4,1,2,60,0,0
27483,-100,4,1,1,60,0,0
28016,-100,4,3,0,65,0,0
28092,-100,4,1,1,60,0,0
28625,-100,4,1,2,60,0,0
28701,-100,4,1,1,60,0,0
29235,-100,4,3,0,65,0,0
29311,-100,4,1,1,60,0,0
29539,-100,4,3,0,65,0,0
29691,-100,4,1,1,60,0,0
29844,-100,4,3,0,65,0,0
29996,304.568527918782,4,1,1,60,1,0
30300,-100,4,3,0,65,0,0
30452,-100,4,1,1,60,0,0
31214,-100,4,3,0,65,0,0
31366,-100,4,1,1,60,0,0
31823,-100,4,2,0,65,0,0
31975,-100,4,1,1,60,0,0
32737,-100,4,3,0,65,0,0
32889,-100,4,1,1,60,0,0
33193,-100,4,3,0,65,0,0
33345,-100,4,1,1,60,0,0
33650,-100,4,3,0,65,0,0
33802,-100,4,1,1,60,0,0
34564,-100,4,3,0,65,0,0
34717,304.568527918782,4,1,1,60,1,0
36848,-100,4,3,0,65,0,0
37000,-100,4,1,1,60,0,0
39285,-100,4,3,0,65,0,0
39437,-100,4,1,1,60,0,0
39590,-100,4,3,0,65,0,0
39742,304.568527918782,4,1,1,60,1,0
40046,-100,4,3,0,65,0,0
40198,-100,4,1,1,60,0,0
40960,-100,4,3,0,65,0,0
41112,-100,4,1,1,60,0,0
41569,-100,4,2,0,65,0,0
41721,-100,4,1,1,60,0,0
42483,-100,4,3,0,65,0,0
42635,-100,4,1,1,60,0,0
42939,-100,4,3,0,65,0,0
43091,-100,4,1,1,60,0,0
43396,-100,4,3,0,65,0,0
43548,-100,4,1,1,60,0,0
44310,-100,4,3,0,65,0,0
44463,304.568527918782,4,1,1,60,1,0
46594,-100,4,3,0,65,0,0
46746,-100,4,1,1,60,0,0
49031,-100,4,3,0,65,0,0
49183,-100,4,1,1,60,0,0
49336,-100,4,3,0,65,0,0
49488,304.568527918782,4,1,1,60,1,0
50249,-100,4,3,0,65,0,0
50401,-100,4,1,1,60,0,0
50858,-100,4,3,0,65,0,0
51010,-100,4,1,1,60,0,0
51467,-100,4,3,0,65,0,0
51619,-100,4,1,1,60,0,0
52685,-100,4,3,0,65,0,0
52837,-100,4,1,1,60,0,0
53295,-100,4,3,0,65,0,0
53447,-100,4,1,1,60,0,0
54665,-100,4,3,0,65,0,0
54817,-100,4,1,1,60,0,0
54970,-100,4,3,0,65,0,0
55122,-100,4,1,1,60,0,0
55274,-100,4,3,0,65,0,0
55426,-100,4,1,1,60,0,0
55731,-100,4,3,0,65,0,0
55883,-100,4,1,1,60,0,0
56646,304.568527918782,4,1,1,60,1,0
56798,-100,4,3,0,40,0,0
57255,-100,4,3,0,50,0,0
57559,-100,4,3,0,60,0,0
57864,-100,4,3,0,70,0,0
58016,-100,4,1,1,60,0,0
59082,-100,4,1,2,70,0,1
59158,-100,4,1,1,70,0,1
59691,-100,4,3,0,75,0,1
59767,-100,4,1,1,70,0,1
60300,-100,4,1,2,70,0,1
60376,-100,4,1,1,70,0,1
60909,-100,4,3,0,75,0,1
60985,-100,4,1,1,70,0,1
61519,-100,4,1,2,70,0,1
61595,-100,4,1,1,70,0,1
62128,-100,4,3,0,75,0,1
62204,-100,4,1,1,70,0,1
62737,-100,4,1,2,70,0,1
62813,-100,4,1,1,70,0,1
63346,-100,4,3,0,75,0,1
63422,-100,4,1,1,70,0,1
63955,-100,4,1,2,70,0,1
64031,-100,4,1,1,70,0,1
64564,-100,4,3,0,75,0,1
64640,-100,4,1,1,70,0,1
65173,-100,4,1,2,70,0,1
65249,-100,4,1,1,70,0,1
65782,-100,4,3,0,75,0,1
65858,-100,4,2,0,75,0,1
66087,-100,4,1,1,70,0,1
66163,-100,4,2,0,75,0,1
66392,-100,4,1,2,70,0,1
66468,-100,4,1,1,70,0,1
67001,-100,4,3,0,75,0,1
67077,-100,4,1,1,70,0,1
67610,-100,4,1,2,70,0,1
67686,-100,4,1,1,70,0,1
68219,-100,4,3,0,75,0,1
68295,-100,4,1,1,70,0,1
68828,-100,4,1,2,70,0,1
68904,-100,4,1,1,70,0,1
69437,-100,4,3,0,75,0,1
69513,-100,4,1,1,70,0,1
70047,-100,4,1,2,70,0,1
70123,-100,4,1,1,70,0,1
70656,-100,4,3,0,75,0,1
70732,-100,4,1,1,70,0,1
71265,-100,4,1,2,70,0,1
71341,-100,4,1,1,70,0,1
71874,-100,4,3,0,75,0,1
71950,-100,4,1,1,70,0,1
72483,-100,4,1,2,70,0,1
72559,-100,4,1,1,70,0,1
73092,-100,4,3,0,75,0,1
73168,-100,4,1,1,70,0,1
73701,-100,4,1,2,70,0,1
73777,-100,4,1,1,70,0,1
74310,-100,4,3,0,75,0,1
74386,-100,4,1,1,70,0,1
74920,-46.9483568075117,4,1,2,70,0,1
74996,-100,4,1,1,70,0,1
75529,-100,4,3,0,75,0,1
75605,-100,4,1,1,70,0,1
76138,-100,4,1,2,70,0,1
76214,-100,4,1,1,70,0,1
76747,-100,4,1,2,70,0,1
76823,-100,4,1,1,70,0,1
77356,-100,4,1,2,70,0,1
77432,-100,4,1,1,70,0,1
78118,-100,4,1,2,70,0,0
78270,-100,4,3,2,50,0,0
78574,-33.3333333333333,4,1,2,60,0,1
78651,-100,4,1,1,60,0,0
79183,-100,4,3,0,65,0,0
79259,-100,4,1,1,60,0,0
79792,-100,4,1,2,60,0,0
79868,-100,4,1,1,60,0,0
80401,-100,4,3,0,65,0,0
80477,-100,4,1,1,60,0,0
81010,-100,4,1,2,60,0,0
81086,-100,4,1,1,60,0,0
81619,-100,4,3,0,65,0,0
81695,-100,4,1,1,60,0,0
82228,-100,4,1,2,60,0,0
82304,-100,4,1,1,60,0,0
82837,-100,4,3,0,65,0,0
82913,-100,4,1,1,60,0,0
83143,-46.9483568075117,4,1,1,60,0,0
83448,-100,4,1,2,60,0,0
83523,-100,4,1,1,60,0,0
84056,-100,4,3,0,65,0,0
84132,-100,4,1,1,60,0,0
84665,-100,4,1,2,60,0,0
84741,-100,4,1,1,60,0,0
85274,-100,4,3,0,65,0,0
85350,-100,4,1,1,60,0,0
85883,-100,4,1,2,60,0,0
85959,-100,4,1,1,60,0,0
86492,-100,4,3,0,65,0,0
86568,-100,4,1,1,60,0,0
87101,-100,4,1,2,60,0,0
87177,-100,4,1,1,60,0,0
87711,-100,4,3,0,65,0,0
87787,-100,4,1,1,60,0,0
88015,-100,4,3,0,65,0,0
88167,-100,4,1,1,60,0,0
88320,-100,4,3,0,65,0,0
88473,304.568527918782,4,1,1,60,1,0
88777,-100,4,3,0,65,0,0
88929,-100,4,1,1,60,0,0
89691,-100,4,3,0,65,0,0
89843,-100,4,1,1,60,0,0
90300,-100,4,2,0,65,0,0
90452,-100,4,1,1,60,0,0
91214,-100,4,3,0,65,0,0
91366,-100,4,1,1,60,0,0
91670,-100,4,3,0,65,0,0
91822,-100,4,1,1,60,0,0
92127,-100,4,3,0,65,0,0
92279,-100,4,1,1,60,0,0
93041,-100,4,3,0,65,0,0
93194,304.568527918782,4,1,1,60,1,0
95325,-100,4,3,0,65,0,0
95477,-100,4,1,1,60,0,0
97762,-100,4,3,0,65,0,0
97914,-100,4,1,1,60,0,0
98067,-100,4,3,0,65,0,0
98219,304.568527918782,4,1,1,60,1,0
98523,-100,4,3,0,65,0,0
98675,-100,4,1,1,60,0,0
99437,-100,4,3,0,65,0,0
99589,-100,4,1,1,60,0,0
100046,-100,4,2,0,65,0,0
100198,-100,4,1,1,60,0,0
100960,-100,4,3,0,65,0,0
101112,-100,4,1,1,60,0,0
101416,-100,4,3,0,65,0,0
101568,-100,4,1,1,60,0,0
101873,-100,4,3,0,65,0,0
102025,-100,4,1,1,60,0,0
102787,-100,4,3,0,65,0,0
102940,304.568527918782,4,1,1,60,1,0
105071,-100,4,3,0,65,0,0
105223,-100,4,1,1,60,0,0
107508,-100,4,3,0,65,0,0
107660,-100,4,1,1,60,0,0
107813,-100,4,3,0,65,0,0
107966,304.568527918782,4,2,1,60,1,0
108270,-100,4,2,0,60,0,0
117712,-100,4,2,1,60,0,0
121976,-100,4,3,0,50,0,0
122280,-100,4,3,0,60,0,0
122585,-100,4,1,1,60,0,0
122889,-100,4,3,0,65,0,0
123041,-100,4,1,1,60,0,0
123194,-100,4,3,0,65,0,0
123346,-100,4,1,1,60,0,0
123498,-100,4,3,0,65,0,0
123650,-100,4,1,1,60,0,0
123955,-100,4,3,0,65,0,0
124107,-100,4,1,1,60,0,0
124869,304.568527918782,4,1,1,60,1,0
125021,-100,4,3,0,40,0,0
125478,-100,4,3,0,50,0,0
125782,-100,4,3,0,60,0,0
126087,-100,4,3,0,70,0,0
126239,-100,4,1,1,60,0,0
126315,-100,4,2,0,70,0,0
127000,-100,4,1,1,60,0,0
127305,-100,4,1,2,70,0,1
127381,-100,4,1,1,70,0,1
127914,-100,4,3,0,75,0,1
127990,-100,4,1,1,70,0,1
128523,-100,4,1,2,70,0,1
128599,-100,4,1,1,70,0,1
129132,-100,4,3,0,75,0,1
129208,-100,4,1,1,70,0,1
129742,-100,4,1,2,70,0,1
129818,-100,4,1,1,70,0,1
130351,-100,4,3,0,75,0,1
130427,-100,4,1,1,70,0,1
130960,-100,4,1,2,70,0,1
131036,-100,4,1,1,70,0,1
131569,-100,4,3,0,75,0,1
131645,-100,4,1,1,70,0,1
132178,-100,4,1,2,70,0,1
132254,-100,4,1,1,70,0,1
132787,-100,4,3,0,75,0,1
132863,-100,4,1,1,70,0,1
133396,-100,4,1,2,70,0,1
133472,-100,4,1,1,70,0,1
134005,-100,4,3,0,75,0,1
134081,-100,4,2,0,75,0,1
134310,-100,4,1,1,70,0,1
134386,-100,4,2,0,75,0,1
134615,-100,4,1,2,70,0,1
134691,-100,4,1,1,70,0,1
135224,-100,4,3,0,75,0,1
135300,-100,4,1,1,70,0,1
135833,-100,4,1,2,70,0,1
135909,-100,4,1,1,70,0,1
136442,-100,4,3,0,75,0,1
136518,-100,4,1,1,70,0,1
137051,-100,4,1,2,70,0,1
137127,-100,4,1,1,70,0,1
137660,-100,4,3,0,75,0,1
137736,-100,4,1,1,70,0,1
138270,-100,4,1,2,70,0,1
138346,-100,4,1,1,70,0,1
138879,-100,4,3,0,75,0,1
138955,-100,4,1,1,70,0,1
139488,-100,4,1,2,70,0,1
139564,-100,4,1,1,70,0,1
140097,-100,4,3,0,75,0,1
140173,-100,4,1,1,70,0,1
140706,-100,4,1,2,70,0,1
140782,-100,4,1,1,70,0,1
141315,-100,4,3,0,75,0,1
141391,-100,4,1,1,70,0,1
141924,-100,4,1,2,70,0,1
142000,-100,4,1,1,70,0,1
142533,-100,4,3,0,75,0,1
142609,-100,4,1,1,70,0,1
143143,-46.9483568075117,4,1,2,70,0,1
143219,-100,4,1,1,70,0,1
143752,-100,4,3,0,75,0,1
143828,-100,4,1,1,70,0,1
144361,-100,4,1,2,70,0,1
144437,-100,4,1,1,70,0,1
144970,-100,4,1,2,70,0,1
145046,-100,4,1,1,70,0,1
145579,-100,4,1,2,70,0,1
145655,-100,4,1,1,70,0,1
146341,-100,4,1,2,70,0,0
146493,-100,4,3,2,50,0,0
146950,304.568527918782,4,2,1,60,1,0
154259,-100,4,2,0,60,0,0
155477,-100,4,2,1,60,0,0
156543,304.568527918782,4,1,1,55,1,0
156999,-78.7401574803149,4,1,1,55,0,0
157152,-100,4,1,1,55,0,0
157456,-100,4,3,0,60,0,0
157608,-100,4,1,1,55,0,0
158218,-78.7401574803149,4,1,1,55,0,0
158371,-100,4,1,1,55,0,0
158674,-100,4,3,0,60,0,0
158826,-100,4,1,1,55,0,0
159436,-78.7401574803149,4,1,1,55,0,0
159589,-100,4,1,1,55,0,0
159893,-100,4,3,0,60,0,0
160045,-100,4,1,1,55,0,0
160654,-78.7401574803149,4,1,1,55,0,0
160807,-100,4,1,1,55,0,0
161111,-100,4,3,0,60,0,0
161263,-100,4,1,1,55,0,0
161872,-78.7401574803149,4,1,1,55,0,0
162025,-100,4,1,1,55,0,0
162329,-100,4,3,0,60,0,0
162481,-100,4,1,1,55,0,0
163091,-78.7401574803149,4,1,1,55,0,0
163244,-100,4,1,1,55,0,0
163548,-100,4,3,0,60,0,0
163700,-100,4,1,1,55,0,0
164309,-78.7401574803149,4,1,1,55,0,0
164462,-100,4,1,1,55,0,0
164766,-100,4,3,0,60,0,0
164918,-100,4,1,1,55,0,0
165832,-100,4,3,1,60,0,0
165908,-100,4,1,1,55,0,0
166443,304.568527918782,4,1,1,60,1,0
167204,-100,4,3,0,65,0,0
167356,-100,4,1,1,60,0,0
167813,-100,4,3,0,65,0,0
167965,-100,4,1,1,60,0,0
168422,-100,4,3,0,65,0,0
168574,-100,4,1,1,60,0,0
169640,-100,4,3,0,65,0,0
169792,-100,4,1,1,60,0,0
170250,-100,4,3,0,65,0,0
170402,-100,4,1,1,60,0,0
172077,-100,4,3,0,65,0,0
172229,-100,4,1,1,60,0,0
172686,-100,4,3,0,65,0,0
172838,-100,4,1,1,60,0,0
173295,-100,4,3,0,65,0,0
173447,-100,4,1,1,60,0,0
174513,-100,4,3,0,65,0,0
174665,-100,4,1,1,60,0,0
175123,-100,4,3,0,65,0,0
175275,-100,4,1,1,60,0,0
176950,-100,4,3,0,65,0,0
177102,-100,4,1,1,60,0,0
177559,-100,4,3,0,65,0,0
177711,-100,4,1,1,60,0,0
178168,-100,4,3,0,65,0,0
178320,-100,4,1,1,60,0,0
179386,-100,4,3,0,65,0,0
179538,-100,4,1,1,60,0,0
179996,-100,4,3,0,65,0,0
180148,-100,4,1,1,60,0,0
181366,-100,4,3,0,65,0,0
181518,-100,4,1,1,60,0,0
181671,-100,4,3,0,65,0,0
181823,-100,4,1,1,60,0,0
181975,-100,4,3,0,65,0,0
182127,-100,4,1,1,60,0,0
182432,-100,4,3,0,65,0,0
182584,-100,4,1,1,60,0,0
183346,304.568527918782,4,1,1,60,1,0
183499,-100,4,3,0,40,0,0
183956,-100,4,3,0,50,0,0
184260,-100,4,3,0,60,0,0
184565,-100,4,3,0,70,0,0
184717,-100,4,1,1,60,0,0
189285,-100,4,3,0,65,0,0
189361,-100,4,1,1,60,0,0
189894,-100,4,3,0,65,0,0
189970,-100,4,1,1,60,0,0
190655,-100,4,1,2,70,0,1
190731,-100,4,1,1,70,0,1
191264,-100,4,3,0,75,0,1
191340,-100,4,1,1,70,0,1
191873,-100,4,1,2,70,0,1
191949,-100,4,1,1,70,0,1
192482,-100,4,3,0,75,0,1
192559,-100,4,1,1,70,0,1
193092,-100,4,1,2,70,0,1
193168,-100,4,1,1,70,0,1
193701,-100,4,3,0,75,0,1
193777,-100,4,1,1,70,0,1
194310,-100,4,1,2,70,0,1
194386,-100,4,1,1,70,0,1
194919,-100,4,3,0,75,0,1
194995,-100,4,1,1,70,0,1
195528,-100,4,1,2,70,0,1
195604,-100,4,1,1,70,0,1
196137,-100,4,3,0,75,0,1
196213,-100,4,1,1,70,0,1
196747,-100,4,1,2,70,0,1
196823,-100,4,1,1,70,0,1
197356,-100,4,3,0,75,0,1
197432,-100,4,1,1,70,0,1
197965,-100,4,1,2,70,0,1
198041,-100,4,1,1,70,0,1
198574,-100,4,3,0,75,0,1
198650,-100,4,1,1,70,0,1
199183,-100,4,1,2,70,0,1
199259,-100,4,1,1,70,0,1
199792,-100,4,3,0,75,0,1
199868,-100,4,1,1,70,0,1
200401,-100,4,1,2,70,0,1
200477,-100,4,1,1,70,0,1
201010,-100,4,3,0,75,0,1
201086,-100,4,1,1,70,0,1
201620,-46.9483568075117,4,1,2,70,0,1
201696,-100,4,1,1,70,0,1
202229,-100,4,3,0,75,0,1
202305,-100,4,1,1,70,0,1
202838,-46.9483568075117,4,1,2,70,0,1
202914,-100,4,1,1,70,0,1
203447,-46.9483568075117,4,1,2,70,0,1
203523,-100,4,1,1,70,0,1
204056,-46.9483568075117,4,1,2,70,0,1
204132,-100,4,1,1,70,0,1
204665,-100,4,1,2,70,0,1
204741,-100,4,1,1,70,0,1
205274,-46.9483568075117,4,1,2,70,0,1
205350,-100,4,1,1,70,0,1
205884,-46.9483568075117,4,1,2,70,0,1
205959,-100,4,1,1,70,0,1
206493,-77.5193798449612,4,1,2,70,0,1
206568,-100,4,1,1,70,0,1
207254,-100,4,1,2,70,0,0
207406,-100,4,3,0,50,0,0
207711,-33.3333333333333,4,1,2,60,0,1
207787,-100,4,1,1,60,0,0
208320,-100,4,3,0,65,0,0
208396,-100,4,1,1,60,0,0
208929,-100,4,1,2,60,0,0
209005,-100,4,1,1,60,0,0
209538,-100,4,3,0,65,0,0
209614,-100,4,1,1,60,0,0
210147,-100,4,1,2,60,0,0
210223,-100,4,1,1,60,0,0
210756,-100,4,3,0,65,0,0
210832,-100,4,1,1,60,0,0
211365,-100,4,1,2,60,0,0
211441,-100,4,1,1,60,0,0
211974,-100,4,3,0,65,0,0
212050,-100,4,1,1,60,0,0
212280,-46.9483568075117,4,1,1,60,0,0
212584,-100,4,1,2,60,0,0
212660,-100,4,1,1,60,0,0
213193,-100,4,3,0,65,0,0
213269,-100,4,1,1,60,0,0
213802,-100,4,1,2,60,0,0
213878,-100,4,1,1,60,0,0
214411,-100,4,3,0,65,0,0
214487,-100,4,1,1,60,0,0
215020,-100,4,1,2,60,0,0
215096,-100,4,1,1,60,0,0
215629,-100,4,3,0,65,0,0
215705,-100,4,1,1,60,0,0
216238,-100,4,1,2,60,0,0
216314,-100,4,1,1,60,0,0
216848,-100,4,3,0,65,0,0
216924,-100,4,1,1,60,0,0
217152,-100,4,3,0,65,0,0
217304,-100,4,1,1,60,0,0
217457,-100,4,3,0,65,0,0

[Colours]
Combo1 : 255,255,0
Combo2 : 243,89,34
Combo3 : 112,196,193
Combo4 : 128,255,0

[HitObjects]
192,192,758,5,0,0:0:0:0:
80,192,910,1,0,0:0:0:0:
48,96,1214,1,2,0:0:0:0:
224,96,1367,1,2,0:0:0:0:
192,192,1671,1,0,0:0:0:0:
80,192,1823,1,0,0:0:0:0:
48,288,2128,1,2,0:0:0:0:
224,288,2280,1,2,0:0:0:0:
320,192,3194,5,0,0:0:0:0:
432,192,3346,1,0,0:0:0:0:
464,96,3651,1,2,0:0:0:0:
288,96,3803,1,2,0:0:0:0:
320,192,4108,1,0,0:0:0:0:
432,192,4260,1,0,0:0:0:0:
464,288,4565,1,2,0:0:0:0:
288,288,4717,1,2,0:0:0:0:
192,192,5631,5,0,0:0:0:0:
80,192,5783,1,0,0:0:0:0:
48,96,6087,1,2,0:0:0:0:
224,96,6240,1,2,0:0:0:0:
192,192,6544,1,0,0:0:0:0:
80,192,6697,1,0,0:0:0:0:
48,288,7001,1,2,0:0:0:0:
224,288,7153,1,2,0:0:0:0:
320,192,8067,5,0,0:0:0:0:
432,192,8219,1,0,0:0:0:0:
464,96,8524,1,2,0:0:0:0:
288,96,8676,1,2,0:0:0:0:
320,192,8981,1,0,0:0:0:0:
432,192,9133,1,0,0:0:0:0:
464,288,9438,1,2,0:0:0:0:
288,288,9590,1,2,0:0:0:0:
192,192,10504,5,12,0:0:0:0:
416,192,10656,2,0,L|416:80,1,112,0|0,0:0|0:0,0:0:0:0:
304,80,10961,1,2,0:0:0:0:
480,80,11113,1,10,0:0:0:0:
192,192,11417,1,8,0:0:0:0:
416,192,11570,2,0,L|416:80,1,112,0|0,0:0|0:0,0:0:0:0:
304,80,11874,1,2,0:0:0:0:
480,80,12027,1,10,0:0:0:0:
32,80,12636,1,8,0:0:0:0:
320,192,12940,5,8,0:0:0:0:
96,192,13093,2,0,L|96:80,1,112,0|0,0:0|0:0,0:0:0:0:
208,80,13397,1,2,0:0:0:0:
32,80,13549,1,10,0:0:0:0:
320,192,13854,1,8,0:0:0:0:
96,192,14006,2,0,L|96:80,1,112,0|0,0:0|0:0,0:0:0:0:
208,80,14311,1,2,0:0:0:0:
32,80,14463,1,10,0:0:0:0:
480,80,15072,1,8,0:0:0:0:
192,192,15377,5,12,0:0:0:0:
416,192,15529,2,0,L|416:80,1,112,0|0,0:0|0:0,0:0:0:0:
304,80,15834,1,2,0:0:0:0:
480,80,15986,1,10,0:0:0:0:
192,192,16290,1,8,0:0:0:0:
416,192,16443,2,0,L|416:80,1,112,0|0,0:0|0:0,0:0:0:0:
304,80,16747,1,2,0:0:0:0:
480,80,16900,1,10,0:0:0:0:
32,80,17509,1,8,0:0:0:0:
320,192,17813,5,12,0:0:0:0:
256,192,17966,12,0,19641,0:0:0:0:
96,368,20098,6,0,B|432:368|432:368|448:192|432:32,1,672.000025634767,12|8,0:0|0:0,0:0:0:0:
368,32,20478,1,0,0:0:0:0:
208,32,20554,1,0,0:0:0:0:
320,192,20707,2,0,L|320:256,1,56,8|0,0:0|0:0,0:0:0:0:
256,192,20859,2,0,L|256:256,1,56,0|0,0:0|0:0,0:0:0:0:
416,192,21011,2,0,L|480:192,2,56,10|0|0,0:0|0:0|0:0,0:0:0:0:
176,64,21316,6,0,B|288:64|288:64|176:64,1,224,10|8,0:0|0:0,0:0:0:0:
240,64,21696,1,0,0:0:0:0:
400,192,21773,2,0,L|288:192,2,112,0|8|0,0:0|0:0|0:0,0:0:0:0:
336,192,22153,1,0,0:0:0:0:
176,320,22229,2,0,B|176:208|176:208|224:176,1,168,8|0,0:0|0:0,0:0:0:0:
64,96,22534,6,0,L|288:96,1,224,8|8,0:0|0:0,0:0:0:0:
224,32,22915,1,0,0:0:0:0:
64,32,22991,1,0,0:0:0:0:
176,192,23143,2,0,L|176:256,1,56,8|0,0:0|0:0,0:0:0:0:
112,192,23295,2,0,L|112:256,1,56,0|0,0:0|0:0,0:0:0:0:
272,192,23448,1,10,0:0:0:0:
336,192,23524,1,0,0:0:0:0:
336,128,23600,1,0,0:0:0:0:
96,288,23752,6,0,L|320:288,1,224,10|8,0:0|0:0,0:0:0:0:
256,352,24133,1,0,0:0:0:0:
416,192,24209,1,0,0:0:0:0:
176,192,24361,2,0,P|160:128|176:88,1,112,8|0,0:0|0:0,0:0:0:0:
240,64,24590,1,0,0:0:0:0:
400,64,24666,2,0,B|160:64|160:64|160:192,1,357.840001365051,10|0,0:0|0:0,0:0:0:0:
320,288,24971,6,0,L|96:288,1,224,8|8,0:0|0:0,0:0:0:0:
160,352,25351,1,0,0:0:0:0:
320,352,25427,2,0,L|320:288,1,56,0|0,0:0|0:0,0:0:0:0:
272,136,25580,1,8,0:0:0:0:
208,136,25656,1,0,0:0:0:0:
272,136,25732,1,0,0:0:0:0:
208,136,25808,1,0,0:0:0:0:
48,64,25884,2,0,L|160:64,1,112,10|0,0:0|0:0,0:0:0:0:
400,64,26189,6,0,B|288:64|288:64|400:64,1,224,10|8,0:0|0:0,0:0:0:0:
336,64,26570,1,0,0:0:0:0:
176,192,26646,2,0,L|176:256,1,56,0|0,0:0|0:0,0:0:0:0:
240,192,26798,2,0,L|240:256,1,56,8|0,0:0|0:0,0:0:0:0:
80,192,26950,1,0,0:0:0:0:
144,192,27026,1,0,0:0:0:0:
304,112,27103,2,0,L|192:112,1,112,8|0,0:0|0:0,0:0:0:0:
432,288,27407,6,0,L|208:288,1,224,8|8,0:0|0:0,0:0:0:0:
272,352,27788,1,0,0:0:0:0:
432,352,27864,2,0,L|432:288,1,56,0|0,0:0|0:0,0:0:0:0:
384,136,28016,1,8,0:0:0:0:
320,136,28092,1,0,0:0:0:0:
384,136,28169,1,0,0:0:0:0:
320,136,28245,1,0,0:0:0:0:
160,64,28321,2,0,L|272:64,1,112,10|0,0:0|0:0,0:0:0:0:
32,288,28625,6,0,B|144:288|144:288|32:288,1,224,10|8,0:0|0:0,0:0:0:0:
96,352,29006,1,0,0:0:0:0:
256,352,29082,2,0,L|256:288,1,56,0|0,0:0|0:0,0:0:0:0:
192,352,29235,2,0,L|192:288,1,56,8|0,0:0|0:0,0:0:0:0:
352,192,29387,1,8,0:0:0:0:
208,192,29539,1,8,0:0:0:0:
352,192,29691,1,8,0:0:0:0:
208,192,29844,1,8,0:0:0:0:
464,128,29996,6,0,L|352:128,2,112,12|8|0,0:0|0:0|0:0,0:0:0:0:
224,128,30452,1,8,0:0:0:0:
464,128,30605,1,8,0:0:0:0:
48,128,30909,6,0,L|160:128,2,112,8|8|0,0:0|0:0|0:0,0:0:0:0:
288,128,31366,1,8,0:0:0:0:
48,128,31518,1,8,0:0:0:0:
464,128,31823,6,0,L|240:128,1,224,2|0,0:0|0:0,0:0:0:0:
464,192,32432,5,8,0:0:0:0:
224,192,32584,2,0,L|208:80,1,112,8|0,0:0|0:0,0:0:0:0:
448,192,32889,1,8,0:0:0:0:
208,192,33041,2,0,L|224:80,1,112,8|0,0:0|0:0,0:0:0:0:
464,192,33346,5,8,0:0:0:0:
224,192,33498,2,0,B|208:80|208:80|320:80,1,224,8|8,0:0|0:0,0:0:0:0:
80,192,33955,2,0,L|64:80,1,112,8|0,0:0|0:0,0:0:0:0:
128,64,34183,1,0,0:0:0:0:
288,64,34259,5,8,0:0:0:0:
48,192,34412,2,0,P|32:256|48:360,1,168,8|0,0:0|0:0,0:0:0:0:
256,352,34717,6,0,P|328:268|256:224,1,224,12|0,0:0|0:0,0:0:0:0:
192,192,35097,1,0,0:0:0:0:
352,192,35173,1,8,0:0:0:0:
80,192,35478,1,8,0:0:0:0:
352,192,35782,2,0,L|352:128,1,56,8|0,0:0|0:0,0:0:0:0:
288,192,35935,6,0,L|288:128,1,56,0|0,0:0|0:0,0:0:0:0:
448,80,36087,2,0,L|448:144,1,56,8|0,0:0|0:0,0:0:0:0:
416,160,36239,1,0,0:0:0:0:
352,160,36315,1,0,0:0:0:0:
192,224,36392,1,8,0:0:0:0:
256,224,36468,1,0,0:0:0:0:
320,224,36544,1,0,0:0:0:0:
384,224,36620,1,0,0:0:0:0:
224,160,36696,2,0,L|336:160,2,112,8|8|8,0:0|0:0|0:0,0:0:0:0:
464,80,37153,6,0,P|496:152|464:288,1,224,12|0,0:0|0:0,0:0:0:0:
224,192,37610,2,0,B|448:192,1,224,8|0,0:0|0:0,0:0:0:0:
208,112,38067,2,0,L|320:112,1,112,8|0,0:0|0:0,0:0:0:0:
80,80,38371,6,0,P|48:152|80:288,1,224,8|0,0:0|0:0,0:0:0:0:
240,288,38752,1,0,0:0:0:0:
400,192,38828,2,0,L|176:192,1,224,8|8,0:0|0:0,0:0:0:0:
320,192,39285,1,8,0:0:0:0:
176,192,39437,1,8,0:0:0:0:
320,192,39590,1,8,0:0:0:0:
48,128,39742,6,0,L|160:128,2,112,12|8|0,0:0|0:0|0:0,0:0:0:0:
288,128,40198,1,8,0:0:0:0:
48,128,40351,1,8,0:0:0:0:
464,128,40655,6,0,L|352:128,2,112,8|8|0,0:0|0:0|0:0,0:0:0:0:
224,128,41112,1,8,0:0:0:0:
464,128,41264,1,8,0:0:0:0:
48,128,41569,6,0,L|272:128,1,224,2|0,0:0|0:0,0:0:0:0:
48,192,42178,5,8,0:0:0:0:
288,192,42330,2,0,L|304:80,1,112,8|0,0:0|0:0,0:0:0:0:
64,192,42635,1,8,0:0:0:0:
304,192,42787,2,0,L|288:80,1,112,8|0,0:0|0:0,0:0:0:0:
48,192,43092,5,8,0:0:0:0:
288,192,43244,2,0,B|304:80|304:80|192:80,1,224,8|8,0:0|0:0,0:0:0:0:
432,192,43701,2,0,L|448:80,1,112,8|0,0:0|0:0,0:0:0:0:
384,64,43929,1,0,0:0:0:0:
224,64,44005,5,8,0:0:0:0:
464,192,44158,2,0,P|480:256|464:360,1,168,8|0,0:0|0:0,0:0:0:0:
256,352,44462,6,0,P|184:268|256:224,1,224,12|0,0:0|0:0,0:0:0:0:
320,192,44843,1,0,0:0:0:0:
160,192,44919,1,8,0:0:0:0:
432,192,45224,1,8,0:0:0:0:
288,192,45376,2,0,L|400:192,1,112,0|8,0:0|0:0,0:0:0:0:
160,192,45681,5,0,0:0:0:0:
48,192,45833,2,0,L|48:128,1,56,8|0,0:0|0:0,0:0:0:0:
208,128,45985,1,0,0:0:0:0:
272,128,46061,1,0,0:0:0:0:
272,192,46138,1,8,0:0:0:0:
208,192,46214,1,0,0:0:0:0:
368,192,46290,2,0,L|368:128,1,56,0|0,0:0|0:0,0:0:0:0:
304,112,46442,1,8,0:0:0:0:
64,192,46594,1,8,0:0:0:0:
128,192,46671,1,0,0:0:0:0:
288,192,46747,1,8,0:0:0:0:
48,48,46899,6,0,L|272:48,1,224,12|0,0:0|0:0,0:0:0:0:
32,48,47356,2,0,P|16:128|32:268,1,224,8|0,0:0|0:0,0:0:0:0:
144,288,47813,1,8,0:0:0:0:
384,288,47965,1,0,0:0:0:0:
144,288,48117,6,0,P|128:208|144:68,1,224,8|0,0:0|0:0,0:0:0:0:
208,48,48498,1,0,0:0:0:0:
368,192,48574,2,0,L|256:192,1,112,8|0,0:0|0:0,0:0:0:0:
320,192,48803,1,0,0:0:0:0:
480,192,48879,1,8,0:0:0:0:
240,192,49031,1,8,0:0:0:0:
384,64,49183,1,8,0:0:0:0:
320,64,49259,1,0,0:0:0:0:
160,64,49336,1,8,0:0:0:0:
96,64,49412,1,0,0:0:0:0:
352,64,49488,6,0,L|368:176,2,112,4|0|0,0:0|0:0|0:0,0:0:0:0:
208,64,49944,2,0,L|96:64,2,112,8|0|2,0:0|0:0|0:0,0:0:0:0:
448,64,50401,1,0,0:0:0:0:
208,64,50553,1,8,0:0:0:0:
352,176,50706,5,0,0:0:0:0:
112,176,50858,2,0,L|96:64,1,112,8|0,0:0|0:0,0:0:0:0:
240,64,51163,2,0,L|352:64,1,112,8|0,0:0|0:0,0:0:0:0:
208,192,51467,2,0,L|320:192,2,112,2|0|8,0:0|0:0|0:0,0:0:0:0:
448,64,51924,6,0,L|464:176,2,112,4|0|0,0:0|0:0|0:0,0:0:0:0:
304,64,52381,2,0,L|192:64,2,112,8|0|2,0:0|0:0|0:0,0:0:0:0:
64,64,52838,1,0,0:0:0:0:
304,64,52990,1,8,0:0:0:0:
160,192,53142,5,0,0:0:0:0:
400,192,53295,2,0,L|416:80,1,112,8|0,0:0|0:0,0:0:0:0:
272,64,53599,2,0,L|272:128,1,56,8|0,0:0|0:0,0:0:0:0:
432,192,53751,1,0,0:0:0:0:
464,248,53828,1,0,0:0:0:0:
432,304,53904,1,0,0:0:0:0:
368,304,53980,1,0,0:0:0:0:
208,304,54056,1,8,0:0:0:0:
144,304,54132,1,0,0:0:0:0:
208,304,54208,1,0,0:0:0:0:
272,304,54284,1,0,0:0:0:0:
112,192,54361,6,0,L|96:80,1,112,4|0,0:0|0:0,0:0:0:0:
240,192,54665,2,0,L|224:80,1,112,2|0,0:0|0:0,0:0:0:0:
464,192,54970,2,0,L|480:80,1,112,8|0,0:0|0:0,0:0:0:0:
336,192,55274,2,0,L|352:80,1,112,2|0,0:0|0:0,0:0:0:0:
112,80,55579,5,0,0:0:0:0:
352,80,55731,1,8,0:0:0:0:
208,80,55883,1,0,0:0:0:0:
352,80,56036,2,0,L|352:144,1,56,8|0,0:0|0:0,0:0:0:0:
192,176,56188,1,0,0:0:0:0:
192,240,56264,1,0,0:0:0:0:
224,288,56340,1,0,0:0:0:0:
288,288,56416,1,0,0:0:0:0:
128,288,56493,1,8,0:0:0:0:
368,288,56645,6,0,P|400:208|400:72,1,224,4|8,0:0|0:0,0:0:0:0:
256,64,57102,1,2,0:0:0:0:
432,64,57255,1,8,0:0:0:0:
288,64,57407,1,2,0:0:0:0:
464,64,57559,1,8,0:0:0:0:
320,64,57711,1,2,0:0:0:0:
496,192,57864,1,8,0:0:0:0:
256,192,58016,5,8,0:0:0:0:
16,192,58168,1,8,0:0:0:0:
256,192,58321,1,8,0:0:0:0:
496,192,58473,1,8,0:0:0:0:
96,288,58625,2,0,P|80:208|96:68,1,224,10|0,0:0|0:0,0:0:0:0:
416,288,59082,6,0,L|192:288,1,224,4|8,0:0|0:0,0:0:0:0:
256,288,59463,1,0,0:0:0:0:
416,192,59539,1,0,0:0:0:0:
176,192,59691,2,0,L|288:192,1,112,8|0,0:0|0:0,0:0:0:0:
48,96,59996,1,8,0:0:0:0:
288,96,60148,1,0,0:0:0:0:
48,96,60300,6,0,P|32:160|48:260,1,168,8|0,0:0|0:0,0:0:0:0:
208,256,60605,2,0,L|96:256,1,112,10|0,0:0|0:0,0:0:0:0:
336,192,60909,2,0,L|224:192,1,112,8|0,0:0|0:0,0:0:0:0:
224,144,61138,1,0,0:0:0:0:
256,96,61214,1,8,0:0:0:0:
320,96,61290,1,0,0:0:0:0:
160,96,61366,1,0,0:0:0:0:
400,288,61519,6,0,L|176:288,1,224,8|8,0:0|0:0,0:0:0:0:
416,192,61975,1,0,0:0:0:0:
272,192,62128,1,8,0:0:0:0:
416,192,62280,2,0,L|416:128,1,56,0|0,0:0|0:0,0:0:0:0:
256,96,62432,1,8,0:0:0:0:
192,96,62508,1,0,0:0:0:0:
352,96,62585,1,0,0:0:0:0:
112,192,62737,6,0,L|224:192,2,112,10|0|8,0:0|0:0|0:0,0:0:0:0:
48,192,63118,1,0,0:0:0:0:
208,96,63194,1,0,0:0:0:0:
352,192,63346,1,8,0:0:0:0:
288,192,63422,1,0,0:0:0:0:
128,192,63498,2,0,L|128:128,1,56,0|0,0:0|0:0,0:0:0:0:
288,96,63651,1,8,0:0:0:0:
352,96,63727,1,0,0:0:0:0:
192,96,63803,1,0,0:0:0:0:
432,288,63955,6,0,L|208:288,1,224,8|10,0:0|0:0,0:0:0:0:
272,288,64336,1,0,0:0:0:0:
432,192,64412,1,0,0:0:0:0:
192,192,64564,1,8,0:0:0:0:
432,192,64717,1,0,0:0:0:0:
368,192,64793,1,0,0:0:0:0:
208,192,64869,1,8,0:0:0:0:
272,192,64945,1,0,0:0:0:0:
432,192,65021,1,0,0:0:0:0:
192,288,65173,6,0,L|416:288,1,224,8|10,0:0|0:0,0:0:0:0:
176,192,65630,1,0,0:0:0:0:
320,192,65783,1,8,0:0:0:0:
176,192,65935,1,2,0:0:0:0:
240,192,66011,1,2,0:0:0:0:
80,96,66087,1,10,0:0:0:0:
16,96,66163,1,2,0:0:0:0:
176,96,66239,1,2,0:0:0:0:
416,192,66392,6,0,L|192:192,1,224,8|8,0:0|0:0,0:0:0:0:
256,192,66772,1,0,0:0:0:0:
416,96,66849,2,0,L|432:208,1,112,0|8,0:0|0:0,0:0:0:0:
368,96,67077,1,0,0:0:0:0:
208,288,67153,1,0,0:0:0:0:
448,288,67305,1,8,0:0:0:0:
208,288,67458,1,0,0:0:0:0:
448,192,67610,5,8,0:0:0:0:
384,192,67686,1,0,0:0:0:0:
224,192,67762,1,0,0:0:0:0:
464,96,67915,2,0,L|352:96,1,112,8|0,0:0|0:0,0:0:0:0:
112,96,68219,1,8,0:0:0:0:
176,96,68295,1,0,0:0:0:0:
336,96,68371,1,0,0:0:0:0:
272,96,68448,1,0,0:0:0:0:
112,96,68524,2,0,L|112:160,1,56,8|0,0:0|0:0,0:0:0:0:
272,144,68676,1,0,0:0:0:0:
32,288,68828,6,0,L|256:288,1,224,12|8,0:0|0:0,0:0:0:0:
192,288,69209,1,0,0:0:0:0:
32,192,69285,1,0,0:0:0:0:
272,192,69437,2,0,L|160:192,1,112,8|0,0:0|0:0,0:0:0:0:
400,96,69742,1,8,0:0:0:0:
160,96,69894,1,0,0:0:0:0:
400,96,70047,6,0,P|416:160|400:260,1,168,8|0,0:0|0:0,0:0:0:0:
240,256,70351,2,0,L|352:256,1,112,10|0,0:0|0:0,0:0:0:0:
112,192,70656,2,0,L|224:192,1,112,8|0,0:0|0:0,0:0:0:0:
256,144,70884,1,0,0:0:0:0:
224,96,70960,1,8,0:0:0:0:
160,96,71036,1,0,0:0:0:0:
320,96,71113,1,0,0:0:0:0:
80,288,71265,6,0,L|304:288,1,224,8|8,0:0|0:0,0:0:0:0:
64,192,71722,1,0,0:0:0:0:
208,192,71874,1,8,0:0:0:0:
64,192,72026,2,0,L|64:128,1,56,0|0,0:0|0:0,0:0:0:0:
224,96,72178,1,8,0:0:0:0:
288,96,72255,1,0,0:0:0:0:
128,96,72331,1,0,0:0:0:0:
368,192,72483,6,0,L|256:192,2,112,10|0|8,0:0|0:0|0:0,0:0:0:0:
432,192,72864,1,0,0:0:0:0:
272,96,72940,1,0,0:0:0:0:
128,192,73092,1,8,0:0:0:0:
192,192,73168,1,0,0:0:0:0:
352,192,73244,2,0,L|352:128,1,56,0|0,0:0|0:0,0:0:0:0:
192,96,73397,1,8,0:0:0:0:
256,96,73473,1,0,0:0:0:0:
416,96,73549,1,0,0:0:0:0:
176,288,73701,6,0,P|160:208|176:68,1,224,8|8,0:0|0:0,0:0:0:0:
240,64,74082,1,0,0:0:0:0:
400,64,74158,1,0,0:0:0:0:
160,288,74310,2,0,L|48:288,1,112,8|0,0:0|0:0,0:0:0:0:
112,288,74539,1,0,0:0:0:0:
272,192,74615,2,0,L|272:128,1,56,8|0,0:0|0:0,0:0:0:0:
112,128,74767,1,0,0:0:0:0:
352,128,74920,6,0,B|112:128|112:128|112:240|224:328,1,477.120001820068,10|8,0:0|0:0,0:0:0:0:
464,336,75376,1,0,0:0:0:0:
224,336,75529,1,8,0:0:0:0:
368,336,75681,2,0,L|368:272,1,56,0|0,0:0|0:0,0:0:0:0:
208,192,75833,1,8,0:0:0:0:
144,192,75909,1,0,0:0:0:0:
304,192,75986,1,0,0:0:0:0:
64,80,76138,6,0,L|288:80,1,224,10|8,0:0|0:0,0:0:0:0:
224,80,76519,1,0,0:0:0:0:
64,192,76595,1,0,0:0:0:0:
304,304,76747,2,0,L|80:304,1,224,10|8,0:0|0:0,0:0:0:0:
144,304,77128,1,0,0:0:0:0:
352,192,77204,1,0,0:0:0:0:
64,80,77356,6,0,L|288:80,1,224,10|8,0:0|0:0,0:0:0:0:
144,192,77813,1,0,0:0:0:0:
320,80,77965,1,8,0:0:0:0:
80,80,78118,2,0,P|64:160|80:300,1,224,8|0,0:0|0:0,0:0:0:0:
416,368,78574,6,0,B|80:368|80:368|64:192|80:32,1,672.000025634767,12|8,0:0|0:0,0:0:0:0:
144,32,78955,1,0,0:0:0:0:
304,32,79031,1,0,0:0:0:0:
192,192,79184,2,0,L|192:256,1,56,8|0,0:0|0:0,0:0:0:0:
256,192,79336,2,0,L|256:256,1,56,0|0,0:0|0:0,0:0:0:0:
96,192,79488,2,0,L|32:192,2,56,10|0|0,0:0|0:0|0:0,0:0:0:0:
336,64,79793,6,0,B|224:64|224:64|336:64,1,224,10|8,0:0|0:0,0:0:0:0:
272,64,80173,1,0,0:0:0:0:
112,192,80250,2,0,L|224:192,2,112,0|8|0,0:0|0:0|0:0,0:0:0:0:
176,192,80630,1,0,0:0:0:0:
336,320,80706,2,0,B|336:208|336:208|288:176,1,168,8|0,0:0|0:0,0:0:0:0:
448,96,81011,6,0,L|224:96,1,224,8|8,0:0|0:0,0:0:0:0:
288,32,81392,1,0,0:0:0:0:
448,32,81468,1,0,0:0:0:0:
336,192,81620,2,0,L|336:256,1,56,8|0,0:0|0:0,0:0:0:0:
400,192,81772,2,0,L|400:256,1,56,0|0,0:0|0:0,0:0:0:0:
240,192,81925,1,10,0:0:0:0:
176,192,82001,1,0,0:0:0:0:
176,128,82077,1,0,0:0:0:0:
416,288,82229,6,0,L|192:288,1,224,10|8,0:0|0:0,0:0:0:0:
256,352,82610,1,0,0:0:0:0:
96,192,82686,1,0,0:0:0:0:
336,192,82838,2,0,P|352:128|336:88,1,112,8|0,0:0|0:0,0:0:0:0:
272,64,83067,1,0,0:0:0:0:
112,64,83143,2,0,B|352:64|352:64|352:192,1,357.840001365051,10|0,0:0|0:0,0:0:0:0:
192,288,83448,6,0,L|416:288,1,224,8|8,0:0|0:0,0:0:0:0:
352,352,83828,1,0,0:0:0:0:
192,352,83904,2,0,L|192:288,1,56,0|0,0:0|0:0,0:0:0:0:
240,136,84057,1,8,0:0:0:0:
304,136,84133,1,0,0:0:0:0:
240,136,84209,1,0,0:0:0:0:
304,136,84285,1,0,0:0:0:0:
464,64,84361,2,0,L|352:64,1,112,10|0,0:0|0:0,0:0:0:0:
112,64,84666,6,0,B|224:64|224:64|112:64,1,224,10|8,0:0|0:0,0:0:0:0:
176,64,85047,1,0,0:0:0:0:
336,192,85123,2,0,L|336:256,1,56,0|0,0:0|0:0,0:0:0:0:
272,192,85275,2,0,L|272:256,1,56,8|0,0:0|0:0,0:0:0:0:
432,192,85427,1,0,0:0:0:0:
368,192,85503,1,0,0:0:0:0:
208,112,85580,2,0,L|320:112,1,112,8|0,0:0|0:0,0:0:0:0:
80,288,85884,6,0,L|304:288,1,224,8|8,0:0|0:0,0:0:0:0:
240,352,86265,1,0,0:0:0:0:
80,352,86341,2,0,L|80:288,1,56,0|0,0:0|0:0,0:0:0:0:
128,136,86493,1,8,0:0:0:0:
192,136,86569,1,0,0:0:0:0:
128,136,86646,1,0,0:0:0:0:
192,136,86722,1,0,0:0:0:0:
352,64,86798,2,0,L|240:64,1,112,10|0,0:0|0:0,0:0:0:0:
480,288,87102,6,0,B|368:288|368:288|480:288,1,224,10|8,0:0|0:0,0:0:0:0:
416,352,87483,1,0,0:0:0:0:
256,352,87559,2,0,L|256:288,1,56,0|0,0:0|0:0,0:0:0:0:
416,352,87711,2,0,L|480:352,1,56,8|0,0:0|0:0,0:0:0:0:
304,192,87864,1,8,0:0:0:0:
312,192,88016,1,8,0:0:0:0:
320,192,88168,1,8,0:0:0:0:
328,192,88321,1,8,0:0:0:0:
48,128,88473,6,0,L|160:128,2,112,12|8|0,0:0|0:0|0:0,0:0:0:0:
288,128,88929,1,8,0:0:0:0:
48,128,89082,1,8,0:0:0:0:
464,128,89386,6,0,L|352:128,2,112,8|8|0,0:0|0:0|0:0,0:0:0:0:
224,128,89843,1,8,0:0:0:0:
464,128,89995,1,8,0:0:0:0:
48,128,90300,6,0,L|272:128,1,224,2|0,0:0|0:0,0:0:0:0:
48,192,90909,5,8,0:0:0:0:
288,192,91061,2,0,L|304:80,1,112,8|0,0:0|0:0,0:0:0:0:
64,192,91366,1,8,0:0:0:0:
304,192,91518,2,0,L|288:80,1,112,8|0,0:0|0:0,0:0:0:0:
48,192,91823,5,8,0:0:0:0:
288,192,91975,2,0,B|304:80|304:80|192:80,1,224,8|8,0:0|0:0,0:0:0:0:
432,192,92432,2,0,L|448:80,1,112,8|0,0:0|0:0,0:0:0:0:
384,64,92660,1,0,0:0:0:0:
224,64,92736,5,8,0:0:0:0:
464,192,92889,2,0,P|480:256|464:360,1,168,8|0,0:0|0:0,0:0:0:0:
256,352,93193,6,0,P|184:268|256:224,1,224,12|0,0:0|0:0,0:0:0:0:
320,192,93574,1,0,0:0:0:0:
160,192,93650,1,8,0:0:0:0:
432,192,93955,1,8,0:0:0:0:
160,192,94259,2,0,L|160:128,1,56,8|0,0:0|0:0,0:0:0:0:
224,192,94412,6,0,L|224:128,1,56,0|0,0:0|0:0,0:0:0:0:
64,80,94564,2,0,L|64:144,1,56,8|0,0:0|0:0,0:0:0:0:
96,160,94716,1,0,0:0:0:0:
160,160,94792,1,0,0:0:0:0:
320,224,94869,1,8,0:0:0:0:
256,224,94945,1,0,0:0:0:0:
192,224,95021,1,0,0:0:0:0:
128,224,95097,1,0,0:0:0:0:
288,160,95173,2,0,L|176:160,2,112,8|8|8,0:0|0:0|0:0,0:0:0:0:
48,80,95630,6,0,P|16:152|48:288,1,224,12|0,0:0|0:0,0:0:0:0:
288,192,96087,2,0,B|64:192,1,224,8|0,0:0|0:0,0:0:0:0:
304,112,96544,2,0,L|192:112,1,112,8|0,0:0|0:0,0:0:0:0:
432,80,96848,6,0,P|464:152|432:288,1,224,8|0,0:0|0:0,0:0:0:0:
272,288,97229,1,0,0:0:0:0:
112,192,97305,2,0,L|336:192,1,224,8|8,0:0|0:0,0:0:0:0:
192,192,97762,1,8,0:0:0:0:
336,192,97914,1,8,0:0:0:0:
192,192,98067,1,8,0:0:0:0:
464,128,98219,6,0,L|352:128,2,112,12|8|0,0:0|0:0|0:0,0:0:0:0:
224,128,98675,1,8,0:0:0:0:
464,128,98828,1,8,0:0:0:0:
48,128,99132,6,0,L|160:128,2,112,8|8|0,0:0|0:0|0:0,0:0:0:0:
288,128,99589,1,8,0:0:0:0:
48,128,99741,1,8,0:0:0:0:
464,128,100046,6,0,L|240:128,1,224,2|0,0:0|0:0,0:0:0:0:
464,192,100655,5,8,0:0:0:0:
224,192,100807,2,0,L|208:80,1,112,8|0,0:0|0:0,0:0:0:0:
448,192,101112,1,8,0:0:0:0:
208,192,101264,2,0,L|224:80,1,112,8|0,0:0|0:0,0:0:0:0:
464,192,101569,5,8,0:0:0:0:
224,192,101721,2,0,B|208:80|208:80|320:80,1,224,8|8,0:0|0:0,0:0:0:0:
80,192,102178,2,0,L|64:80,1,112,8|0,0:0|0:0,0:0:0:0:
128,64,102406,1,0,0:0:0:0:
288,64,102482,5,8,0:0:0:0:
48,192,102635,2,0,P|32:256|48:360,1,168,8|0,0:0|0:0,0:0:0:0:
256,352,102939,6,0,P|328:268|256:224,1,224,12|0,0:0|0:0,0:0:0:0:
192,192,103320,1,0,0:0:0:0:
352,192,103396,1,8,0:0:0:0:
80,192,103701,1,8,0:0:0:0:
224,192,103853,2,0,L|112:192,1,112,0|8,0:0|0:0,0:0:0:0:
352,192,104158,5,0,0:0:0:0:
464,192,104310,2,0,L|464:128,1,56,8|0,0:0|0:0,0:0:0:0:
304,128,104462,1,0,0:0:0:0:
240,128,104538,1,0,0:0:0:0:
240,192,104615,1,8,0:0:0:0:
304,192,104691,1,0,0:0:0:0:
144,192,104767,2,0,L|144:128,1,56,0|0,0:0|0:0,0:0:0:0:
208,112,104919,1,8,0:0:0:0:
448,192,105071,1,8,0:0:0:0:
384,192,105148,1,0,0:0:0:0:
224,192,105224,1,8,0:0:0:0:
464,48,105376,6,0,L|240:48,1,224,12|0,0:0|0:0,0:0:0:0:
480,48,105833,2,0,P|496:128|480:268,1,224,8|0,0:0|0:0,0:0:0:0:
368,288,106290,1,8,0:0:0:0:
128,288,106442,1,0,0:0:0:0:
368,288,106594,6,0,P|384:208|368:68,1,224,8|0,0:0|0:0,0:0:0:0:
304,48,106975,1,0,0:0:0:0:
144,192,107051,2,0,L|256:192,1,112,8|0,0:0|0:0,0:0:0:0:
192,192,107280,1,0,0:0:0:0:
32,192,107356,1,8,0:0:0:0:
272,192,107508,1,8,0:0:0:0:
128,64,107660,1,8,0:0:0:0:
192,64,107736,1,0,0:0:0:0:
352,64,107813,1,8,0:0:0:0:
288,64,107889,1,0,0:0:0:0:
64,64,107965,6,0,P|20:224|64:384,1,336,6|0,0:0|0:0,0:0:0:0:
400,192,108879,2,0,B|176:192|176:192|352:192,1,392,2|0,0:0|0:0,0:0:0:0:
16,80,109869,2,0,L|240:80,1,224,2|0,0:0|0:0,0:0:0:0:
64,64,110402,5,2,0:0:0:0:
128,64,110478,2,0,P|288:128|320:288,2,336,0|0|2,0:0|0:0|0:0,0:0:0:0:
448,64,112839,6,0,P|492:224|448:384,1,336,2|0,0:0|0:0,0:0:0:0:
112,192,113752,2,0,B|336:192|336:192|160:192,1,392,2|0,0:0|0:0,0:0:0:0:
448,80,114666,2,0,L|224:80,1,224,2|0,0:0|0:0,0:0:0:0:
448,64,115275,5,2,0:0:0:0:
384,64,115351,2,0,P|224:128|192:288,2,336,0|0|2,0:0|0:0|0:0,0:0:0:0:
64,64,117712,5,2,0:0:0:0:
64,64,117940,1,0,0:0:0:0:
64,64,118169,1,0,0:0:0:0:
208,64,118321,1,8,0:0:0:0:
400,192,118930,5,2,0:0:0:0:
400,192,119158,1,0,0:0:0:0:
400,192,119387,1,0,0:0:0:0:
256,192,119539,1,8,0:0:0:0:
448,64,120148,5,2,0:0:0:0:
432,64,120377,1,0,0:0:0:0:
416,64,120605,1,0,0:0:0:0:
272,64,120757,1,8,0:0:0:0:
288,64,120986,1,0,0:0:0:0:
304,64,121214,1,0,0:0:0:0:
448,64,121367,5,2,0:0:0:0:
432,64,121595,1,0,0:0:0:0:
416,64,121823,1,0,0:0:0:0:
176,64,121976,1,8,0:0:0:0:
144,112,122052,1,0,0:0:0:0:
176,160,122128,1,0,0:0:0:0:
240,160,122204,1,0,0:0:0:0:
320,192,122280,1,0,0:0:0:0:
240,192,122356,1,0,0:0:0:0:
160,192,122433,1,0,0:0:0:0:
240,192,122509,1,0,0:0:0:0:
400,192,122585,6,0,L|416:80,1,112,4|0,0:0|0:0,0:0:0:0:
272,192,122889,2,0,L|288:80,1,112,2|0,0:0|0:0,0:0:0:0:
48,192,123194,2,0,L|32:80,1,112,8|0,0:0|0:0,0:0:0:0:
176,192,123498,2,0,L|160:80,1,112,2|0,0:0|0:0,0:0:0:0:
400,80,123803,5,0,0:0:0:0:
160,80,123955,1,8,0:0:0:0:
304,80,124108,1,0,0:0:0:0:
160,80,124260,2,0,L|160:144,1,56,8|0,0:0|0:0,0:0:0:0:
320,176,124412,1,0,0:0:0:0:
320,240,124488,1,0,0:0:0:0:
288,288,124564,1,0,0:0:0:0:
224,288,124641,1,0,0:0:0:0:
384,288,124717,1,8,0:0:0:0:
144,288,124869,6,0,P|112:208|112:72,1,224,4|8,0:0|0:0,0:0:0:0:
160,64,125249,1,0,0:0:0:0:
256,64,125325,1,2,0:0:0:0:
432,64,125478,1,8,0:0:0:0:
288,64,125630,1,2,0:0:0:0:
464,64,125782,1,8,0:0:0:0:
320,64,125934,2,0,L|320:128,1,56,2|0,0:0|0:0,0:0:0:0:
480,192,126087,1,8,0:0:0:0:
416,192,126163,1,0,0:0:0:0:
256,192,126239,5,8,0:0:0:0:
192,192,126315,1,0,0:0:0:0:
192,256,126391,1,2,0:0:0:0:
256,256,126467,1,0,0:0:0:0:
352,256,126544,1,2,0:0:0:0:
256,256,126620,1,0,0:0:0:0:
192,256,126696,2,0,L|176:192,1,56,2|0,0:0|0:0,0:0:0:0:
240,256,126848,2,0,L|256:192,1,56,2|0,0:0|0:0,0:0:0:0:
96,128,127000,1,10,0:0:0:0:
256,128,127077,1,0,0:0:0:0:
416,128,127153,1,8,0:0:0:0:
96,288,127305,6,0,L|320:288,1,224,4|8,0:0|0:0,0:0:0:0:
256,288,127686,1,0,0:0:0:0:
96,192,127762,1,0,0:0:0:0:
336,192,127914,2,0,L|224:192,1,112,8|0,0:0|0:0,0:0:0:0:
464,96,128219,1,8,0:0:0:0:
224,96,128371,1,0,0:0:0:0:
464,96,128523,6,0,P|480:160|464:260,1,168,8|0,0:0|0:0,0:0:0:0:
304,256,128828,2,0,L|416:256,1,112,10|0,0:0|0:0,0:0:0:0:
176,192,129132,2,0,L|288:192,1,112,8|0,0:0|0:0,0:0:0:0:
288,144,129361,1,0,0:0:0:0:
256,96,129437,1,8,0:0:0:0:
192,96,129513,1,0,0:0:0:0:
352,96,129589,1,0,0:0:0:0:
112,288,129742,6,0,L|336:288,1,224,8|8,0:0|0:0,0:0:0:0:
96,192,130198,1,0,0:0:0:0:
240,192,130351,1,8,0:0:0:0:
96,192,130503,2,0,L|96:128,1,56,0|0,0:0|0:0,0:0:0:0:
256,96,130655,1,8,0:0:0:0:
320,96,130731,1,0,0:0:0:0:
160,96,130808,1,0,0:0:0:0:
400,192,130960,6,0,L|288:192,2,112,10|0|8,0:0|0:0|0:0,0:0:0:0:
464,192,131341,1,0,0:0:0:0:
304,96,131417,1,0,0:0:0:0:
160,192,131569,1,8,0:0:0:0:
224,192,131645,1,0,0:0:0:0:
384,192,131721,2,0,L|384:128,1,56,0|0,0:0|0:0,0:0:0:0:
224,96,131874,1,8,0:0:0:0:
160,96,131950,1,0,0:0:0:0:
320,96,132026,1,0,0:0:0:0:
80,288,132178,6,0,L|304:288,1,224,8|10,0:0|0:0,0:0:0:0:
240,288,132559,1,0,0:0:0:0:
80,192,132635,1,0,0:0:0:0:
320,192,132787,1,8,0:0:0:0:
80,192,132940,1,0,0:0:0:0:
144,192,133016,1,0,0:0:0:0:
304,192,133092,1,8,0:0:0:0:
240,192,133168,1,0,0:0:0:0:
80,192,133244,1,0,0:0:0:0:
320,288,133396,6,0,L|96:288,1,224,8|10,0:0|0:0,0:0:0:0:
336,192,133853,1,0,0:0:0:0:
192,192,134006,1,8,0:0:0:0:
336,192,134158,1,2,0:0:0:0:
272,192,134234,1,2,0:0:0:0:
432,96,134310,1,10,0:0:0:0:
496,96,134386,1,2,0:0:0:0:
336,96,134462,1,2,0:0:0:0:
96,192,134615,6,0,L|320:192,1,224,8|8,0:0|0:0,0:0:0:0:
256,192,134995,1,0,0:0:0:0:
96,96,135072,2,0,L|80:208,1,112,0|8,0:0|0:0,0:0:0:0:
144,96,135300,1,0,0:0:0:0:
304,288,135376,1,0,0:0:0:0:
64,288,135528,1,8,0:0:0:0:
304,288,135681,1,0,0:0:0:0:
64,192,135833,5,8,0:0:0:0:
128,192,135909,1,0,0:0:0:0:
288,192,135985,1,0,0:0:0:0:
48,96,136138,2,0,L|160:96,1,112,8|0,0:0|0:0,0:0:0:0:
400,96,136442,1,8,0:0:0:0:
336,96,136518,1,0,0:0:0:0:
176,96,136594,1,0,0:0:0:0:
240,96,136671,1,0,0:0:0:0:
400,96,136747,2,0,L|400:160,1,56,8|0,0:0|0:0,0:0:0:0:
240,144,136899,1,0,0:0:0:0:
480,288,137051,6,0,L|256:288,1,224,12|8,0:0|0:0,0:0:0:0:
320,288,137432,1,0,0:0:0:0:
480,192,137508,1,0,0:0:0:0:
240,192,137660,2,0,L|352:192,1,112,8|0,0:0|0:0,0:0:0:0:
112,96,137965,1,8,0:0:0:0:
352,96,138117,1,0,0:0:0:0:
112,96,138270,6,0,P|96:160|112:260,1,168,8|0,0:0|0:0,0:0:0:0:
272,256,138574,2,0,L|160:256,1,112,10|0,0:0|0:0,0:0:0:0:
400,192,138879,2,0,L|288:192,1,112,8|0,0:0|0:0,0:0:0:0:
256,144,139107,1,0,0:0:0:0:
288,96,139183,1,8,0:0:0:0:
352,96,139259,1,0,0:0:0:0:
192,96,139336,1,0,0:0:0:0:
432,288,139488,6,0,L|208:288,1,224,8|8,0:0|0:0,0:0:0:0:
448,192,139945,1,0,0:0:0:0:
304,192,140097,1,8,0:0:0:0:
448,192,140249,2,0,L|448:128,1,56,0|0,0:0|0:0,0:0:0:0:
288,96,140401,1,8,0:0:0:0:
224,96,140478,1,0,0:0:0:0:
384,96,140554,1,0,0:0:0:0:
144,192,140706,6,0,L|256:192,2,112,10|0|8,0:0|0:0|0:0,0:0:0:0:
80,192,141087,1,0,0:0:0:0:
240,96,141163,1,0,0:0:0:0:
384,192,141315,1,8,0:0:0:0:
320,192,141391,1,0,0:0:0:0:
160,192,141467,2,0,L|160:128,1,56,0|0,0:0|0:0,0:0:0:0:
320,96,141620,1,8,0:0:0:0:
256,96,141696,1,0,0:0:0:0:
96,96,141772,1,0,0:0:0:0:
336,288,141924,6,0,P|352:208|336:68,1,224,8|8,0:0|0:0,0:0:0:0:
272,64,142305,1,0,0:0:0:0:
112,64,142381,1,0,0:0:0:0:
352,288,142533,2,0,L|464:288,1,112,8|0,0:0|0:0,0:0:0:0:
400,288,142762,1,0,0:0:0:0:
240,192,142838,2,0,L|240:128,1,56,8|0,0:0|0:0,0:0:0:0:
400,128,142990,1,0,0:0:0:0:
160,128,143143,6,0,B|400:128|400:128|400:240|288:328,1,477.120001820068,10|8,0:0|0:0,0:0:0:0:
48,336,143599,1,0,0:0:0:0:
288,336,143752,1,8,0:0:0:0:
144,336,143904,2,0,L|144:272,1,56,0|0,0:0|0:0,0:0:0:0:
304,192,144056,1,8,0:0:0:0:
368,192,144132,1,0,0:0:0:0:
208,192,144209,1,0,0:0:0:0:
448,80,144361,6,0,L|224:80,1,224,10|8,0:0|0:0,0:0:0:0:
288,80,144742,1,0,0:0:0:0:
448,192,144818,1,0,0:0:0:0:
208,304,144970,2,0,L|432:304,1,224,10|8,0:0|0:0,0:0:0:0:
368,304,145351,1,0,0:0:0:0:
160,192,145427,1,0,0:0:0:0:
448,80,145579,6,0,L|224:80,1,224,10|8,0:0|0:0,0:0:0:0:
368,192,146036,1,0,0:0:0:0:
192,80,146188,1,8,0:0:0:0:
432,80,146341,2,0,P|448:160|432:300,1,224,8|0,0:0|0:0,0:0:0:0:
16,80,146950,5,12,0:0:0:0:
256,192,154259,12,0,154335,0:0:0:0:
256,192,154868,12,0,154944,0:0:0:0:
256,192,155477,12,0,156087,0:0:0:0:
160,288,156543,6,0,P|144:208|160:68,1,224,12|0,0:0|0:0,0:0:0:0:
304,64,156999,2,0,L|160:64,1,142.239998914795,8|0,0:0|0:0,0:0:0:0:
400,128,157304,1,8,0:0:0:0:
160,192,157456,1,8,0:0:0:0:
304,256,157608,1,8,0:0:0:0:
64,304,157761,6,0,P|48:224|64:84,1,224,12|0,0:0|0:0,0:0:0:0:
208,80,158218,2,0,L|352:80,1,142.239998914795,8|0,0:0|0:0,0:0:0:0:
112,144,158522,1,8,0:0:0:0:
352,192,158674,1,8,0:0:0:0:
112,240,158827,1,8,0:0:0:0:
352,288,158979,6,0,P|368:208|352:68,1,224,12|0,0:0|0:0,0:0:0:0:
208,64,159436,2,0,L|352:64,1,142.239998914795,8|0,0:0|0:0,0:0:0:0:
112,128,159740,1,8,0:0:0:0:
352,192,159893,1,8,0:0:0:0:
208,256,160045,1,8,0:0:0:0:
448,304,160197,6,0,P|464:224|448:84,1,224,12|0,0:0|0:0,0:0:0:0:
304,80,160654,2,0,L|448:80,1,142.239998914795,8|0,0:0|0:0,0:0:0:0:
276,144,160883,1,0,0:0:0:0:
112,144,160959,1,8,0:0:0:0:
352,192,161111,1,8,0:0:0:0:
112,240,161263,1,8,0:0:0:0:
352,288,161416,6,0,P|368:208|352:68,1,224,12|0,0:0|0:0,0:0:0:0:
288,64,161796,1,0,0:0:0:0:
208,64,161872,2,0,L|352:64,1,142.239998914795,8|0,0:0|0:0,0:0:0:0:
112,128,162177,1,8,0:0:0:0:
352,192,162329,1,8,0:0:0:0:
208,256,162482,1,8,0:0:0:0:
448,304,162634,6,0,L|448:192,1,112,12|0,0:0|0:0,0:0:0:0:
304,192,162938,1,0,0:0:0:0:
368,136,163015,1,0,0:0:0:0:
304,80,163091,2,0,L|160:80,1,142.239998914795,8|0,0:0|0:0,0:0:0:0:
400,144,163395,1,8,0:0:0:0:
160,192,163548,1,8,0:0:0:0:
224,192,163624,1,0,0:0:0:0:
400,240,163700,1,8,0:0:0:0:
160,288,163852,6,0,L|160:176,1,112,12|0,0:0|0:0,0:0:0:0:
304,192,164157,1,0,0:0:0:0:
240,128,164233,1,0,0:0:0:0:
304,64,164309,2,0,L|160:64,1,142.239998914795,8|0,0:0|0:0,0:0:0:0:
400,128,164614,1,8,0:0:0:0:
160,192,164766,1,8,0:0:0:0:
400,256,164918,1,8,0:0:0:0:
160,320,165070,6,0,L|272:320,2,112,12|0|0,0:0|0:0|0:0,0:0:0:0:
96,320,165451,1,0,0:0:0:0:
256,256,165527,1,8,0:0:0:0:
320,256,165603,1,0,0:0:0:0:
320,192,165680,1,0,0:0:0:0:
256,192,165756,1,0,0:0:0:0:
96,192,165832,1,8,0:0:0:0:
96,128,165908,1,0,0:0:0:0:
128,80,165984,1,0,0:0:0:0:
192,80,166060,1,0,0:0:0:0:
352,144,166136,1,8,0:0:0:0:
416,144,166213,1,0,0:0:0:0:
352,80,166289,1,0,0:0:0:0:
416,80,166365,1,0,0:0:0:0:
160,64,166443,6,0,L|144:176,2,112,4|0|0,0:0|0:0|0:0,0:0:0:0:
304,64,166899,2,0,L|416:64,2,112,8|0|2,0:0|0:0|0:0,0:0:0:0:
64,64,167356,1,0,0:0:0:0:
304,64,167508,1,8,0:0:0:0:
160,176,167661,5,0,0:0:0:0:
400,176,167813,2,0,L|416:64,1,112,8|0,0:0|0:0,0:0:0:0:
272,64,168118,2,0,L|160:64,1,112,8|0,0:0|0:0,0:0:0:0:
304,192,168422,2,0,L|192:192,2,112,2|0|8,0:0|0:0|0:0,0:0:0:0:
64,64,168879,6,0,L|48:176,2,112,4|0|0,0:0|0:0|0:0,0:0:0:0:
208,64,169336,2,0,L|320:64,2,112,8|0|2,0:0|0:0|0:0,0:0:0:0:
448,64,169793,1,0,0:0:0:0:
208,64,169945,1,8,0:0:0:0:
352,192,170097,5,0,0:0:0:0:
112,192,170250,2,0,L|96:80,1,112,8|0,0:0|0:0,0:0:0:0:
240,64,170554,2,0,L|240:128,1,56,8|0,0:0|0:0,0:0:0:0:
80,192,170706,1,0,0:0:0:0:
48,248,170783,1,0,0:0:0:0:
80,304,170859,1,0,0:0:0:0:
144,304,170935,1,0,0:0:0:0:
224,304,171011,2,0,L|240:240,1,56,8|0,0:0|0:0,0:0:0:0:
160,304,171163,2,0,L|176:240,1,56,0|0,0:0|0:0,0:0:0:0:
352,64,171316,6,0,L|368:176,2,112,4|0|0,0:0|0:0|0:0,0:0:0:0:
208,64,171772,2,0,L|96:64,2,112,8|0|2,0:0|0:0|0:0,0:0:0:0:
448,64,172229,1,0,0:0:0:0:
208,64,172382,1,8,0:0:0:0:
352,176,172534,5,0,0:0:0:0:
112,176,172686,2,0,L|96:64,1,112,8|0,0:0|0:0,0:0:0:0:
240,64,172991,2,0,L|352:64,1,112,8|0,0:0|0:0,0:0:0:0:
208,192,173295,2,0,L|320:192,2,112,2|0|8,0:0|0:0|0:0,0:0:0:0:
448,64,173752,6,0,L|464:176,2,112,4|0|0,0:0|0:0|0:0,0:0:0:0:
304,64,174209,2,0,L|416:64,2,112,8|0|2,0:0|0:0|0:0,0:0:0:0:
64,64,174666,1,0,0:0:0:0:
304,64,174818,1,8,0:0:0:0:
160,192,174970,5,0,0:0:0:0:
400,192,175123,2,0,L|400:128,1,56,8|0,0:0|0:0,0:0:0:0:
240,192,175275,1,0,0:0:0:0:
240,128,175351,1,0,0:0:0:0:
272,80,175427,1,8,0:0:0:0:
336,80,175503,1,0,0:0:0:0:
176,80,175580,1,0,0:0:0:0:
112,80,175656,1,0,0:0:0:0:
112,144,175732,1,0,0:0:0:0:
176,144,175808,1,0,0:0:0:0:
336,192,175884,1,8,0:0:0:0:
400,192,175960,1,0,0:0:0:0:
240,288,176036,1,0,0:0:0:0:
176,288,176113,1,0,0:0:0:0:
352,64,176189,6,0,L|367:174,2,112,4|0|0,0:0|0:0|0:0,0:0:0:0:
208,64,176646,2,0,L|96:64,2,112,8|0|2,0:0|0:0|0:0,0:0:0:0:
448,64,177102,1,0,0:0:0:0:
208,64,177255,1,8,0:0:0:0:
352,176,177407,5,0,0:0:0:0:
112,176,177559,2,0,L|96:65,1,112,8|0,0:0|0:0,0:0:0:0:
240,64,177864,2,0,L|352:64,1,112,8|0,0:0|0:0,0:0:0:0:
208,192,178168,2,0,L|320:192,2,112,2|0|8,0:0|0:0|0:0,0:0:0:0:
448,64,178625,6,0,L|463:174,2,112,4|0|0,0:0|0:0|0:0,0:0:0:0:
304,64,179082,2,0,L|192:64,2,112,8|0|2,0:0|0:0|0:0,0:0:0:0:
64,64,179539,1,0,0:0:0:0:
304,64,179691,1,8,0:0:0:0:
160,192,179844,5,0,0:0:0:0:
400,192,179996,2,0,L|416:80,1,112,8|0,0:0|0:0,0:0:0:0:
272,64,180300,2,0,L|272:128,1,56,8|0,0:0|0:0,0:0:0:0:
432,192,180453,1,0,0:0:0:0:
432,248,180529,1,0,0:0:0:0:
400,304,180605,1,0,0:0:0:0:
336,304,180681,1,0,0:0:0:0:
176,304,180757,1,8,0:0:0:0:
112,304,180833,1,0,0:0:0:0:
176,304,180910,1,0,0:0:0:0:
240,304,180986,1,0,0:0:0:0:
400,192,181062,6,0,L|416:80,1,112,4|0,0:0|0:0,0:0:0:0:
272,192,181366,2,0,L|288:80,1,112,2|0,0:0|0:0,0:0:0:0:
48,192,181671,2,0,L|32:80,1,112,8|0,0:0|0:0,0:0:0:0:
176,192,181975,2,0,L|160:80,1,112,2|0,0:0|0:0,0:0:0:0:
400,80,182280,5,0,0:0:0:0:
160,80,182432,1,8,0:0:0:0:
304,80,182585,1,0,0:0:0:0:
160,80,182737,2,0,L|160:144,1,56,8|0,0:0|0:0,0:0:0:0:
320,176,182889,1,0,0:0:0:0:
320,240,182965,1,0,0:0:0:0:
288,288,183041,1,0,0:0:0:0:
224,288,183118,1,0,0:0:0:0:
384,288,183194,1,8,0:0:0:0:
144,288,183346,6,0,P|112:208|112:72,1,224,4|8,0:0|0:0,0:0:0:0:
256,64,183802,1,2,0:0:0:0:
80,64,183955,1,8,0:0:0:0:
224,64,184107,1,2,0:0:0:0:
48,64,184259,1,8,0:0:0:0:
192,64,184411,1,2,0:0:0:0:
16,192,184564,1,8,0:0:0:0:
256,192,184716,5,8,0:0:0:0:
496,192,184868,1,8,0:0:0:0:
256,192,185021,1,8,0:0:0:0:
16,192,185173,1,8,0:0:0:0:
416,288,185325,2,0,P|432:208|416:68,1,224,10|0,0:0|0:0,0:0:0:0:
96,288,185782,5,8,0:0:0:0:
448,288,187305,5,10,0:0:0:0:
64,288,187609,1,8,0:0:0:0:
448,288,187914,1,10,0:0:0:0:
64,288,188219,6,0,P|48:220|160:144,1,224,12|0,0:0|0:0,0:0:0:0:
224,144,188599,1,0,0:0:0:0:
384,144,188675,1,8,0:0:0:0:
448,144,188752,1,0,0:0:0:0:
288,192,188828,2,0,L|288:256,1,56,0|0,0:0|0:0,0:0:0:0:
448,192,188980,2,0,L|448:256,1,56,8|0,0:0|0:0,0:0:0:0:
288,96,189132,1,0,0:0:0:0:
224,96,189208,1,0,0:0:0:0:
384,32,189285,1,8,0:0:0:0:
320,32,189361,1,0,0:0:0:0:
160,192,189437,5,8,0:0:0:0:
96,192,189513,1,0,0:0:0:0:
256,192,189589,2,0,L|256:128,1,56,0|0,0:0|0:0,0:0:0:0:
416,192,189741,1,8,0:0:0:0:
480,192,189818,1,0,0:0:0:0:
320,192,189894,2,0,L|320:128,1,56,8|0,0:0|0:0,0:0:0:0:
160,192,190046,1,0,0:0:0:0:
96,192,190122,1,0,0:0:0:0:
256,256,190198,1,8,0:0:0:0:
16,256,190351,1,8,0:0:0:0:
480,192,190655,6,0,L|256:192,1,224,12|10,0:0|0:0,0:0:0:0:
320,192,191036,1,0,0:0:0:0:
480,96,191112,1,0,0:0:0:0:
240,96,191264,1,8,0:0:0:0:
480,96,191417,1,0,0:0:0:0:
416,96,191493,1,0,0:0:0:0:
256,96,191569,1,8,0:0:0:0:
320,96,191645,1,0,0:0:0:0:
480,96,191721,1,0,0:0:0:0:
240,192,191873,6,0,L|464:192,1,224,8|10,0:0|0:0,0:0:0:0:
224,96,192330,1,0,0:0:0:0:
368,96,192483,1,8,0:0:0:0:
224,96,192635,1,0,0:0:0:0:
160,96,192711,1,0,0:0:0:0:
336,0,192787,1,10,0:0:0:0:
272,0,192863,1,0,0:0:0:0:
96,0,192939,1,0,0:0:0:0:
336,192,193092,6,0,L|112:192,1,224,8|8,0:0|0:0,0:0:0:0:
176,192,193472,1,0,0:0:0:0:
336,96,193549,2,0,L|224:96,1,112,0|8,0:0|0:0,0:0:0:0:
288,96,193777,1,0,0:0:0:0:
448,288,193853,1,0,0:0:0:0:
208,288,194005,1,8,0:0:0:0:
448,288,194158,1,0,0:0:0:0:
208,192,194310,5,8,0:0:0:0:
272,192,194386,1,0,0:0:0:0:
432,192,194462,1,0,0:0:0:0:
208,96,194615,2,0,L|320:96,1,112,8|0,0:0|0:0,0:0:0:0:
80,96,194919,1,8,0:0:0:0:
144,96,194995,1,0,0:0:0:0:
304,96,195071,1,0,0:0:0:0:
368,96,195148,1,0,0:0:0:0:
208,160,195224,1,8,0:0:0:0:
144,160,195300,1,0,0:0:0:0:
304,160,195376,1,0,0:0:0:0:
64,288,195528,6,0,L|288:288,1,224,12|8,0:0|0:0,0:0:0:0:
224,288,195909,1,0,0:0:0:0:
64,192,195985,1,0,0:0:0:0:
304,192,196137,2,0,L|192:192,1,112,8|0,0:0|0:0,0:0:0:0:
432,96,196442,1,8,0:0:0:0:
192,96,196594,1,0,0:0:0:0:
432,96,196747,6,0,P|448:160|432:260,1,168,8|0,0:0|0:0,0:0:0:0:
272,256,197051,2,0,L|384:256,1,112,10|0,0:0|0:0,0:0:0:0:
144,192,197356,2,0,L|256:192,1,112,8|0,0:0|0:0,0:0:0:0:
320,192,197584,1,0,0:0:0:0:
320,128,197660,1,8,0:0:0:0:
256,128,197736,1,0,0:0:0:0:
96,96,197813,1,0,0:0:0:0:
336,288,197965,6,0,L|112:288,1,224,8|8,0:0|0:0,0:0:0:0:
352,192,198422,1,0,0:0:0:0:
208,192,198574,1,8,0:0:0:0:
352,192,198726,2,0,L|352:128,1,56,0|0,0:0|0:0,0:0:0:0:
192,96,198878,1,8,0:0:0:0:
256,96,198955,1,0,0:0:0:0:
416,96,199031,1,0,0:0:0:0:
176,192,199183,6,0,L|288:192,2,112,10|0|8,0:0|0:0|0:0,0:0:0:0:
112,192,199564,1,0,0:0:0:0:
272,96,199640,1,0,0:0:0:0:
416,192,199792,1,8,0:0:0:0:
352,192,199868,1,0,0:0:0:0:
192,192,199944,2,0,L|192:128,1,56,0|0,0:0|0:0,0:0:0:0:
352,96,200097,1,8,0:0:0:0:
288,96,200173,1,0,0:0:0:0:
128,96,200249,1,0,0:0:0:0:
368,288,200401,6,0,P|384:208|368:68,1,224,8|8,0:0|0:0,0:0:0:0:
304,64,200782,1,0,0:0:0:0:
144,64,200858,1,0,0:0:0:0:
384,288,201010,2,0,L|496:288,1,112,8|0,0:0|0:0,0:0:0:0:
432,288,201239,1,0,0:0:0:0:
272,192,201315,2,0,L|272:128,1,56,8|0,0:0|0:0,0:0:0:0:
432,128,201467,1,0,0:0:0:0:
192,128,201620,6,0,B|432:128|432:128|432:240|320:328,1,477.120001820068,10|8,0:0|0:0,0:0:0:0:
80,336,202076,1,0,0:0:0:0:
320,336,202229,1,8,0:0:0:0:
176,192,202381,1,0,0:0:0:0:
240,192,202457,1,0,0:0:0:0:
80,112,202533,1,8,0:0:0:0:
16,112,202609,1,0,0:0:0:0:
176,112,202686,1,0,0:0:0:0:
416,56,202838,6,0,B|464:168|416:288|416:288|176:288,1,477.120001820068,10|8,0:0|0:0,0:0:0:0:
112,288,203219,1,0,0:0:0:0:
272,288,203295,1,0,0:0:0:0:
32,56,203447,2,0,B|-16:168|32:288|32:288|272:288,1,477.120001820068,10|8,0:0|0:0,0:0:0:0:
336,288,203828,1,0,0:0:0:0:
176,288,203904,1,0,0:0:0:0:
416,56,204056,6,0,B|464:168|416:288|416:288|176:288,1,477.120001820068,10|8,0:0|0:0,0:0:0:0:
240,288,204437,1,0,0:0:0:0:
400,288,204513,1,0,0:0:0:0:
160,64,204665,1,10,0:0:0:0:
224,64,204741,1,0,0:0:0:0:
384,64,204818,1,0,0:0:0:0:
320,64,204894,1,0,0:0:0:0:
160,64,204970,2,0,L|160:128,1,56,8|0,0:0|0:0,0:0:0:0:
320,128,205122,1,0,0:0:0:0:
80,56,205274,6,0,B|32:168|80:288|80:288|320:288,1,477.120001820068,10|8,0:0|0:0,0:0:0:0:
256,288,205655,1,0,0:0:0:0:
96,288,205731,1,0,0:0:0:0:
336,56,205884,2,0,B|384:168|336:288|336:288|96:288,1,477.120001820068,10|8,0:0|0:0,0:0:0:0:
160,288,206264,1,0,0:0:0:0:
320,288,206340,1,0,0:0:0:0:
80,32,206493,6,0,B|148:164|148:164|288:164,1,288.96000440918,10|8,0:0|0:0,0:0:0:0:
144,192,206950,1,0,0:0:0:0:
320,80,207102,1,8,0:0:0:0:
80,80,207254,2,0,P|64:160|80:300,1,224,8|0,0:0|0:0,0:0:0:0:
416,368,207711,6,0,B|80:368|80:368|64:192|80:32,1,672.000025634767,12|8,0:0|0:0,0:0:0:0:
144,32,208092,1,0,0:0:0:0:
304,32,208168,1,0,0:0:0:0:
192,192,208320,2,0,L|192:256,1,56,8|0,0:0|0:0,0:0:0:0:
256,192,208472,2,0,L|256:256,1,56,0|0,0:0|0:0,0:0:0:0:
96,192,208625,2,0,L|32:192,2,56,10|0|0,0:0|0:0|0:0,0:0:0:0:
336,64,208929,6,0,B|224:64|224:64|336:64,1,224,10|8,0:0|0:0,0:0:0:0:
272,64,209310,1,0,0:0:0:0:
112,192,209386,2,0,L|224:192,2,112,0|8|0,0:0|0:0|0:0,0:0:0:0:
176,192,209767,1,0,0:0:0:0:
336,320,209843,2,0,B|336:208|336:208|288:176,1,168,8|0,0:0|0:0,0:0:0:0:
448,96,210148,6,0,L|224:96,1,224,8|8,0:0|0:0,0:0:0:0:
288,32,210528,1,0,0:0:0:0:
448,32,210604,1,0,0:0:0:0:
336,192,210757,2,0,L|336:256,1,56,8|0,0:0|0:0,0:0:0:0:
400,192,210909,2,0,L|400:256,1,56,0|0,0:0|0:0,0:0:0:0:
240,192,211061,1,10,0:0:0:0:
176,192,211137,1,0,0:0:0:0:
176,128,211214,1,0,0:0:0:0:
416,288,211366,6,0,L|192:288,1,224,10|8,0:0|0:0,0:0:0:0:
256,352,211747,1,0,0:0:0:0:
96,192,211823,1,0,0:0:0:0:
336,192,211975,2,0,P|352:128|336:88,1,112,8|0,0:0|0:0,0:0:0:0:
272,64,212203,1,0,0:0:0:0:
112,64,212280,2,0,B|352:64|352:64|352:192,1,357.840001365051,10|0,0:0|0:0,0:0:0:0:
192,288,212584,6,0,L|416:288,1,224,8|8,0:0|0:0,0:0:0:0:
304,192,213041,1,0,0:0:0:0:
448,192,213193,1,8,0:0:0:0:
272,192,213346,1,0,0:0:0:0:
32,64,213498,1,10,0:0:0:0:
96,64,213574,1,0,0:0:0:0:
160,64,213650,1,0,0:0:0:0:
400,64,213802,6,0,B|288:64|288:64|400:64,1,224,10|8,0:0|0:0,0:0:0:0:
336,64,214183,1,0,0:0:0:0:
176,192,214259,1,0,0:0:0:0:
336,192,214411,1,8,0:0:0:0:
176,192,214564,2,0,L|144:160,2,37.3333333333333,0|0|0,0:0|0:0|0:0,0:0:0:0:
304,112,214716,2,0,L|320:0,1,112,8|0,0:0|0:0,0:0:0:0:
80,288,215021,6,0,L|304:288,1,224,8|8,0:0|0:0,0:0:0:0:
304,288,215376,1,0,0:0:0:0:
272,288,215427,1,0,0:0:0:0:
144,192,215477,2,0,L|256:192,1,112,0|8,0:0|0:0,0:0:0:0:
112,128,215782,1,0,0:0:0:0:
352,64,215934,2,0,L|240:64,1,112,10|0,0:0|0:0,0:0:0:0:
480,288,216239,6,0,B|368:288|368:288|480:288,1,224,10|8,0:0|0:0,0:0:0:0:
416,352,216620,1,0,0:0:0:0:
256,352,216696,1,0,0:0:0:0:
400,192,216848,1,8,0:0:0:0:
160,192,217000,1,8,0:0:0:0:
304,192,217153,1,8,0:0:0:0:
160,192,217305,1,8,0:0:0:0:
400,192,217457,1,8,0:0:0:0:
