osu file format v14

[General]
AudioFilename: audio.mp3
AudioLeadIn: 0
PreviewTime: 80110
Countdown: 0
SampleSet: Normal
StackLeniency: 0.7
Mode: 1
LetterboxInBreaks: 0
WidescreenStoryboard: 0

[Editor]
Bookmarks: 13583,27057,40531,54004,67478,80952,94425,107899,121373,134846,139899,153373,171899
DistanceSpacing: 1.2
BeatDivisor: 4
GridSize: 32
TimelineZoom: 3.999999

[Metadata]
Title:Hankyou no Barrier Seed
TitleUnicode:反鏡のバリアシード
Artist:AKIAKANE
ArtistUnicode:秋赤音
Creator:_yu68
Version:Reverberation
Source:
Tags:
BeatmapID:1100617
BeatmapSetID:518044

[Difficulty]
HPDrainRate:5.5
CircleSize:5
OverallDifficulty:7
ApproachRate:5
SliderMultiplier:1.4
SliderTickRate:1

[Events]
//Background and Video events
0,0,"BG.jpg",0,80
//Break Periods
//Storyboard Layer 0 (Background)
//Storyboard Layer 1 (Fail)
//Storyboard Layer 2 (Pass)
//Storyboard Layer 3 (Foreground)
//Storyboard Sound Samples

[TimingPoints]
110,210.526315789474,4,1,0,20,1,0
13162,-100,4,1,0,60,0,0
25320,-100,4,1,0,80,0,0
40162,-100,4,1,0,70,0,0
40267,-100,4,1,0,60,0,0
40373,-100,4,1,0,50,0,0
40478,-100,4,1,0,40,0,0
47215,-100,4,1,0,50,0,0
53899,-100,4,1,0,60,0,0
60688,-100,4,1,0,70,0,0
67373,-100,4,1,0,80,0,0
79267,-100,4,1,0,20,0,0
80110,-100,4,1,0,60,0,0
80846,-100,4,1,0,90,0,0
80952,-100,4,1,0,90,0,1
94373,-100,4,1,0,80,0,1
107899,-100,4,1,0,80,0,0
108004,-100,4,1,0,60,0,0
121267,-100,4,1,0,90,0,0
134899,-50,4,1,0,5,0,0
134952,-100,4,1,0,5,0,0
139794,-100,4,1,0,60,0,0
146566,-100,4,1,0,70,0,0
153346,-100,4,1,0,90,0,0
153373,-100,4,1,0,90,0,1
171794,-100,4,1,0,80,0,1
171899,-100,4,1,0,80,0,0

[HitObjects]
256,192,13443,5,0,0:0:0:0:
256,192,13513,1,0,0:0:0:0:
256,192,13583,1,0,0:0:0:0:
256,192,15162,1,8,0:0:0:0:
256,192,15267,1,8,0:0:0:0:
256,192,15373,1,8,0:0:0:0:
256,192,15478,1,8,0:0:0:0:
256,192,16636,1,8,0:0:0:0:
256,192,16952,1,8,0:0:0:0:
256,192,19267,1,8,0:0:0:0:
256,192,19373,1,8,0:0:0:0:
256,192,19478,1,0,0:0:0:0:
256,192,19794,1,0,0:0:0:0:
256,192,20110,1,8,0:0:0:0:
256,192,20320,1,0,0:0:0:0:
256,192,21794,1,8,0:0:0:0:
256,192,22425,1,8,0:0:0:0:
256,192,23057,1,8,0:0:0:0:
256,192,23688,12,0,25267,0:0:0:0:
256,192,25373,5,4,0:0:0:0:
256,192,25583,1,4,0:0:0:0:
256,192,25794,1,4,0:0:0:0:
256,192,26004,1,4,0:0:0:0:
256,192,26215,1,8,0:0:0:0:
256,192,26320,1,8,0:0:0:0:
256,192,26425,1,0,0:0:0:0:
256,192,26531,1,0,0:0:0:0:
256,192,26636,1,8,0:0:0:0:
256,192,27057,1,0,0:0:0:0:
256,192,27267,1,8,0:0:0:0:
256,192,27478,1,0,0:0:0:0:
256,192,27583,1,0,0:0:0:0:
256,192,27636,1,0,0:0:0:0:
256,192,27688,1,8,0:0:0:0:
256,192,27794,1,8,0:0:0:0:
256,192,27899,1,0,0:0:0:0:
256,192,28110,1,8,0:0:0:0:
256,192,28215,1,0,0:0:0:0:
256,192,28267,1,0,0:0:0:0:
256,192,28320,1,0,0:0:0:0:
256,192,28425,1,8,0:0:0:0:
256,192,28531,1,0,0:0:0:0:
256,192,28636,1,8,0:0:0:0:
256,192,28741,1,0,0:0:0:0:
256,192,28952,1,8,0:0:0:0:
256,192,29162,1,0,0:0:0:0:
256,192,29267,1,0,0:0:0:0:
256,192,29320,1,0,0:0:0:0:
256,192,29373,1,8,0:0:0:0:
256,192,29478,1,8,0:0:0:0:
256,192,29583,1,0,0:0:0:0:
256,192,29688,1,0,0:0:0:0:
256,192,29794,1,8,0:0:0:0:
256,192,29899,1,0,0:0:0:0:
256,192,29952,1,0,0:0:0:0:
256,192,30004,1,0,0:0:0:0:
256,192,30110,1,8,0:0:0:0:
256,192,30162,1,8,0:0:0:0:
256,192,30215,1,0,0:0:0:0:
256,192,30320,1,8,0:0:0:0:
256,192,30425,1,0,0:0:0:0:
256,192,30583,1,8,0:0:0:0:
256,192,30636,1,0,0:0:0:0:
256,192,30741,1,8,0:0:0:0:
256,192,30846,1,0,0:0:0:0:
256,192,30899,1,0,0:0:0:0:
256,192,30952,1,8,0:0:0:0:
256,192,31004,1,8,0:0:0:0:
256,192,31057,1,0,0:0:0:0:
256,192,31162,1,8,0:0:0:0:
256,192,31267,1,0,0:0:0:0:
256,192,31373,1,0,0:0:0:0:
256,192,31425,1,0,0:0:0:0:
256,192,31478,1,8,0:0:0:0:
256,192,31583,1,8,0:0:0:0:
256,192,31688,1,0,0:0:0:0:
256,192,31741,1,8,0:0:0:0:
256,192,31794,1,0,0:0:0:0:
256,192,31846,1,0,0:0:0:0:
256,192,31899,1,8,0:0:0:0:
256,192,32004,1,8,0:0:0:0:
256,192,32110,1,0,0:0:0:0:
256,192,32267,1,0,0:0:0:0:
256,192,32320,1,8,0:0:0:0:
256,192,32425,1,8,0:0:0:0:
256,192,32531,1,0,0:0:0:0:
256,192,32636,1,8,0:0:0:0:
256,192,32688,1,0,0:0:0:0:
256,192,32741,1,8,0:0:0:0:
256,192,32794,1,8,0:0:0:0:
256,192,32846,1,0,0:0:0:0:
256,192,32899,1,0,0:0:0:0:
256,192,32952,1,8,0:0:0:0:
256,192,33057,1,0,0:0:0:0:
256,192,33162,1,0,0:0:0:0:
256,192,33267,1,8,0:0:0:0:
256,192,33373,1,0,0:0:0:0:
256,192,33478,1,0,0:0:0:0:
256,192,33583,1,8,0:0:0:0:
256,192,33688,1,0,0:0:0:0:
256,192,33741,1,8,0:0:0:0:
256,192,33794,1,0,0:0:0:0:
256,192,34004,1,8,0:0:0:0:
256,192,34215,1,0,0:0:0:0:
256,192,34320,1,0,0:0:0:0:
256,192,34373,1,0,0:0:0:0:
256,192,34425,1,8,0:0:0:0:
256,192,34531,1,8,0:0:0:0:
256,192,34636,1,0,0:0:0:0:
256,192,34846,1,8,0:0:0:0:
256,192,34952,1,0,0:0:0:0:
256,192,35004,1,8,0:0:0:0:
256,192,35057,1,0,0:0:0:0:
256,192,35162,1,8,0:0:0:0:
256,192,35267,1,0,0:0:0:0:
256,192,35373,1,8,0:0:0:0:
256,192,35478,1,0,0:0:0:0:
256,192,35688,1,8,0:0:0:0:
256,192,35899,1,0,0:0:0:0:
256,192,36004,1,0,0:0:0:0:
256,192,36057,1,0,0:0:0:0:
256,192,36110,1,8,0:0:0:0:
256,192,36215,1,8,0:0:0:0:
256,192,36320,1,0,0:0:0:0:
256,192,36425,1,8,0:0:0:0:
256,192,36478,1,8,0:0:0:0:
256,192,36531,1,0,0:0:0:0:
256,192,36583,1,0,0:0:0:0:
256,192,36636,1,8,0:0:0:0:
256,192,36741,1,0,0:0:0:0:
256,192,36846,1,8,0:0:0:0:
256,192,36952,1,0,0:0:0:0:
256,192,37110,1,8,0:0:0:0:
256,192,37162,1,0,0:0:0:0:
256,192,37267,1,0,0:0:0:0:
256,192,37373,1,8,0:0:0:0:
256,192,37425,1,0,0:0:0:0:
256,192,37478,1,0,0:0:0:0:
256,192,37531,1,8,0:0:0:0:
256,192,37583,1,0,0:0:0:0:
256,192,37688,1,8,0:0:0:0:
256,192,37794,1,0,0:0:0:0:
256,192,37899,1,0,0:0:0:0:
256,192,37952,1,0,0:0:0:0:
256,192,38004,1,8,0:0:0:0:
256,192,38057,1,8,0:0:0:0:
256,192,38110,1,0,0:0:0:0:
256,192,38215,1,0,0:0:0:0:
256,192,38320,1,8,0:0:0:0:
256,192,38373,1,8,0:0:0:0:
256,192,38425,1,0,0:0:0:0:
256,192,38531,1,0,0:0:0:0:
256,192,38636,1,8,0:0:0:0:
256,192,38741,1,0,0:0:0:0:
256,192,38794,1,8,0:0:0:0:
256,192,38846,1,0,0:0:0:0:
256,192,38899,1,0,0:0:0:0:
256,192,39057,1,0,0:0:0:0:
256,192,39162,1,0,0:0:0:0:
256,192,39267,1,0,0:0:0:0:
256,192,39373,1,0,0:0:0:0:
256,192,39478,1,0,0:0:0:0:
256,192,39583,1,12,0:0:0:0:
256,192,40110,1,0,0:0:0:0:
256,192,40215,1,8,0:0:0:0:
256,192,40320,1,8,0:0:0:0:
256,192,40425,1,8,0:0:0:0:
256,192,40531,1,0,0:0:0:0:
256,192,40952,1,0,0:0:0:0:
256,192,41162,1,8,0:0:0:0:
256,192,41373,1,0,0:0:0:0:
256,192,41688,1,8,0:0:0:0:
256,192,41794,1,0,0:0:0:0:
256,192,42004,1,8,0:0:0:0:
256,192,42215,1,0,0:0:0:0:
256,192,42636,1,0,0:0:0:0:
256,192,42846,1,8,0:0:0:0:
256,192,43057,1,0,0:0:0:0:
256,192,43267,1,8,0:0:0:0:
256,192,43373,1,8,0:0:0:0:
256,192,43478,1,0,0:0:0:0:
256,192,43688,1,8,0:0:0:0:
256,192,43899,1,0,0:0:0:0:
256,192,44215,1,0,0:0:0:0:
256,192,44320,1,0,0:0:0:0:
256,192,44531,1,8,0:0:0:0:
256,192,44741,1,0,0:0:0:0:
256,192,44952,1,8,0:0:0:0:
256,192,45057,1,8,0:0:0:0:
256,192,45162,1,0,0:0:0:0:
256,192,45373,1,8,0:0:0:0:
256,192,45583,1,0,0:0:0:0:
256,192,45794,1,0,0:0:0:0:
256,192,45899,1,8,0:0:0:0:
256,192,46004,1,0,0:0:0:0:
256,192,46215,1,8,0:0:0:0:
256,192,46425,1,0,0:0:0:0:
256,192,46495,1,0,0:0:0:0:
256,192,46566,1,0,0:0:0:0:
256,192,46636,1,8,0:0:0:0:
256,192,46846,1,8,0:0:0:0:
256,192,46952,1,0,0:0:0:0:
256,192,47162,1,8,0:0:0:0:
256,192,47267,1,0,0:0:0:0:
256,192,47583,1,0,0:0:0:0:
256,192,47688,1,0,0:0:0:0:
256,192,47899,1,8,0:0:0:0:
256,192,48110,1,0,0:0:0:0:
256,192,48320,1,8,0:0:0:0:
256,192,48425,1,8,0:0:0:0:
256,192,48531,1,0,0:0:0:0:
256,192,48741,1,8,0:0:0:0:
256,192,48952,1,0,0:0:0:0:
256,192,49162,1,0,0:0:0:0:
256,192,49267,1,0,0:0:0:0:
256,192,49373,1,8,0:0:0:0:
256,192,49583,1,8,0:0:0:0:
256,192,49794,1,0,0:0:0:0:
256,192,50004,1,8,0:0:0:0:
256,192,50110,1,0,0:0:0:0:
256,192,50215,1,0,0:0:0:0:
256,192,50320,1,8,0:0:0:0:
256,192,50531,1,8,0:0:0:0:
256,192,50636,1,0,0:0:0:0:
256,192,50952,1,0,0:0:0:0:
256,192,51057,1,8,0:0:0:0:
256,192,51267,1,0,0:0:0:0:
256,192,51373,1,8,0:0:0:0:
256,192,51478,1,0,0:0:0:0:
256,192,51688,1,0,0:0:0:0:
256,192,51794,1,0,0:0:0:0:
256,192,51899,1,8,0:0:0:0:
256,192,52110,1,8,0:0:0:0:
256,192,52215,1,8,0:0:0:0:
256,192,52320,1,0,0:0:0:0:
256,192,52425,1,0,0:0:0:0:
256,192,52531,1,8,0:0:0:0:
256,192,52741,1,0,0:0:0:0:
256,192,52846,1,8,0:0:0:0:
256,192,53057,1,0,0:0:0:0:
256,192,53162,1,8,0:0:0:0:
256,192,53267,1,0,0:0:0:0:
256,192,53373,1,0,0:0:0:0:
256,192,53478,1,0,0:0:0:0:
256,192,53583,1,8,0:0:0:0:
256,192,54004,1,0,0:0:0:0:
256,192,54320,1,8,0:0:0:0:
256,192,54425,1,0,0:0:0:0:
256,192,54636,1,8,0:0:0:0:
256,192,54846,1,0,0:0:0:0:
256,192,55057,1,0,0:0:0:0:
256,192,55162,1,8,0:0:0:0:
256,192,55267,1,0,0:0:0:0:
256,192,55478,1,8,0:0:0:0:
256,192,55688,1,0,0:0:0:0:
256,192,55899,1,8,0:0:0:0:
256,192,56004,1,0,0:0:0:0:
256,192,56110,1,0,0:0:0:0:
256,192,56320,1,8,0:0:0:0:
256,192,56425,1,8,0:0:0:0:
256,192,56531,1,0,0:0:0:0:
256,192,56636,1,8,0:0:0:0:
256,192,56846,1,8,0:0:0:0:
256,192,56952,1,0,0:0:0:0:
256,192,57162,1,8,0:0:0:0:
256,192,57267,1,8,0:0:0:0:
256,192,57373,1,0,0:0:0:0:
256,192,57688,1,8,0:0:0:0:
256,192,57794,1,0,0:0:0:0:
256,192,58004,1,8,0:0:0:0:
256,192,58110,1,8,0:0:0:0:
256,192,58215,1,0,0:0:0:0:
256,192,58320,1,0,0:0:0:0:
256,192,58425,1,8,0:0:0:0:
256,192,58531,1,8,0:0:0:0:
256,192,58636,1,0,0:0:0:0:
256,192,58846,1,0,0:0:0:0:
256,192,58952,1,8,0:0:0:0:
256,192,59057,1,0,0:0:0:0:
256,192,59267,1,0,0:0:0:0:
256,192,59478,1,8,0:0:0:0:
256,192,59688,1,8,0:0:0:0:
256,192,59794,1,8,0:0:0:0:
256,192,59899,1,0,0:0:0:0:
256,192,60004,1,8,0:0:0:0:
256,192,60215,1,0,0:0:0:0:
256,192,60320,1,8,0:0:0:0:
256,192,60425,1,0,0:0:0:0:
256,192,60531,1,0,0:0:0:0:
256,192,60636,1,8,0:0:0:0:
256,192,60741,1,0,0:0:0:0:
256,192,61057,1,8,0:0:0:0:
256,192,61162,1,0,0:0:0:0:
256,192,61373,1,8,0:0:0:0:
256,192,61583,1,0,0:0:0:0:
256,192,61794,1,0,0:0:0:0:
256,192,61899,1,8,0:0:0:0:
256,192,62004,1,0,0:0:0:0:
256,192,62215,1,8,0:0:0:0:
256,192,62425,1,0,0:0:0:0:
256,192,62636,1,8,0:0:0:0:
256,192,62741,1,0,0:0:0:0:
256,192,62846,1,0,0:0:0:0:
256,192,62952,1,8,0:0:0:0:
256,192,63162,1,8,0:0:0:0:
256,192,63267,1,0,0:0:0:0:
256,192,63373,1,8,0:0:0:0:
256,192,63583,1,0,0:0:0:0:
256,192,63688,1,8,0:0:0:0:
256,192,63794,1,8,0:0:0:0:
256,192,63899,1,0,0:0:0:0:
256,192,64004,1,8,0:0:0:0:
256,192,64110,1,0,0:0:0:0:
256,192,64425,1,0,0:0:0:0:
256,192,64531,1,8,0:0:0:0:
256,192,64741,1,8,0:0:0:0:
256,192,64846,1,8,0:0:0:0:
256,192,64952,1,0,0:0:0:0:
256,192,65057,1,8,0:0:0:0:
256,192,65267,1,8,0:0:0:0:
256,192,65373,1,0,0:0:0:0:
256,192,65583,1,0,0:0:0:0:
256,192,65688,1,8,0:0:0:0:
256,192,65794,1,0,0:0:0:0:
256,192,66004,1,8,0:0:0:0:
256,192,66215,1,0,0:0:0:0:
256,192,66320,1,8,0:0:0:0:
256,192,66425,1,0,0:0:0:0:
256,192,66531,1,0,0:0:0:0:
256,192,66636,1,8,0:0:0:0:
256,192,66846,1,8,0:0:0:0:
256,192,67057,1,8,0:0:0:0:
256,192,67110,1,8,0:0:0:0:
256,192,67162,1,0,0:0:0:0:
256,192,67215,1,0,0:0:0:0:
256,192,67267,1,8,0:0:0:0:
256,192,67478,1,0,0:0:0:0:
256,192,67688,1,0,0:0:0:0:
256,192,67899,1,8,0:0:0:0:
256,192,68110,1,8,0:0:0:0:
256,192,68215,1,0,0:0:0:0:
256,192,68425,1,8,0:0:0:0:
256,192,68531,1,0,0:0:0:0:
256,192,68636,1,0,0:0:0:0:
256,192,68741,1,8,0:0:0:0:
256,192,68846,1,8,0:0:0:0:
256,192,68899,1,8,0:0:0:0:
256,192,68952,1,0,0:0:0:0:
256,192,69057,1,8,0:0:0:0:
256,192,69162,1,0,0:0:0:0:
256,192,69373,1,0,0:0:0:0:
256,192,69478,1,8,0:0:0:0:
256,192,69688,1,0,0:0:0:0:
256,192,69794,1,8,0:0:0:0:
256,192,69899,1,0,0:0:0:0:
256,192,70110,1,0,0:0:0:0:
256,192,70215,1,8,0:0:0:0:
256,192,70320,1,8,0:0:0:0:
256,192,70425,1,0,0:0:0:0:
256,192,70531,1,0,0:0:0:0:
256,192,70583,1,0,0:0:0:0:
256,192,70636,1,8,0:0:0:0:
256,192,70846,1,0,0:0:0:0:
256,192,71057,1,0,0:0:0:0:
256,192,71267,1,8,0:0:0:0:
256,192,71478,1,8,0:0:0:0:
256,192,71583,1,0,0:0:0:0:
256,192,71794,1,8,0:0:0:0:
256,192,71899,1,0,0:0:0:0:
256,192,72004,1,8,0:0:0:0:
256,192,72110,1,8,0:0:0:0:
256,192,72215,1,0,0:0:0:0:
256,192,72267,1,8,0:0:0:0:
256,192,72320,1,0,0:0:0:0:
256,192,72425,1,8,0:0:0:0:
256,192,72531,1,0,0:0:0:0:
256,192,72741,1,0,0:0:0:0:
256,192,72846,1,8,0:0:0:0:
256,192,72952,1,0,0:0:0:0:
256,192,73057,1,0,0:0:0:0:
256,192,73162,1,8,0:0:0:0:
256,192,73267,1,0,0:0:0:0:
256,192,73478,1,8,0:0:0:0:
256,192,73583,1,0,0:0:0:0:
256,192,73636,1,0,0:0:0:0:
256,192,73688,1,0,0:0:0:0:
256,192,73741,1,0,0:0:0:0:
256,192,73794,1,8,0:0:0:0:
256,192,73899,1,0,0:0:0:0:
256,192,74004,1,8,0:0:0:0:
256,192,74110,1,8,0:0:0:0:
256,192,74215,1,0,0:0:0:0:
256,192,74425,1,8,0:0:0:0:
256,192,74636,1,0,0:0:0:0:
256,192,74741,1,0,0:0:0:0:
256,192,74794,1,0,0:0:0:0:
256,192,74846,1,8,0:0:0:0:
256,192,74952,1,8,0:0:0:0:
256,192,75057,1,0,0:0:0:0:
256,192,75267,1,8,0:0:0:0:
256,192,75373,1,8,0:0:0:0:
256,192,75425,1,8,0:0:0:0:
256,192,75478,1,0,0:0:0:0:
256,192,75583,1,8,0:0:0:0:
256,192,75688,1,0,0:0:0:0:
256,192,75794,1,8,0:0:0:0:
256,192,75899,1,0,0:0:0:0:
256,192,76110,1,8,0:0:0:0:
256,192,76215,1,0,0:0:0:0:
256,192,76267,1,0,0:0:0:0:
256,192,76320,1,0,0:0:0:0:
256,192,76425,1,0,0:0:0:0:
256,192,76531,1,8,0:0:0:0:
256,192,76636,1,8,0:0:0:0:
256,192,76741,1,0,0:0:0:0:
256,192,76899,1,0,0:0:0:0:
256,192,76952,1,8,0:0:0:0:
256,192,77057,1,8,0:0:0:0:
256,192,77162,1,0,0:0:0:0:
256,192,77267,1,0,0:0:0:0:
256,192,77320,1,8,0:0:0:0:
256,192,77373,1,0,0:0:0:0:
256,192,77478,1,8,0:0:0:0:
256,192,77583,1,4,0:0:0:0:
256,192,77794,1,4,0:0:0:0:
256,192,78004,1,8,0:0:0:0:
256,192,78110,1,8,0:0:0:0:
256,192,78215,1,4,0:0:0:0:
256,192,78425,1,4,0:0:0:0:
256,192,78636,1,8,0:0:0:0:
256,192,78741,1,8,0:0:0:0:
256,192,78846,1,4,0:0:0:0:
256,192,79057,1,4,0:0:0:0:
256,192,79478,1,8,0:0:0:0:
256,192,79688,1,8,0:0:0:0:
256,192,79899,1,8,0:0:0:0:
256,192,80952,1,4,0:0:0:0:
256,192,81110,1,0,0:0:0:0:
256,192,81162,1,8,0:0:0:0:
256,192,81267,1,8,0:0:0:0:
256,192,81373,1,0,0:0:0:0:
256,192,81478,1,0,0:0:0:0:
256,192,81531,1,0,0:0:0:0:
256,192,81583,1,8,0:0:0:0:
256,192,81688,1,8,0:0:0:0:
256,192,81794,1,0,0:0:0:0:
256,192,81899,1,8,0:0:0:0:
256,192,81952,1,8,0:0:0:0:
256,192,82004,1,0,0:0:0:0:
256,192,82110,1,8,0:0:0:0:
256,192,82162,1,8,0:0:0:0:
256,192,82215,1,0,0:0:0:0:
256,192,82267,1,0,0:0:0:0:
256,192,82320,1,8,0:0:0:0:
256,192,82425,1,0,0:0:0:0:
256,192,82531,1,8,0:0:0:0:
256,192,82636,1,0,0:0:0:0:
256,192,82741,1,0,0:0:0:0:
256,192,82794,1,0,0:0:0:0:
256,192,82846,1,8,0:0:0:0:
256,192,82952,1,0,0:0:0:0:
256,192,83004,1,8,0:0:0:0:
256,192,83057,1,0,0:0:0:0:
256,192,83110,1,0,0:0:0:0:
256,192,83162,1,8,0:0:0:0:
256,192,83215,1,8,0:0:0:0:
256,192,83267,1,0,0:0:0:0:
256,192,83373,1,8,0:0:0:0:
256,192,83583,1,0,0:0:0:0:
256,192,83688,1,8,0:0:0:0:
256,192,83794,1,0,0:0:0:0:
256,192,83846,1,0,0:0:0:0:
256,192,83899,1,8,0:0:0:0:
256,192,84004,1,8,0:0:0:0:
256,192,84110,1,8,0:0:0:0:
256,192,84215,1,8,0:0:0:0:
256,192,84320,1,0,0:0:0:0:
256,192,84478,1,0,0:0:0:0:
256,192,84531,1,0,0:0:0:0:
256,192,84636,1,8,0:0:0:0:
256,192,84741,1,0,0:0:0:0:
256,192,84846,1,8,0:0:0:0:
256,192,84899,1,8,0:0:0:0:
256,192,84952,1,0,0:0:0:0:
256,192,85057,1,8,0:0:0:0:
256,192,85162,1,0,0:0:0:0:
256,192,85267,1,0,0:0:0:0:
256,192,85320,1,0,0:0:0:0:
256,192,85373,1,8,0:0:0:0:
256,192,85478,1,0,0:0:0:0:
256,192,85531,1,0,0:0:0:0:
256,192,85583,1,8,0:0:0:0:
256,192,85636,1,8,0:0:0:0:
256,192,85688,1,0,0:0:0:0:
256,192,85741,1,0,0:0:0:0:
256,192,85794,1,8,0:0:0:0:
256,192,85899,1,0,0:0:0:0:
256,192,85952,1,0,0:0:0:0:
256,192,86004,1,8,0:0:0:0:
256,192,86057,1,0,0:0:0:0:
256,192,86162,1,0,0:0:0:0:
256,192,86215,1,8,0:0:0:0:
256,192,86320,1,0,0:0:0:0:
256,192,86373,1,0,0:0:0:0:
256,192,86425,1,8,0:0:0:0:
256,192,86478,1,0,0:0:0:0:
256,192,86531,1,0,0:0:0:0:
256,192,86583,1,8,0:0:0:0:
256,192,86636,1,0,0:0:0:0:
256,192,86741,1,8,0:0:0:0:
256,192,86952,1,0,0:0:0:0:
256,192,87004,1,8,0:0:0:0:
256,192,87057,1,0,0:0:0:0:
256,192,87162,1,0,0:0:0:0:
256,192,87267,1,8,0:0:0:0:
256,192,87373,1,0,0:0:0:0:
256,192,87478,1,8,0:0:0:0:
256,192,87583,1,8,0:0:0:0:
256,192,87688,1,0,0:0:0:0:
256,192,87794,1,0,0:0:0:0:
256,192,87846,1,0,0:0:0:0:
256,192,87899,1,8,0:0:0:0:
256,192,88004,1,0,0:0:0:0:
256,192,88057,1,0,0:0:0:0:
256,192,88110,1,0,0:0:0:0:
256,192,88162,1,8,0:0:0:0:
256,192,88215,1,0,0:0:0:0:
256,192,88320,1,8,0:0:0:0:
256,192,88425,1,8,0:0:0:0:
256,192,88531,1,0,0:0:0:0:
256,192,88636,1,8,0:0:0:0:
256,192,88688,1,8,0:0:0:0:
256,192,88741,1,0,0:0:0:0:
256,192,88846,1,8,0:0:0:0:
256,192,88899,1,0,0:0:0:0:
256,192,88952,1,0,0:0:0:0:
256,192,89004,1,8,0:0:0:0:
256,192,89057,1,0,0:0:0:0:
256,192,89162,1,8,0:0:0:0:
256,192,89267,1,8,0:0:0:0:
256,192,89373,1,0,0:0:0:0:
256,192,89531,1,0,0:0:0:0:
256,192,89583,1,8,0:0:0:0:
256,192,89688,1,0,0:0:0:0:
256,192,89741,1,0,0:0:0:0:
256,192,89794,1,8,0:0:0:0:
256,192,89846,1,8,0:0:0:0:
256,192,89899,1,0,0:0:0:0:
256,192,90004,1,8,0:0:0:0:
256,192,90110,1,0,0:0:0:0:
256,192,90162,1,8,0:0:0:0:
256,192,90215,1,0,0:0:0:0:
256,192,90320,1,0,0:0:0:0:
256,192,90425,1,8,0:0:0:0:
256,192,90531,1,8,0:0:0:0:
256,192,90583,1,8,0:0:0:0:
256,192,90636,1,0,0:0:0:0:
256,192,90741,1,8,0:0:0:0:
256,192,90952,1,8,0:0:0:0:
256,192,91057,1,4,0:0:0:0:
256,192,92110,1,8,0:0:0:0:
256,192,92215,1,8,0:0:0:0:
256,192,92320,1,8,0:0:0:0:
256,192,92531,1,8,0:0:0:0:
256,192,92741,1,4,0:0:0:0:
256,192,93162,1,4,0:0:0:0:
256,192,93583,1,4,0:0:0:0:
256,192,93794,1,8,0:0:0:0:
256,192,93899,1,0,0:0:0:0:
256,192,94004,1,0,0:0:0:0:
256,192,94110,1,0,0:0:0:0:
256,192,94215,1,8,0:0:0:0:
256,192,94320,1,8,0:0:0:0:
256,192,94425,1,0,0:0:0:0:
256,192,94636,1,8,0:0:0:0:
256,192,94846,1,0,0:0:0:0:
256,192,94952,1,0,0:0:0:0:
256,192,95004,1,0,0:0:0:0:
256,192,95057,1,8,0:0:0:0:
256,192,95162,1,8,0:0:0:0:
256,192,95267,1,0,0:0:0:0:
256,192,95478,1,8,0:0:0:0:
256,192,95583,1,8,0:0:0:0:
256,192,95688,1,0,0:0:0:0:
256,192,95794,1,8,0:0:0:0:
256,192,95846,1,0,0:0:0:0:
256,192,95899,1,0,0:0:0:0:
256,192,96004,1,8,0:0:0:0:
256,192,96110,1,0,0:0:0:0:
256,192,96215,1,0,0:0:0:0:
256,192,96267,1,0,0:0:0:0:
256,192,96320,1,8,0:0:0:0:
256,192,96425,1,8,0:0:0:0:
256,192,96531,1,0,0:0:0:0:
256,192,96636,1,0,0:0:0:0:
256,192,96688,1,8,0:0:0:0:
256,192,96741,1,0,0:0:0:0:
256,192,96846,1,8,0:0:0:0:
256,192,96952,1,0,0:0:0:0:
256,192,97057,1,8,0:0:0:0:
256,192,97110,1,8,0:0:0:0:
256,192,97162,1,0,0:0:0:0:
256,192,97267,1,8,0:0:0:0:
256,192,97373,1,0,0:0:0:0:
256,192,97425,1,0,0:0:0:0:
256,192,97478,1,8,0:0:0:0:
256,192,97531,1,8,0:0:0:0:
256,192,97583,1,0,0:0:0:0:
256,192,97688,1,8,0:0:0:0:
256,192,97794,1,0,0:0:0:0:
256,192,98004,1,8,0:0:0:0:
256,192,98215,1,0,0:0:0:0:
256,192,98320,1,0,0:0:0:0:
256,192,98373,1,0,0:0:0:0:
256,192,98425,1,8,0:0:0:0:
256,192,98531,1,8,0:0:0:0:
256,192,98636,1,0,0:0:0:0:
256,192,98846,1,8,0:0:0:0:
256,192,98952,1,0,0:0:0:0:
256,192,99004,1,8,0:0:0:0:
256,192,99057,1,0,0:0:0:0:
256,192,99110,1,0,0:0:0:0:
256,192,99162,1,8,0:0:0:0:
256,192,99267,1,0,0:0:0:0:
256,192,99373,1,8,0:0:0:0:
256,192,99478,1,0,0:0:0:0:
256,192,99636,1,0,0:0:0:0:
256,192,99688,1,8,0:0:0:0:
256,192,99794,1,8,0:0:0:0:
256,192,99899,1,0,0:0:0:0:
256,192,100004,1,8,0:0:0:0:
256,192,100057,1,8,0:0:0:0:
256,192,100110,1,0,0:0:0:0:
256,192,100215,1,8,0:0:0:0:
256,192,100320,1,0,0:0:0:0:
256,192,100425,1,8,0:0:0:0:
256,192,100478,1,8,0:0:0:0:
256,192,100531,1,0,0:0:0:0:
256,192,100583,1,8,0:0:0:0:
256,192,100636,1,0,0:0:0:0:
256,192,100741,1,8,0:0:0:0:
256,192,100846,1,0,0:0:0:0:
256,192,100899,1,0,0:0:0:0:
256,192,100952,1,0,0:0:0:0:
256,192,101057,1,8,0:0:0:0:
256,192,101162,1,0,0:0:0:0:
256,192,101373,1,8,0:0:0:0:
256,192,101583,1,0,0:0:0:0:
256,192,101688,1,0,0:0:0:0:
256,192,101741,1,0,0:0:0:0:
256,192,101794,1,8,0:0:0:0:
256,192,101899,1,8,0:0:0:0:
256,192,102004,1,0,0:0:0:0:
256,192,102215,1,8,0:0:0:0:
256,192,102320,1,0,0:0:0:0:
256,192,102373,1,0,0:0:0:0:
256,192,102425,1,0,0:0:0:0:
256,192,102531,1,8,0:0:0:0:
256,192,102583,1,0,0:0:0:0:
256,192,102636,1,0,0:0:0:0:
256,192,102741,1,8,0:0:0:0:
256,192,102846,1,0,0:0:0:0:
256,192,103004,1,0,0:0:0:0:
256,192,103057,1,8,0:0:0:0:
256,192,103162,1,8,0:0:0:0:
256,192,103267,1,0,0:0:0:0:
256,192,103320,1,0,0:0:0:0:
256,192,103373,1,0,0:0:0:0:
256,192,103425,1,0,0:0:0:0:
256,192,103478,1,8,0:0:0:0:
256,192,103583,1,8,0:0:0:0:
256,192,103688,1,0,0:0:0:0:
256,192,103794,1,0,0:0:0:0:
256,192,103846,1,0,0:0:0:0:
256,192,103899,1,8,0:0:0:0:
256,192,104004,1,0,0:0:0:0:
256,192,104057,1,8,0:0:0:0:
256,192,104110,1,0,0:0:0:0:
256,192,104215,1,8,0:0:0:0:
256,192,104320,1,0,0:0:0:0:
256,192,104425,1,8,0:0:0:0:
256,192,104531,1,0,0:0:0:0:
256,192,104741,1,8,0:0:0:0:
256,192,104952,1,0,0:0:0:0:
256,192,105057,1,0,0:0:0:0:
256,192,105110,1,0,0:0:0:0:
256,192,105162,1,8,0:0:0:0:
256,192,105267,1,8,0:0:0:0:
256,192,105373,1,0,0:0:0:0:
256,192,105478,1,0,0:0:0:0:
256,192,105531,1,8,0:0:0:0:
256,192,105583,1,8,0:0:0:0:
256,192,105636,1,0,0:0:0:0:
256,192,105688,1,8,0:0:0:0:
256,192,105794,1,0,0:0:0:0:
256,192,105899,1,8,0:0:0:0:
256,192,106004,1,0,0:0:0:0:
256,192,106110,1,8,0:0:0:0:
256,192,106162,1,8,0:0:0:0:
256,192,106215,1,0,0:0:0:0:
256,192,106320,1,0,0:0:0:0:
256,192,106425,1,0,0:0:0:0:
256,192,106583,1,0,0:0:0:0:
256,192,106636,1,8,0:0:0:0:
256,192,106741,1,0,0:0:0:0:
256,192,106952,1,8,0:0:0:0:
256,192,107004,1,0,0:0:0:0:
256,192,107057,1,0,0:0:0:0:
256,192,107162,1,8,0:0:0:0:
256,192,107267,1,0,0:0:0:0:
256,192,107373,1,0,0:0:0:0:
256,192,107425,1,8,0:0:0:0:
256,192,107478,1,0,0:0:0:0:
256,192,107583,1,8,0:0:0:0:
256,192,107688,1,0,0:0:0:0:
256,192,107899,1,12,0:0:0:0:
256,192,109478,1,8,0:0:0:0:
256,192,109688,1,8,0:0:0:0:
256,192,109794,1,8,0:0:0:0:
256,192,110425,1,8,0:0:0:0:
256,192,110741,1,8,0:0:0:0:
256,192,111057,1,8,0:0:0:0:
256,192,111162,1,8,0:0:0:0:
256,192,111267,1,8,0:0:0:0:
256,192,113794,1,8,0:0:0:0:
256,192,114425,1,8,0:0:0:0:
256,192,114636,1,8,0:0:0:0:
256,192,117162,1,8,0:0:0:0:
256,192,117478,1,8,0:0:0:0:
256,192,117794,1,8,0:0:0:0:
256,192,117899,1,8,0:0:0:0:
256,192,118004,1,8,0:0:0:0:
256,192,121373,5,0,0:0:0:0:
256,192,121478,1,0,0:0:0:0:
256,192,121583,1,8,0:0:0:0:
256,192,121636,1,8,0:0:0:0:
256,192,121688,1,8,0:0:0:0:
256,192,121741,1,8,0:0:0:0:
256,192,121794,1,0,0:0:0:0:
256,192,121846,1,0,0:0:0:0:
256,192,121899,1,8,0:0:0:0:
256,192,122004,1,0,0:0:0:0:
256,192,122057,1,8,0:0:0:0:
256,192,122110,1,0,0:0:0:0:
256,192,122162,1,0,0:0:0:0:
256,192,122267,1,8,0:0:0:0:
256,192,122320,1,0,0:0:0:0:
256,192,122373,1,8,0:0:0:0:
256,192,122425,1,0,0:0:0:0:
256,192,122478,1,0,0:0:0:0:
256,192,122531,1,8,0:0:0:0:
256,192,123057,1,0,0:0:0:0:
256,192,123267,1,8,0:0:0:0:
256,192,123373,1,0,0:0:0:0:
256,192,123425,1,0,0:0:0:0:
256,192,123478,1,0,0:0:0:0:
256,192,123583,1,8,0:0:0:0:
256,192,123636,1,8,0:0:0:0:
256,192,123688,1,0,0:0:0:0:
256,192,123741,1,0,0:0:0:0:
256,192,123794,1,0,0:0:0:0:
256,192,123846,1,8,0:0:0:0:
256,192,123899,1,0,0:0:0:0:
256,192,124004,1,8,0:0:0:0:
256,192,124110,1,0,0:0:0:0:
256,192,124162,1,0,0:0:0:0:
256,192,124215,1,8,0:0:0:0:
256,192,124320,1,0,0:0:0:0:
256,192,124373,1,8,0:0:0:0:
256,192,124425,1,0,0:0:0:0:
256,192,124478,1,0,0:0:0:0:
256,192,124531,1,8,0:0:0:0:
256,192,124583,1,8,0:0:0:0:
256,192,124636,1,0,0:0:0:0:
256,192,124688,1,0,0:0:0:0:
256,192,124741,1,8,0:0:0:0:
256,192,124846,1,8,0:0:0:0:
256,192,124952,1,8,0:0:0:0:
256,192,125057,1,0,0:0:0:0:
256,192,125110,1,0,0:0:0:0:
256,192,125162,1,0,0:0:0:0:
256,192,125215,1,0,0:0:0:0:
256,192,125267,1,8,0:0:0:0:
256,192,125373,1,8,0:0:0:0:
256,192,125478,1,0,0:0:0:0:
256,192,125531,1,8,0:0:0:0:
256,192,125583,1,0,0:0:0:0:
256,192,125688,1,0,0:0:0:0:
256,192,125794,1,8,0:0:0:0:
256,192,125899,1,8,0:0:0:0:
256,192,126004,1,0,0:0:0:0:
256,192,126057,1,0,0:0:0:0:
256,192,126110,1,0,0:0:0:0:
256,192,126162,1,0,0:0:0:0:
256,192,126215,1,8,0:0:0:0:
256,192,126267,1,0,0:0:0:0:
256,192,126320,1,8,0:0:0:0:
256,192,126373,1,8,0:0:0:0:
256,192,126425,1,0,0:0:0:0:
256,192,126531,1,8,0:0:0:0:
256,192,126636,1,0,0:0:0:0:
256,192,126741,1,8,0:0:0:0:
256,192,126846,1,0,0:0:0:0:
256,192,126899,1,8,0:0:0:0:
256,192,126952,1,8,0:0:0:0:
256,192,127004,1,8,0:0:0:0:
256,192,127057,1,0,0:0:0:0:
256,192,127110,1,0,0:0:0:0:
256,192,127162,1,0,0:0:0:0:
256,192,127215,1,0,0:0:0:0:
256,192,127478,1,0,0:0:0:0:
256,192,127531,1,0,0:0:0:0:
256,192,127583,1,8,0:0:0:0:
256,192,127688,1,0,0:0:0:0:
256,192,127715,1,0,0:0:0:0:
256,192,127794,1,8,0:0:0:0:
256,192,127899,1,8,0:0:0:0:
256,192,128004,1,8,0:0:0:0:
256,192,128110,1,0,0:0:0:0:
256,192,128215,1,0,0:0:0:0:
256,192,128320,1,8,0:0:0:0:
256,192,128373,1,8,0:0:0:0:
256,192,128425,1,8,0:0:0:0:
256,192,128478,1,8,0:0:0:0:
256,192,128531,1,0,0:0:0:0:
256,192,128583,1,0,0:0:0:0:
256,192,128636,1,8,0:0:0:0:
256,192,128688,1,8,0:0:0:0:
256,192,128741,1,0,0:0:0:0:
256,192,128794,1,8,0:0:0:0:
256,192,128846,1,0,0:0:0:0:
256,192,128899,1,0,0:0:0:0:
256,192,129004,1,8,0:0:0:0:
256,192,129057,1,0,0:0:0:0:
256,192,129110,1,0,0:0:0:0:
256,192,129162,1,8,0:0:0:0:
256,192,129215,1,0,0:0:0:0:
256,192,129267,1,8,0:0:0:0:
256,192,129794,1,0,0:0:0:0:
256,192,129899,1,0,0:0:0:0:
256,192,130004,1,8,0:0:0:0:
256,192,130110,1,0,0:0:0:0:
256,192,130162,1,8,0:0:0:0:
256,192,130215,1,0,0:0:0:0:
256,192,130320,1,8,0:0:0:0:
256,192,130373,1,8,0:0:0:0:
256,192,130425,1,0,0:0:0:0:
256,192,130478,1,0,0:0:0:0:
256,192,130531,1,0,0:0:0:0:
256,192,130583,1,8,0:0:0:0:
256,192,130636,1,0,0:0:0:0:
256,192,130741,1,0,0:0:0:0:
256,192,130846,1,8,0:0:0:0:
256,192,130952,1,0,0:0:0:0:
256,192,131004,1,0,0:0:0:0:
256,192,131057,1,8,0:0:0:0:
256,192,131162,1,0,0:0:0:0:
256,192,131267,1,8,0:0:0:0:
256,192,131320,1,0,0:0:0:0:
256,192,131373,1,8,0:0:0:0:
256,192,131425,1,8,0:0:0:0:
256,192,131478,1,0,0:0:0:0:
256,192,131583,1,0,0:0:0:0:
256,192,131688,1,0,0:0:0:0:
256,192,131741,1,0,0:0:0:0:
256,192,131794,1,0,0:0:0:0:
256,192,131846,1,0,0:0:0:0:
256,192,131899,1,8,0:0:0:0:
256,192,131952,1,0,0:0:0:0:
256,192,132004,1,0,0:0:0:0:
256,192,132057,1,8,0:0:0:0:
256,192,132110,1,0,0:0:0:0:
256,192,132215,1,8,0:0:0:0:
256,192,132320,1,0,0:0:0:0:
256,192,132425,1,8,0:0:0:0:
256,192,132478,1,8,0:0:0:0:
256,192,132531,1,0,0:0:0:0:
256,192,132583,1,8,0:0:0:0:
256,192,132636,1,8,0:0:0:0:
256,192,132741,1,0,0:0:0:0:
256,192,132794,1,8,0:0:0:0:
256,192,132846,1,0,0:0:0:0:
256,192,132899,1,0,0:0:0:0:
256,192,132952,1,8,0:0:0:0:
256,192,133004,1,8,0:0:0:0:
256,192,133057,1,8,0:0:0:0:
256,192,133110,1,8,0:0:0:0:
256,192,133162,1,0,0:0:0:0:
256,192,133267,1,0,0:0:0:0:
256,192,133373,1,0,0:0:0:0:
256,192,133425,1,0,0:0:0:0:
256,192,133478,1,0,0:0:0:0:
256,192,133531,1,0,0:0:0:0:
256,192,133583,1,8,0:0:0:0:
256,192,133636,1,8,0:0:0:0:
256,192,133688,1,0,0:0:0:0:
256,192,133741,1,8,0:0:0:0:
256,192,133794,1,0,0:0:0:0:
256,192,133899,1,8,0:0:0:0:
256,192,134004,1,0,0:0:0:0:
256,192,134057,1,8,0:0:0:0:
256,192,134110,1,0,0:0:0:0:
256,192,134162,1,8,0:0:0:0:
256,192,134215,1,0,0:0:0:0:
256,192,134267,1,0,0:0:0:0:
256,192,134320,1,8,0:0:0:0:
256,192,134425,1,0,0:0:0:0:
256,192,134478,1,8,0:0:0:0:
256,192,134531,1,0,0:0:0:0:
256,192,134583,1,0,0:0:0:0:
256,192,134636,1,8,0:0:0:0:
256,192,134671,1,8,0:0:0:0:
256,192,134706,1,8,0:0:0:0:
256,192,134741,1,0,0:0:0:0:
256,192,134794,1,8,0:0:0:0:
256,192,134846,1,0,0:0:0:0:
256,192,134899,12,0,138636,0:0:0:0:
256,192,139899,5,4,0:0:0:0:
256,192,142846,1,8,0:0:0:0:
256,192,142987,1,0,0:0:0:0:
256,192,143127,1,0,0:0:0:0:
256,192,143267,1,4,0:0:0:0:
256,192,145794,1,8,0:0:0:0:
256,192,145934,1,8,0:0:0:0:
256,192,146074,1,0,0:0:0:0:
256,192,146215,1,0,0:0:0:0:
256,192,146495,1,8,0:0:0:0:
256,192,146636,1,4,0:0:0:0:
256,192,147478,1,4,0:0:0:0:
256,192,147899,1,8,0:0:0:0:
256,192,148320,1,4,0:0:0:0:
256,192,149162,1,4,0:0:0:0:
256,192,149373,1,8,0:0:0:0:
256,192,149583,1,8,0:0:0:0:
256,192,149688,1,0,0:0:0:0:
256,192,149794,1,8,0:0:0:0:
256,192,149899,1,8,0:0:0:0:
256,192,150004,1,4,0:0:0:0:
256,192,151688,1,4,0:0:0:0:
256,192,152110,1,4,0:0:0:0:
256,192,152531,1,4,0:0:0:0:
256,192,152741,1,8,0:0:0:0:
256,192,152952,1,8,0:0:0:0:
256,192,153004,1,8,0:0:0:0:
256,192,153057,1,8,0:0:0:0:
256,192,153110,1,8,0:0:0:0:
256,192,153162,1,8,0:0:0:0:
256,192,153215,1,8,0:0:0:0:
256,192,153267,1,8,0:0:0:0:
256,192,153320,1,8,0:0:0:0:
256,192,153373,1,0,0:0:0:0:
256,192,153531,1,0,0:0:0:0:
256,192,153583,1,8,0:0:0:0:
256,192,153688,1,8,0:0:0:0:
256,192,153794,1,0,0:0:0:0:
256,192,153846,1,8,0:0:0:0:
256,192,153899,1,0,0:0:0:0:
256,192,153952,1,0,0:0:0:0:
256,192,154004,1,8,0:0:0:0:
256,192,154110,1,8,0:0:0:0:
256,192,154162,1,8,0:0:0:0:
256,192,154215,1,0,0:0:0:0:
256,192,154267,1,8,0:0:0:0:
256,192,154373,1,8,0:0:0:0:
256,192,154425,1,0,0:0:0:0:
256,192,154531,1,8,0:0:0:0:
256,192,154583,1,0,0:0:0:0:
256,192,154636,1,0,0:0:0:0:
256,192,154741,1,8,0:0:0:0:
256,192,154846,1,0,0:0:0:0:
256,192,154899,1,0,0:0:0:0:
256,192,154952,1,8,0:0:0:0:
256,192,155004,1,8,0:0:0:0:
256,192,155057,1,0,0:0:0:0:
256,192,155162,1,0,0:0:0:0:
256,192,155215,1,0,0:0:0:0:
256,192,155267,1,8,0:0:0:0:
256,192,155373,1,0,0:0:0:0:
256,192,155425,1,8,0:0:0:0:
256,192,155478,1,0,0:0:0:0:
256,192,155531,1,0,0:0:0:0:
256,192,155583,1,8,0:0:0:0:
256,192,155636,1,8,0:0:0:0:
256,192,155688,1,0,0:0:0:0:
256,192,155794,1,8,0:0:0:0:
256,192,155952,1,8,0:0:0:0:
256,192,156004,1,0,0:0:0:0:
256,192,156110,1,8,0:0:0:0:
256,192,156215,1,0,0:0:0:0:
256,192,156267,1,0,0:0:0:0:
256,192,156320,1,8,0:0:0:0:
256,192,156425,1,8,0:0:0:0:
256,192,156531,1,8,0:0:0:0:
256,192,156583,1,8,0:0:0:0:
256,192,156636,1,8,0:0:0:0:
256,192,156688,1,8,0:0:0:0:
256,192,156741,1,0,0:0:0:0:
256,192,156899,1,0,0:0:0:0:
256,192,156952,1,0,0:0:0:0:
256,192,157057,1,8,0:0:0:0:
256,192,157162,1,0,0:0:0:0:
256,192,157215,1,0,0:0:0:0:
256,192,157267,1,8,0:0:0:0:
256,192,157320,1,8,0:0:0:0:
256,192,157373,1,0,0:0:0:0:
256,192,157478,1,8,0:0:0:0:
256,192,157583,1,0,0:0:0:0:
256,192,157636,1,8,0:0:0:0:
256,192,157741,1,8,0:0:0:0:
256,192,157794,1,0,0:0:0:0:
256,192,157846,1,0,0:0:0:0:
256,192,157899,1,8,0:0:0:0:
256,192,157952,1,8,0:0:0:0:
256,192,158004,1,0,0:0:0:0:
256,192,158110,1,8,0:0:0:0:
256,192,158162,1,0,0:0:0:0:
256,192,158215,1,8,0:0:0:0:
256,192,158267,1,8,0:0:0:0:
256,192,158320,1,0,0:0:0:0:
256,192,158373,1,0,0:0:0:0:
256,192,158425,1,8,0:0:0:0:
256,192,158478,1,0,0:0:0:0:
256,192,158583,1,0,0:0:0:0:
256,192,158636,1,8,0:0:0:0:
256,192,158688,1,0,0:0:0:0:
256,192,158794,1,0,0:0:0:0:
256,192,158846,1,8,0:0:0:0:
256,192,158899,1,0,0:0:0:0:
256,192,158952,1,0,0:0:0:0:
256,192,159004,1,8,0:0:0:0:
256,192,159057,1,0,0:0:0:0:
256,192,159162,1,8,0:0:0:0:
256,192,159320,1,0,0:0:0:0:
256,192,159373,1,8,0:0:0:0:
256,192,159425,1,8,0:0:0:0:
256,192,159478,1,0,0:0:0:0:
256,192,159583,1,0,0:0:0:0:
256,192,159688,1,8,0:0:0:0:
256,192,159794,1,0,0:0:0:0:
256,192,159846,1,0,0:0:0:0:
256,192,159899,1,8,0:0:0:0:
256,192,159952,1,0,0:0:0:0:
256,192,160004,1,8,0:0:0:0:
256,192,160057,1,8,0:0:0:0:
256,192,160110,1,0,0:0:0:0:
256,192,160215,1,8,0:0:0:0:
256,192,160267,1,8,0:0:0:0:
256,192,160320,1,0,0:0:0:0:
256,192,160425,1,8,0:0:0:0:
256,192,160478,1,0,0:0:0:0:
256,192,160531,1,0,0:0:0:0:
256,192,160583,1,8,0:0:0:0:
256,192,160688,1,8,0:0:0:0:
256,192,160741,1,0,0:0:0:0:
256,192,160846,1,8,0:0:0:0:
256,192,160952,1,0,0:0:0:0:
256,192,161057,1,0,0:0:0:0:
256,192,161110,1,8,0:0:0:0:
256,192,161162,1,0,0:0:0:0:
256,192,161215,1,0,0:0:0:0:
256,192,161267,1,8,0:0:0:0:
256,192,161373,1,0,0:0:0:0:
256,192,161425,1,8,0:0:0:0:
256,192,161531,1,8,0:0:0:0:
256,192,161583,1,0,0:0:0:0:
256,192,161636,1,0,0:0:0:0:
256,192,161688,1,8,0:0:0:0:
256,192,161741,1,8,0:0:0:0:
256,192,161794,1,0,0:0:0:0:
256,192,161952,1,0,0:0:0:0:
256,192,162004,1,8,0:0:0:0:
256,192,162110,1,0,0:0:0:0:
256,192,162162,1,0,0:0:0:0:
256,192,162215,1,8,0:0:0:0:
256,192,162267,1,0,0:0:0:0:
256,192,162320,1,0,0:0:0:0:
256,192,162373,1,8,0:0:0:0:
256,192,162425,1,0,0:0:0:0:
256,192,162531,1,8,0:0:0:0:
256,192,162688,1,8,0:0:0:0:
256,192,162741,1,0,0:0:0:0:
256,192,162846,1,8,0:0:0:0:
256,192,162899,1,8,0:0:0:0:
256,192,162952,1,0,0:0:0:0:
256,192,163004,1,0,0:0:0:0:
256,192,163057,1,8,0:0:0:0:
256,192,163127,1,0,0:0:0:0:
256,192,163197,1,0,0:0:0:0:
256,192,163267,1,8,0:0:0:0:
256,192,163478,1,4,0:0:0:0:
256,192,164531,1,8,0:0:0:0:
256,192,164636,1,8,0:0:0:0:
256,192,164741,1,8,0:0:0:0:
256,192,164952,1,8,0:0:0:0:
256,192,165162,1,4,0:0:0:0:
256,192,165583,1,4,0:0:0:0:
256,192,166004,1,4,0:0:0:0:
256,192,166425,1,12,0:0:0:0:
256,192,166846,1,4,0:0:0:0:
256,192,167057,1,0,0:0:0:0:
256,192,167267,1,12,0:0:0:0:
256,192,167478,1,8,0:0:0:0:
256,192,167583,1,8,0:0:0:0:
256,192,167688,1,4,0:0:0:0:
256,192,167899,1,0,0:0:0:0:
256,192,168004,1,0,0:0:0:0:
256,192,168110,1,8,0:0:0:0:
256,192,168162,1,8,0:0:0:0:
256,192,168215,1,0,0:0:0:0:
256,192,168267,1,0,0:0:0:0:
256,192,168320,1,8,0:0:0:0:
256,192,168373,1,8,0:0:0:0:
256,192,168425,1,8,0:0:0:0:
256,192,168478,1,8,0:0:0:0:
256,192,168531,1,0,0:0:0:0:
256,192,168688,1,0,0:0:0:0:
256,192,168741,1,8,0:0:0:0:
256,192,168846,1,0,0:0:0:0:
256,192,168952,1,0,0:0:0:0:
256,192,169057,1,8,0:0:0:0:
256,192,169110,1,8,0:0:0:0:
256,192,169162,1,0,0:0:0:0:
256,192,169215,1,8,0:0:0:0:
256,192,169267,1,0,0:0:0:0:
256,192,169320,1,0,0:0:0:0:
256,192,169373,1,8,0:0:0:0:
256,192,169478,1,0,0:0:0:0:
256,192,169531,1,0,0:0:0:0:
256,192,169583,1,0,0:0:0:0:
256,192,169688,1,8,0:0:0:0:
256,192,169794,1,0,0:0:0:0:
256,192,169846,1,0,0:0:0:0:
256,192,169899,1,0,0:0:0:0:
256,192,169952,1,0,0:0:0:0:
256,192,170004,1,8,0:0:0:0:
256,192,170110,1,0,0:0:0:0:
256,192,170162,1,8,0:0:0:0:
256,192,170215,1,0,0:0:0:0:
256,192,170320,1,8,0:0:0:0:
256,192,170373,1,8,0:0:0:0:
256,192,170425,1,0,0:0:0:0:
256,192,170478,1,0,0:0:0:0:
256,192,170531,1,0,0:0:0:0:
256,192,170583,1,0,0:0:0:0:
256,192,170636,1,8,0:0:0:0:
256,192,170688,1,8,0:0:0:0:
256,192,170741,1,0,0:0:0:0:
256,192,170794,1,8,0:0:0:0:
256,192,170846,1,0,0:0:0:0:
256,192,170899,1,0,0:0:0:0:
256,192,170952,1,8,0:0:0:0:
256,192,171004,1,0,0:0:0:0:
256,192,171057,1,8,0:0:0:0:
256,192,171110,1,8,0:0:0:0:
256,192,171162,1,0,0:0:0:0:
256,192,171215,1,0,0:0:0:0:
256,192,171267,1,8,0:0:0:0:
256,192,171320,1,0,0:0:0:0:
256,192,171373,1,0,0:0:0:0:
256,192,171425,1,0,0:0:0:0:
256,192,171478,1,8,0:0:0:0:
256,192,171899,1,0,0:0:0:0:
256,192,172110,1,8,0:0:0:0:
256,192,172320,1,0,0:0:0:0:
256,192,172425,1,0,0:0:0:0:
256,192,172478,1,0,0:0:0:0:
256,192,172531,1,8,0:0:0:0:
256,192,172636,1,8,0:0:0:0:
256,192,172741,1,0,0:0:0:0:
256,192,172952,1,8,0:0:0:0:
256,192,173057,1,0,0:0:0:0:
256,192,173110,1,0,0:0:0:0:
256,192,173162,1,0,0:0:0:0:
256,192,173267,1,8,0:0:0:0:
256,192,173320,1,8,0:0:0:0:
256,192,173373,1,0,0:0:0:0:
256,192,173478,1,8,0:0:0:0:
256,192,173583,1,0,0:0:0:0:
256,192,173794,1,8,0:0:0:0:
256,192,174004,1,0,0:0:0:0:
256,192,174110,1,0,0:0:0:0:
256,192,174162,1,0,0:0:0:0:
256,192,174215,1,8,0:0:0:0:
256,192,174320,1,8,0:0:0:0:
256,192,174425,1,0,0:0:0:0:
256,192,174531,1,0,0:0:0:0:
256,192,174636,1,8,0:0:0:0:
256,192,174741,1,0,0:0:0:0:
256,192,174794,1,8,0:0:0:0:
256,192,174846,1,0,0:0:0:0:
256,192,174952,1,8,0:0:0:0:
256,192,175057,1,0,0:0:0:0:
256,192,175110,1,0,0:0:0:0:
256,192,175162,1,8,0:0:0:0:
256,192,175215,1,8,0:0:0:0:
256,192,175267,1,0,0:0:0:0:
256,192,175425,1,0,0:0:0:0:
256,192,175478,1,8,0:0:0:0:
256,192,175583,1,0,0:0:0:0:
256,192,175688,1,8,0:0:0:0:
256,192,175741,1,8,0:0:0:0:
256,192,175794,1,0,0:0:0:0:
256,192,175846,1,0,0:0:0:0:
256,192,175899,1,8,0:0:0:0:
256,192,176004,1,8,0:0:0:0:
256,192,176110,1,0,0:0:0:0:
256,192,176215,1,0,0:0:0:0:
256,192,176267,1,0,0:0:0:0:
256,192,176320,1,8,0:0:0:0:
256,192,176425,1,8,0:0:0:0:
256,192,176531,1,0,0:0:0:0:
256,192,176583,1,8,0:0:0:0:
256,192,176636,1,0,0:0:0:0:
256,192,176688,1,0,0:0:0:0:
256,192,176741,1,8,0:0:0:0:
256,192,176846,1,8,0:0:0:0:
256,192,176952,1,0,0:0:0:0:
256,192,177110,1,8,0:0:0:0:
256,192,177162,1,0,0:0:0:0:
256,192,177267,1,8,0:0:0:0:
256,192,177373,1,0,0:0:0:0:
256,192,177425,1,0,0:0:0:0:
256,192,177478,1,8,0:0:0:0:
256,192,177531,1,0,0:0:0:0:
256,192,177583,1,8,0:0:0:0:
256,192,177636,1,8,0:0:0:0:
256,192,177688,1,0,0:0:0:0:
256,192,177741,1,0,0:0:0:0:
256,192,177794,1,8,0:0:0:0:
256,192,177899,1,0,0:0:0:0:
256,192,177952,1,0,0:0:0:0:
256,192,178004,1,0,0:0:0:0:
256,192,178110,1,8,0:0:0:0:
256,192,178215,1,0,0:0:0:0:
256,192,178267,1,8,0:0:0:0:
256,192,178320,1,0,0:0:0:0:
256,192,178425,1,8,0:0:0:0:
256,192,178531,1,8,0:0:0:0:
256,192,178636,1,0,0:0:0:0:
256,192,178846,1,8,0:0:0:0:
256,192,179057,1,0,0:0:0:0:
256,192,179162,1,0,0:0:0:0:
256,192,179215,1,0,0:0:0:0:
256,192,179267,1,8,0:0:0:0:
256,192,179373,1,8,0:0:0:0:
256,192,179478,1,0,0:0:0:0:
256,192,179583,1,0,0:0:0:0:
256,192,179688,1,8,0:0:0:0:
256,192,179794,1,0,0:0:0:0:
256,192,179846,1,8,0:0:0:0:
256,192,179899,1,0,0:0:0:0:
256,192,180004,1,8,0:0:0:0:
256,192,180057,1,0,0:0:0:0:
256,192,180110,1,0,0:0:0:0:
256,192,180162,1,0,0:0:0:0:
256,192,180215,1,8,0:0:0:0:
256,192,180267,1,8,0:0:0:0:
256,192,180320,1,0,0:0:0:0:
256,192,180425,1,0,0:0:0:0:
256,192,180531,1,8,0:0:0:0:
256,192,180636,1,8,0:0:0:0:
256,192,180688,1,8,0:0:0:0:
256,192,180741,1,0,0:0:0:0:
256,192,180846,1,8,0:0:0:0:
256,192,180952,1,0,0:0:0:0:
256,192,181004,1,0,0:0:0:0:
256,192,181057,1,8,0:0:0:0:
256,192,181110,1,8,0:0:0:0:
256,192,181162,1,0,0:0:0:0:
256,192,181267,1,0,0:0:0:0:
256,192,181373,1,8,0:0:0:0:
256,192,181425,1,0,0:0:0:0:
256,192,181478,1,0,0:0:0:0:
256,192,181531,1,8,0:0:0:0:
256,192,181583,1,0,0:0:0:0:
256,192,181688,1,8,0:0:0:0:
256,192,181794,1,0,0:0:0:0:
256,192,181952,1,8,0:0:0:0:
256,192,182004,1,0,0:0:0:0:
256,192,182110,1,0,0:0:0:0:
256,192,182162,1,0,0:0:0:0:
256,192,182215,1,8,0:0:0:0:
256,192,182320,1,8,0:0:0:0:
256,192,182425,1,0,0:0:0:0:
256,192,182478,1,8,0:0:0:0:
256,192,182531,1,0,0:0:0:0:
256,192,182583,1,0,0:0:0:0:
256,192,182636,1,8,0:0:0:0:
256,192,182741,1,0,0:0:0:0:
256,192,182794,1,0,0:0:0:0:
256,192,182846,1,8,0:0:0:0:
256,192,182899,1,8,0:0:0:0:
256,192,182952,1,0,0:0:0:0:
256,192,183057,1,0,0:0:0:0:
256,192,183162,1,8,0:0:0:0:
256,192,183215,1,0,0:0:0:0:
256,192,183267,1,0,0:0:0:0:
256,192,183373,1,0,0:0:0:0:
256,192,183478,1,8,0:0:0:0:
256,192,183583,1,0,0:0:0:0:
256,192,183636,1,8,0:0:0:0:
256,192,183688,1,0,0:0:0:0:
256,192,183741,1,0,0:0:0:0:
256,192,183899,1,0,0:0:0:0:
256,192,184004,1,0,0:0:0:0:
256,192,184110,1,0,0:0:0:0:
256,192,184215,1,0,0:0:0:0:
256,192,184320,1,0,0:0:0:0:
256,192,184425,1,12,0:0:0:0:
