osu file format v14

[General]
AudioFilename: audio.mp3
AudioLeadIn: 0
PreviewTime: 78996
Countdown: 0
SampleSet: Soft
StackLeniency: 0.7
Mode: 0
LetterboxInBreaks: 0
WidescreenStoryboard: 0

[Editor]
Bookmarks: 32746,48746,64746,80746,96746,112746
DistanceSpacing: 1.6
BeatDivisor: 2
GridSize: 4
TimelineZoom: 1

[Metadata]
Title:Hanabira
TitleUnicode:花弁
Artist:AKIAKANE
ArtistUnicode:秋赤音
Creator:Seto Kousuke
Version:Normal
Source:
Tags:Noffy Ayyri eiri- ぼろぼろな生き様。 BoroBoro na Ikizama aki akane Nanou
BeatmapID:1596439
BeatmapSetID:759039

[Difficulty]
HPDrainRate:4
CircleSize:3
OverallDifficulty:4
ApproachRate:4.5
SliderMultiplier:1
SliderTickRate:1

[Events]
//Background and Video events
0,0,"Eyrie.jpg",0,0
//Break Periods
//Storyboard Layer 0 (Background)
//Storyboard Layer 1 (Fail)
//Storyboard Layer 2 (Pass)
//Storyboard Layer 3 (Foreground)
//Storyboard Sound Samples

[TimingPoints]
746,500,4,2,1,60,1,0
14996,-100,4,2,1,60,0,0
32746,-100,4,2,2,60,0,0
62996,-100,4,2,1,60,0,0
64746,-100,4,2,1,60,0,0
80746,-100,4,2,1,70,0,1
112746,-100,4,2,1,45,0,0

[Colours]
Combo1 : 95,124,158
Combo2 : 218,109,70
Combo3 : 104,140,114
Combo4 : 171,130,80
SliderBorder : 255,255,153

[HitObjects]
400,96,14996,6,0,P|412:128|408:160,2,50,8|8|2,0:0|0:0|0:0,0:0:0:0:
327,61,15746,2,0,P|295:59|265:61,1,50,8|2,0:0|0:0,0:0:0:0:
196,60,16246,1,12,0:0:0:0:
48,120,16746,6,0,L|48:220,1,100,6|8,0:0|0:0,0:0:0:0:
64,300,17496,1,2,0:0:0:0:
64,300,17746,2,0,P|112:288|168:312,1,100,2|8,0:0|0:0,0:0:0:0:
212,364,18496,1,2,0:0:0:0:
368,308,18996,1,2,0:0:0:0:
368,308,19246,2,0,P|372:280|368:248,1,50,8|2,0:0|0:0,0:0:0:0:
324,192,19746,2,0,P|320:160|324:132,1,50,2|0,0:0|0:0,0:0:0:0:
364,76,20246,1,8,0:0:0:0:
208,36,20746,6,0,L|96:36,1,100,2|8,0:0|0:0,0:0:0:0:
32,60,21496,1,0,0:0:0:0:
32,60,21746,2,0,P|42:107|24:180,1,100,2|8,0:0|0:0,0:0:0:0:
8,232,22496,1,2,0:0:0:0:
168,284,22996,1,2,0:0:0:0:
168,284,23246,2,0,L|228:284,1,50,8|2,0:0|0:0,0:0:0:0:
280,232,23746,2,0,L|340:232,1,50,2|2,0:0|0:0,0:0:0:0:
392,284,24246,2,0,L|452:284,1,50,8|0,0:0|0:0,0:0:0:0:
500,228,24746,6,0,P|508:180|488:116,1,100,6|8,0:0|0:0,0:0:0:0:
456,60,25496,1,2,0:0:0:0:
456,60,25746,2,0,L|332:60,1,100,2|8,0:0|0:0,0:0:0:0:
292,16,26496,1,2,0:0:0:0:
360,160,26996,1,2,0:0:0:0:
360,160,27246,2,0,P|364:192|360:220,1,50,8|0,0:0|0:0,0:0:0:0:
292,252,27746,2,0,P|288:284|292:312,1,50,2|0,0:0|0:0,0:0:0:0:
332,368,28246,1,8,0:0:0:0:
188,308,28746,6,0,L|88:308,1,100,2|8,0:0|0:0,0:0:0:0:
20,264,29496,1,2,0:0:0:0:
20,264,29746,2,0,P|8:212|28:164,1,100,2|8,0:0|0:0,0:0:0:0:
88,124,30496,1,0,0:0:0:0:
248,124,30996,6,0,L|300:124,2,50,8|8|2,0:0|0:0|0:0,0:0:0:0:
168,120,31746,1,8,0:0:0:0:
252,256,32246,1,12,0:0:0:0:
388,172,32746,6,0,P|402:124|393:75,1,100,2|8,0:0|0:0,0:0:0:0:
328,32,33496,1,2,0:0:0:0:
328,32,33746,2,0,L|220:32,1,100,2|8,0:0|0:0,0:0:0:0:
164,80,34496,2,0,P|144:128|160:176,1,100,2|2,0:0|0:0,0:0:0:0:
216,224,35246,1,8,0:0:0:0:
480,228,36246,1,8,0:0:0:0:
404,88,36746,6,0,L|296:88,1,100,2|8,0:0|0:0,0:0:0:0:
228,120,37496,1,2,0:0:0:0:
228,120,37746,2,0,L|160:120,1,50,2|2,0:0|0:0,0:0:0:0:
100,144,38246,1,8,0:0:0:0:
100,144,38496,2,0,P|108:192|84:256,1,100,2|2,0:0|0:0,0:0:0:0:
40,300,39246,1,8,0:0:0:0:
300,304,40246,1,8,0:0:0:0:
436,220,40746,6,0,L|436:116,1,100,2|8,0:0|0:0,0:0:0:0:
368,76,41496,1,2,0:0:0:0:
368,76,41746,2,0,P|313:84|248:72,1,100,2|8,0:0|0:0,0:0:0:0:
196,44,42496,2,0,L|92:44,1,100,2|2,0:0|0:0,0:0:0:0:
16,44,43246,1,8,0:0:0:0:
12,304,44246,1,8,0:0:0:0:
164,356,44746,6,0,L|272:356,1,100,2|8,0:0|0:0,0:0:0:0:
336,320,45496,1,2,0:0:0:0:
336,320,45746,2,0,P|352:272|332:216,1,100,2|8,0:0|0:0,0:0:0:0:
280,172,46496,2,0,P|264:124|284:68,1,100,2|2,0:0|0:0,0:0:0:0:
344,32,47246,2,0,L|460:32,1,100,8|2,0:0|0:0,0:0:0:0:
496,92,47996,1,8,0:0:0:0:
448,156,48246,2,0,L|448:220,1,50,8|2,0:0|0:0,0:0:0:0:
496,272,48746,6,0,P|448:288|396:268,1,100,2|8,0:0|0:0,0:0:0:0:
368,200,49496,1,2,0:0:0:0:
368,200,49746,2,0,L|260:200,1,100,2|8,0:0|0:0,0:0:0:0:
204,248,50496,2,0,P|188:200|208:148,1,100,2|2,0:0|0:0,0:0:0:0:
276,120,51246,1,8,0:0:0:0:
276,120,51496,2,0,L|384:120,1,100,2|2,0:0|0:0,0:0:0:0:
372,40,52246,1,8,0:0:0:0:
372,40,52496,6,0,L|264:40,1,100,2|2,0:0|0:0,0:0:0:0:
204,84,53246,1,8,0:0:0:0:
204,84,53496,2,0,P|156:96|92:80,1,100,2|2,0:0|0:0,0:0:0:0:
40,44,54246,1,8,0:0:0:0:
40,44,54496,2,0,P|52:92|36:156,1,100,2|2,0:0|0:0,0:0:0:0:
12,216,55246,1,8,0:0:0:0:
12,216,55496,2,0,L|12:328,1,100,2|8,0:0|0:0,0:0:0:0:
68,376,56246,2,0,L|140:376,1,50,8|2,0:0|0:0,0:0:0:0:
180,324,56746,6,0,P|208:321|240:324,1,50,2|2,0:0|0:0,0:0:0:0:
304,372,57246,1,8,0:0:0:0:
304,372,57496,2,0,L|412:372,1,100,2|2,0:0|0:0,0:0:0:0:
460,316,58246,1,8,0:0:0:0:
460,316,58496,2,0,P|440:264|460:208,1,100,2|2,0:0|0:0,0:0:0:0:
488,152,59246,1,8,0:0:0:0:
488,152,59496,2,0,P|498:96|468:45,1,100,2|2,0:0|0:0,0:0:0:0:
408,24,60246,2,0,L|348:24,1,50,8|2,0:0|0:0,0:0:0:0:
288,64,60746,6,0,P|264:68|232:64,1,50,2|2,0:0|0:0,0:0:0:0:
160,64,61246,1,8,0:0:0:0:
160,64,61496,2,0,P|176:112|156:164,1,100,2|2,0:0|0:0,0:0:0:0:
120,228,62246,2,0,L|120:284,1,50,8|2,0:0|2:0,0:0:0:0:
276,320,62996,5,8,0:0:0:0:
276,320,63246,2,0,L|344:320,1,50,8|2,0:0|0:0,0:0:0:0:
384,268,63746,2,0,L|452:268,1,50,8|2,0:0|0:0,0:0:0:0:
484,208,64246,2,0,L|484:136,1,50,8|2,0:3|0:0,0:0:0:0:
476,80,64746,6,0,P|432:64|376:80,1,100,4|8,0:0|0:0,0:0:0:0:
320,128,65496,1,0,0:0:0:0:
320,128,65746,2,0,L|252:128,1,50,2|2,0:0|0:0,0:0:0:0:
192,124,66246,1,8,0:0:0:0:
132,68,66496,2,0,P|112:112|124:168,1,100,2|2,0:0|0:0,0:0:0:0:
188,208,67246,1,8,0:0:0:0:
348,208,67746,2,0,L|408:208,2,50,2|0|8,0:0|0:0|0:0,0:0:0:0:
268,208,68496,1,0,0:0:0:0:
232,280,68746,6,0,P|237:330|277:368,1,100,2|8,0:0|0:0,0:0:0:0:
352,364,69496,1,0,0:0:0:0:
352,364,69746,2,0,L|408:364,1,50,2|2,0:0|0:0,0:0:0:0:
460,312,70246,1,8,0:0:0:0:
460,312,70496,2,0,P|444:264|460:216,1,100,2|2,0:0|0:0,0:0:0:0:
496,148,71246,2,0,L|496:80,1,50,8|2,0:0|0:0,0:0:0:0:
436,44,71746,2,0,P|388:56|340:44,1,100,2|8,0:0|0:0,0:0:0:0:
180,20,72746,6,0,L|180:124,1,100,2|8,0:0|0:0,0:0:0:0:
160,204,73496,1,0,0:0:0:0:
160,204,73746,2,0,L|110:204,1,50,2|2,0:0|0:0,0:0:0:0:
88,284,74246,1,8,0:0:0:0:
88,284,74496,2,0,L|204:284,1,100,2|2,0:0|0:0,0:0:0:0:
236,348,75246,2,0,L|288:348,1,50,8|2,0:0|0:0,0:0:0:0:
356,384,75746,6,0,P|364:340|320:276,1,100,2|8,0:0|0:0,0:0:0:0:
268,264,76496,1,0,0:0:0:0:
268,264,76746,2,0,L|268:180,1,50,2|0,0:0|0:0,0:0:0:0:
268,136,77246,1,8,0:0:0:0:
424,168,77746,2,0,L|488:168,2,50,2|2|8,0:0|0:0|0:0,0:0:0:0:
344,172,78496,1,4,0:0:0:0:
252,40,78996,6,0,L|184:40,2,50,12|12|2,0:0|0:0|0:0,0:0:0:0:
332,40,79746,1,12,0:0:0:0:
484,96,80246,1,12,0:0:0:0:
412,240,80746,6,0,L|308:240,1,100,4|8,0:0|0:0,0:0:0:0:
232,244,81496,1,0,0:0:0:0:
168,292,81746,2,0,P|152:244|172:192,1,100,2|8,0:0|0:0,0:0:0:0:
240,164,82496,2,0,L|340:164,1,100,2|2,0:0|0:0,0:0:0:0:
412,128,83246,2,0,P|415:101|404:60,1,50,8|2,0:0|0:0,0:0:0:0:
340,40,83746,2,0,L|220:40,1,100,2|8,0:0|0:0,0:0:0:0:
92,28,84746,6,0,P|72:76|88:132,1,100,2|8,0:0|0:0,0:0:0:0:
132,192,85496,1,0,0:0:0:0:
132,192,85746,2,0,L|132:316,1,100,2|8,0:0|0:0,0:0:0:0:
212,292,86496,2,0,L|212:192,1,100,2|2,0:0|0:0,0:0:0:0:
176,120,87246,1,8,0:0:0:0:
304,24,87746,1,2,0:0:0:0:
432,120,88246,1,8,0:0:0:0:
304,24,88746,6,0,L|168:24,1,100,4|8,0:0|0:0,0:0:0:0:
144,80,89496,1,2,0:0:0:0:
144,80,89746,2,0,P|160:128|148:176,1,100,2|8,0:0|0:0,0:0:0:0:
104,240,90496,2,0,L|-4:240,1,100,2|2,0:0|0:0,0:0:0:0:
4,320,91246,2,0,L|104:320,1,100,8|2,0:0|0:0,0:0:0:0:
256,272,92246,1,8,0:0:0:0:
407,322,92746,6,0,P|419:274|399:222,1,100,2|8,0:0|0:0,0:0:0:0:
348,168,93496,1,0,0:0:0:0:
348,168,93746,2,0,L|244:168,1,100,2|8,0:0|0:0,0:0:0:0:
248,88,94496,2,0,L|352:88,1,100,2|2,0:0|0:0,0:0:0:0:
416,128,95246,1,8,0:0:0:0:
480,276,95746,1,2,0:0:0:0:
352,372,96246,1,8,0:0:0:0:
480,276,96746,6,0,L|480:164,1,100,4|8,0:0|0:0,0:0:0:0:
444,104,97496,1,2,0:0:0:0:
444,104,97746,2,0,P|396:113|328:92,1,100,2|8,0:0|0:0,0:0:0:0:
272,72,98496,2,0,P|224:62|156:84,1,100,2|2,0:0|0:0,0:0:0:0:
120,132,99246,2,0,L|120:192,1,50,8|2,0:0|0:0,0:0:0:0:
73,246,99746,2,0,P|121:262|173:242,1,100,2|8,0:0|0:0,0:0:0:0:
308,172,100746,6,0,L|436:172,1,100,2|8,0:0|0:0,0:0:0:0:
412,256,101496,1,0,0:0:0:0:
412,256,101746,2,0,L|272:256,1,100,2|8,0:0|0:0,0:0:0:0:
244,216,102496,2,0,P|232:256|256:312,1,100,2|2,0:0|0:0,0:0:0:0:
328,336,103246,2,0,L|380:336,1,50,8|2,0:0|0:0,0:0:0:0:
456,336,103746,1,2,0:0:0:0:
480,176,104246,1,8,0:0:0:0:
340,100,104746,6,0,L|240:100,1,100,4|8,0:0|0:0,0:0:0:0:
172,56,105496,1,2,0:0:0:0:
172,56,105746,2,0,P|156:104|176:152,1,100,2|8,0:0|0:0,0:0:0:0:
248,180,106496,2,0,L|376:180,1,100,2|2,0:0|0:0,0:0:0:0:
428,188,107246,1,8,0:0:0:0:
468,256,107496,2,0,L|468:308,1,50,2|2,0:0|0:0,0:0:0:0:
408,356,107996,1,2,0:0:0:0:
408,356,108246,2,0,L|328:356,1,50,8|2,0:0|0:0,0:0:0:0:
296,308,108746,6,0,L|164:308,1,100,2|8,0:0|0:0,0:0:0:0:
128,352,109496,1,0,0:0:0:0:
128,352,109746,2,0,P|113:302|144:248,1,100,2|8,0:0|0:0,0:0:0:0:
204,228,110496,2,0,L|204:88,1,100,2|0,0:0|0:0,0:0:0:0:
200,48,111246,1,10,0:0:0:0:
324,148,111746,2,0,L|424:148,1,100,8|8,0:0|0:0,0:0:0:0:
428,308,112746,6,0,L|328:308,1,100,0|0,0:0|0:0,0:0:0:0:
168,308,113746,2,0,L|68:308,1,100,0|0,0:0|0:0,0:0:0:0:
68,148,114746,2,0,L|168:148,1,100,0|0,0:0|0:0,0:0:0:0:
324,148,115746,5,0,0:0:0:0:
