osu file format v14

[General]
AudioFilename: audio.mp3
AudioLeadIn: 0
PreviewTime: 123365
Countdown: 0
SampleSet: Soft
StackLeniency: 0.7
Mode: 3
LetterboxInBreaks: 0
SpecialStyle: 0
WidescreenStoryboard: 1

[Editor]
DistanceSpacing: 0.5
BeatDivisor: 4
GridSize: 4
TimelineZoom: 1.4

[Metadata]
Title:FIRST
TitleUnicode:FIRST
Artist:AKIAKANE
ArtistUnicode:秋赤音
Creator:Mirsaaa
Version:Hard // Defeatist
Source:
Tags:japanese jrock j-rock rock cover female vocal cillia aki akane Utaite 歌い手 Screaming 絶叫シンデレラ Zekkyou Cinderella SQUARE niki Color
BeatmapID:4031585
BeatmapSetID:1945884

[Difficulty]
HPDrainRate:7.5
CircleSize:4
OverallDifficulty:7.8
ApproachRate:5
SliderMultiplier:1.4
SliderTickRate:1

[Events]
//Background and Video events
0,0,"BEGEH.jpg",0,0
//Break Periods
//Storyboard Layer 0 (Background)
//Storyboard Layer 1 (Fail)
//Storyboard Layer 2 (Pass)
//Storyboard Layer 3 (Foreground)
//Storyboard Layer 4 (Overlay)
//Storyboard Sound Samples
Sample,81365,0,"Hat open.wav",40
Sample,81681,0,"Hat open.wav",40
Sample,86417,0,"Hat open.wav",40
Sample,86733,0,"Hat open.wav",40
Sample,90207,0,"Hat open.wav",40
Sample,90523,0,"Hat open.wav",40
Sample,90838,0,"Hat open.wav",40
Sample,91154,0,"Hat open.wav",40
Sample,91470,0,"Hat open.wav",40
Sample,91786,0,"Hat open.wav",40
Sample,92102,0,"Hat open.wav",40
Sample,92417,0,"Hat open.wav",40
Sample,92733,0,"Hat open.wav",40
Sample,93049,0,"Hat open.wav",40
Sample,93365,0,"Hat open.wav",40
Sample,131891,0,"Hat open.wav",40
Sample,132207,0,"Hat open.wav",40
Sample,136944,0,"Hat open.wav",40
Sample,137260,0,"Hat open.wav",40
Sample,140733,0,"Hat open.wav",40
Sample,141049,0,"Hat open.wav",40
Sample,141365,0,"Hat open.wav",40
Sample,141681,0,"Hat open.wav",40
Sample,141996,0,"Hat open.wav",40
Sample,142312,0,"Hat open.wav",40
Sample,142628,0,"Hat open.wav",40
Sample,142944,0,"Hat open.wav",40
Sample,143260,0,"Hat open.wav",40
Sample,143575,0,"Hat open.wav",40
Sample,143891,0,"Hat open.wav",40
Sample,162207,0,"Hat open.wav",40
Sample,162523,0,"Hat open.wav",40
Sample,167260,0,"Hat open.wav",40
Sample,167575,0,"Hat open.wav",40
Sample,171049,0,"Hat open.wav",40
Sample,171365,0,"Hat open.wav",40
Sample,171681,0,"Hat open.wav",40
Sample,171996,0,"Hat open.wav",40
Sample,172312,0,"Hat open.wav",40
Sample,172628,0,"Hat open.wav",40
Sample,172944,0,"Hat open.wav",40
Sample,173260,0,"Hat open.wav",40
Sample,173575,0,"Hat open.wav",40
Sample,173891,0,"Hat open.wav",40
Sample,174207,0,"Hat open.wav",40

[TimingPoints]
5260,315.789473684211,4,2,1,10,1,0
17891,-100,4,2,1,40,0,0
73312,-100,4,2,1,40,0,1
93681,-100,4,2,1,40,0,0
123838,-100,4,2,1,40,0,1
144207,-100,4,2,1,40,0,0
154154,-100,4,2,1,40,0,1
174523,-100,4,2,1,40,0,0

[HitObjects]
192,192,5260,1,0,0:0:0:30:long kick.wav
320,192,5260,1,0,0:0:0:30:long kick.wav
320,192,7786,1,0,0:0:0:0:
192,192,7944,128,0,8102:0:0:0:0:
192,192,8260,128,0,8417:0:0:0:0:
64,192,9049,1,0,0:0:0:0:
320,192,9207,128,0,9365:0:0:0:0:
320,192,9523,128,0,9681:0:0:0:0:
192,192,9996,128,0,10312:0:0:0:0:
448,192,10312,1,0,0:0:0:0:
64,192,10470,128,0,10628:0:0:0:0:
64,192,10786,128,0,10944:0:0:0:0:
320,192,11260,128,0,11575:0:0:0:0:
192,192,11575,1,0,0:0:0:0:
448,192,11733,128,0,11891:0:0:0:0:
448,192,12049,128,0,12207:0:0:0:0:
64,192,12523,128,0,12838:0:0:0:0:
320,192,12838,1,0,0:0:0:0:
192,192,12996,128,0,13154:0:0:0:0:
192,192,13312,128,0,13470:0:0:0:0:
64,192,14102,1,0,0:0:0:0:
320,192,14260,128,0,14417:0:0:0:0:
320,192,14575,128,0,14733:0:0:0:0:
192,192,15049,128,0,15365:0:0:0:0:
448,192,15365,1,0,0:0:0:0:
64,192,15523,128,0,15681:0:0:0:0:
64,192,15838,128,0,15996:0:0:0:0:
320,192,16312,128,0,16628:0:0:0:0:
192,192,16628,1,0,0:0:0:0:
448,192,16786,128,0,16944:0:0:0:0:
448,192,17102,128,0,17260:0:0:0:0:
320,192,17417,1,0,0:0:0:10:Ride.wav
192,192,17575,1,0,0:0:0:10:Ride.wav
320,192,17733,1,0,0:0:0:10:Ride.wav
64,192,17891,128,2,18049:0:0:0:0:
448,192,17891,1,0,0:0:0:40:C_Short2.wav
320,192,18049,128,0,18207:0:0:0:0:
192,192,18207,128,0,18365:0:0:0:0:
448,192,18365,128,0,18681:0:0:0:0:
64,192,18681,128,0,18996:0:0:0:0:
320,192,18996,128,0,19312:0:0:0:0:
192,192,19312,128,0,19628:0:0:0:0:
64,192,19628,128,0,19944:0:0:0:0:
448,192,19944,128,0,20260:0:0:0:0:
192,192,20260,128,0,20417:0:0:0:0:
320,192,20417,128,0,20575:0:0:0:0:
64,192,20575,128,0,20733:0:0:0:0:
448,192,20733,128,0,20891:0:0:0:0:
320,192,20891,128,0,21207:0:0:0:0:
64,192,21207,128,0,21523:0:0:0:0:
192,192,21523,128,0,21838:0:0:0:0:
320,192,21838,128,0,22154:0:0:0:0:
448,192,22154,128,0,22786:0:0:0:0:
64,192,22312,1,0,0:0:0:0:
192,192,22470,1,0,0:0:0:20:Ride.wav
320,192,22628,1,0,0:0:0:20:Ride.wav
64,192,22786,1,2,0:0:0:0:
192,192,22786,1,0,0:0:0:0:
320,192,22944,128,2,23102:0:0:0:0:
448,192,22944,1,0,0:0:0:40:C_Short2.wav
64,192,23102,128,0,23260:0:0:0:0:
448,192,23260,128,0,23417:0:0:0:0:
192,192,23417,128,0,23733:0:0:0:0:
320,192,23733,128,0,24049:0:0:0:0:
64,192,24049,128,0,24365:0:0:0:0:
448,192,24365,128,0,24681:0:0:0:0:
320,192,24681,128,0,24996:0:0:0:0:
192,192,24996,128,0,25312:0:0:0:0:
448,192,25312,128,0,25470:0:0:0:0:
64,192,25470,128,0,25628:0:0:0:0:
320,192,25628,128,0,25786:0:0:0:0:
192,192,25786,128,0,25944:0:0:0:0:
448,192,25944,128,0,26260:0:0:0:0:
320,192,26260,128,0,26575:0:0:0:0:
64,192,26575,128,0,26891:0:0:0:0:
192,192,26891,128,0,27207:0:0:0:20:Ride.wav
448,192,27207,128,0,27365:0:0:0:0:
64,192,27365,128,0,27523:0:0:0:0:
320,192,27523,128,0,27681:0:0:0:0:
192,192,27681,128,0,27838:0:0:0:20:Ride.wav
64,192,27838,128,0,27996:0:0:0:0:
320,192,27996,1,2,0:0:0:0:
448,192,27996,1,4,0:0:0:0:
192,192,28154,1,0,0:0:0:0:
448,192,28312,1,0,0:0:0:0:
64,192,28470,128,0,28786:0:0:0:0:
320,192,28786,128,0,29102:0:0:0:0:
192,192,29102,128,0,29417:0:0:0:0:
448,192,29417,128,0,29733:0:0:0:0:
320,192,29733,128,0,30049:0:0:0:0:
64,192,30049,128,0,30365:0:0:0:0:
448,192,30365,1,0,0:0:0:0:
192,192,30523,1,0,0:0:0:0:
320,192,30681,1,0,0:0:0:0:
64,192,30838,1,0,0:0:0:0:
192,192,30996,128,0,31312:0:0:0:0:
448,192,31312,128,0,31628:0:0:0:0:
64,192,31628,128,0,31944:0:0:0:0:
320,192,31944,128,0,32260:0:0:0:20:Ride.wav
192,192,32260,128,0,32733:0:0:0:0:
448,192,32733,1,0,0:0:0:0:
64,192,32891,1,2,0:0:0:0:
192,192,32891,1,0,0:0:0:0:
320,192,33049,1,2,0:0:0:0:
448,192,33049,1,0,0:0:0:40:C_Short2.wav
64,192,33207,128,0,33523:0:0:0:0:
320,192,33523,128,0,33838:0:0:0:0:
448,192,33838,128,0,34154:0:0:0:0:
192,192,34154,128,0,34470:0:0:0:0:
64,192,34470,128,0,34786:0:0:0:0:
320,192,34786,128,0,35102:0:0:0:0:
192,192,35102,128,0,35417:0:0:0:0:
448,192,35417,1,0,0:0:0:0:
64,192,35575,128,0,35891:0:0:0:0:
320,192,35891,1,0,0:0:0:0:
448,192,36049,128,0,36365:0:0:0:0:
192,192,36365,128,0,36681:0:0:0:0:
320,192,36681,128,0,36996:0:0:0:0:
64,192,36996,128,0,37312:0:0:0:0:
448,192,37312,128,0,37628:0:0:0:0:
192,192,37628,128,0,37944:0:0:0:0:
320,192,37944,1,2,0:0:0:0:
448,192,37944,1,0,0:0:0:0:
64,192,38102,1,2,0:0:0:0:
192,192,38102,1,0,0:0:0:40:C_Short2.wav
320,192,38733,128,0,39049:0:0:0:0:
192,192,39049,128,0,39523:0:0:0:0:
448,192,39523,128,0,39996:0:0:0:0:
64,192,39996,128,0,40312:0:0:0:0:
320,192,40312,128,0,40628:0:0:0:0:
192,192,40628,128,0,40786:0:0:0:0:
448,192,40786,128,0,40944:0:0:0:0:
192,192,40944,128,0,41102:0:0:0:0:
448,192,41102,128,0,41260:0:0:0:0:
320,192,41260,128,0,41417:0:0:0:0:
64,192,41417,128,0,41575:0:0:0:0:
320,192,41575,128,0,41733:0:0:0:0:
64,192,41733,128,0,41891:0:0:0:0:
448,192,41891,1,8,0:0:0:0:
320,192,41970,1,8,0:0:0:0:
192,192,42049,1,8,0:0:0:0:
64,192,42128,1,8,0:0:0:0:
448,192,42207,1,8,0:0:0:0:
320,192,42286,1,8,0:0:0:0:
192,192,42365,1,8,0:0:0:0:
64,192,42444,1,8,0:0:0:0:
320,192,42523,1,8,0:0:0:0:
448,192,42602,1,8,0:0:0:0:
64,192,42681,1,8,0:0:0:0:
192,192,42760,1,8,0:0:0:0:
320,192,42838,1,2,0:0:0:0:
448,192,42838,1,0,0:0:0:0:
64,192,43154,1,2,0:0:0:0:
448,192,43154,1,4,0:0:0:0:
320,192,43312,1,2,0:0:0:0:
64,192,43470,1,8,0:0:0:0:
192,192,43470,1,0,0:0:0:0:
448,192,43628,128,0,43944:0:0:0:0:
192,192,43786,1,0,0:0:0:0:
64,192,43944,128,0,44260:0:0:0:0:
320,192,44102,1,8,0:0:0:0:
192,192,44260,128,0,44575:0:0:0:0:
448,192,44417,1,0,0:0:0:0:
320,192,44575,128,0,44891:0:0:0:0:
64,192,44733,1,8,0:0:0:0:
448,192,44891,128,0,45207:0:0:0:0:
192,192,45049,1,0,0:0:0:0:
64,192,45207,1,2,0:0:0:0:
320,192,45365,1,8,0:0:0:0:
448,192,45365,1,0,0:0:0:0:
192,192,45523,1,2,0:0:0:0:
64,192,45681,1,2,0:0:0:0:
448,192,45681,1,0,0:0:0:0:
320,192,45838,1,2,0:0:0:0:
64,192,45996,1,8,0:0:0:0:
192,192,45996,1,0,0:0:0:0:
448,192,46154,128,0,46470:0:0:0:0:
192,192,46312,1,0,0:0:0:0:
320,192,46470,1,0,0:0:0:0:
64,192,46628,1,8,0:0:0:0:
448,192,46628,1,0,0:0:0:0:
192,192,46786,128,0,47102:0:0:0:0:
320,192,46944,1,0,0:0:0:0:
64,192,47102,128,0,47417:0:0:0:30:Ride.wav
448,192,47260,1,8,0:0:0:0:
320,192,47417,128,2,47733:0:0:0:0:
192,192,47575,1,2,0:0:0:0:
448,192,47733,1,2,0:0:0:0:
64,192,47891,1,8,0:0:0:0:
320,192,47891,1,0,0:0:0:40:Hat open.wav
64,192,48207,1,4,0:0:0:0:
448,192,48207,1,2,0:0:0:0:
192,192,48365,1,2,0:0:0:0:
320,192,48523,1,8,0:0:0:0:
448,192,48523,1,0,0:0:0:0:
64,192,48681,128,0,48996:0:0:0:0:
320,192,48838,1,0,0:0:0:0:
448,192,48996,128,0,49312:0:0:0:0:
192,192,49154,1,8,0:0:0:0:
320,192,49312,128,0,49628:0:0:0:0:
64,192,49470,1,0,0:0:0:0:
192,192,49628,128,0,49944:0:0:0:0:
448,192,49786,1,8,0:0:0:0:
64,192,49944,128,0,50260:0:0:0:0:
320,192,50102,1,0,0:0:0:0:
192,192,50260,1,2,0:0:0:0:
64,192,50417,1,8,0:0:0:0:
448,192,50417,1,0,0:0:0:0:
320,192,50575,1,2,0:0:0:0:
64,192,50733,1,2,0:0:0:0:
192,192,50733,1,0,0:0:0:0:
320,192,50891,1,2,0:0:0:0:
64,192,51049,1,8,0:0:0:0:
448,192,51049,1,0,0:0:0:0:
192,192,51207,128,0,51523:0:0:0:0:
320,192,51365,1,0,0:0:0:0:
448,192,51523,128,0,51838:0:0:0:0:
64,192,51681,1,8,0:0:0:0:
320,192,51838,128,0,52154:0:0:0:0:
192,192,51996,1,0,0:0:0:0:
64,192,52154,128,2,52470:0:0:0:0:
448,192,52312,1,8,0:0:0:0:
192,192,52470,128,0,52786:0:0:0:0:
320,192,52628,1,2,0:0:0:0:
448,192,52786,1,2,0:0:0:0:
64,192,52944,1,8,0:0:0:0:
192,192,52944,1,0,0:0:0:40:Hat open.wav
320,192,53181,1,8,0:0:0:0:
64,192,53260,1,2,0:0:0:0:
448,192,53260,1,4,0:0:0:0:
192,192,53417,1,2,0:0:0:0:
320,192,53575,1,8,0:0:0:0:
448,192,53575,1,0,0:0:0:0:
64,192,53733,128,0,54049:0:0:0:0:
192,192,53891,1,0,0:0:0:0:
320,192,54049,128,0,54365:0:0:0:0:
448,192,54207,1,8,0:0:0:0:
192,192,54365,128,0,54681:0:0:0:0:
64,192,54523,1,0,0:0:0:0:
448,192,54681,128,0,54996:0:0:0:0:
320,192,54838,1,8,0:0:0:0:
64,192,54996,128,0,55312:0:0:0:0:
192,192,55154,1,0,0:0:0:0:
448,192,55312,1,2,0:0:0:0:
192,192,55470,1,8,0:0:0:0:
320,192,55470,1,0,0:0:0:0:
64,192,55628,1,2,0:0:0:0:
320,192,55786,1,2,0:0:0:0:
448,192,55786,1,0,0:0:0:0:
192,192,55944,1,2,0:0:0:0:
64,192,56102,1,8,0:0:0:0:
448,192,56102,1,0,0:0:0:0:
320,192,56260,128,0,56575:0:0:0:0:
192,192,56417,1,0,0:0:0:0:
64,192,56575,128,0,56891:0:0:0:0:
448,192,56733,1,8,0:0:0:0:
192,192,56891,128,0,57207:0:0:0:0:
320,192,57049,1,0,0:0:0:0:
448,192,57207,128,0,57523:0:0:0:30:Ride.wav
64,192,57365,1,8,0:0:0:0:
320,192,57523,128,0,57838:0:0:0:0:
192,192,57681,1,2,0:0:0:0:
64,192,57838,1,2,0:0:0:0:
320,192,57996,1,8,0:0:0:0:
448,192,57996,1,0,0:0:0:40:Hat open.wav
192,192,58154,1,2,0:0:0:0:
64,192,58312,1,2,0:0:0:0:
448,192,58312,1,4,0:0:0:0:
320,192,58470,1,2,0:0:0:0:
64,192,58628,1,8,0:0:0:0:
192,192,58628,1,0,0:0:0:0:
448,192,58786,128,0,59102:0:0:0:0:
192,192,58944,1,0,0:0:0:0:
64,192,59102,128,0,59417:0:0:0:0:
320,192,59260,1,8,0:0:0:0:
192,192,59417,128,0,59733:0:0:0:0:
448,192,59575,1,0,0:0:0:0:
320,192,59733,128,0,60049:0:0:0:0:
64,192,59891,1,8,0:0:0:0:
448,192,60049,128,0,60365:0:0:0:0:
192,192,60207,1,2,0:0:0:0:
320,192,60365,1,2,0:0:0:0:
64,192,60523,1,8,0:0:0:0:
448,192,60523,1,0,0:0:0:0:
192,192,60681,1,2,0:0:0:0:
320,192,60838,128,2,61154:0:0:0:0:
448,192,60838,1,0,0:0:0:0:
64,192,60996,1,2,0:0:0:0:
192,192,61154,1,8,0:0:0:0:
448,192,61154,1,0,0:0:0:0:
320,192,61312,1,0,0:0:0:0:
64,192,61470,128,0,61786:0:0:0:0:
448,192,61628,1,0,0:0:0:0:
192,192,61786,1,8,0:0:0:0:
320,192,61786,1,0,0:0:0:0:
64,192,61944,1,2,0:0:0:0:
448,192,62102,1,10,0:0:0:0:
320,192,62181,1,8,0:0:0:0:
64,192,62260,1,8,0:0:0:0:
192,192,62338,1,8,0:0:0:0:
448,192,62417,1,10,0:0:0:0:
320,192,62496,1,8,0:0:0:0:
64,192,62575,1,8,0:0:0:0:
192,192,62654,1,8,0:0:0:0:
320,192,62733,1,2,0:0:0:0:
448,192,62733,1,0,0:0:0:40:Tom1.wav
64,192,62970,1,0,0:0:0:40:Tom2.wav
192,192,62970,1,0,0:0:0:0:
320,192,63207,1,0,0:0:0:40:Tom3.wav
448,192,63207,1,0,0:0:0:0:
64,192,63365,128,2,63681:0:0:0:0:
192,192,63365,1,4,0:0:0:0:
320,192,63681,1,0,0:0:0:0:
192,192,63838,1,2,0:0:0:0:
64,192,63996,1,8,0:0:0:0:
448,192,63996,1,0,0:0:0:0:
320,192,64154,1,0,0:0:0:0:
64,192,64312,1,2,0:0:0:0:
192,192,64312,1,0,0:0:0:40:C_Short.wav
320,192,64470,1,2,0:0:0:0:
448,192,64470,128,0,64786:0:0:0:40:C_Short.wav
192,192,64786,1,2,0:0:0:0:
64,192,64944,1,8,0:0:0:0:
448,192,64944,1,0,0:0:0:0:
320,192,65102,1,0,0:0:0:30:soft-hitclap.wav
64,192,65260,1,2,0:0:0:0:
192,192,65260,1,0,0:0:0:40:C_Short2.wav
192,192,65496,1,2,0:0:0:0:
320,192,65496,1,0,0:0:0:40:C_Short2.wav
320,192,65733,1,8,0:0:0:0:
448,192,65733,1,0,0:0:0:0:
64,192,65891,1,2,0:0:0:0:
448,192,65891,128,4,66207:0:0:0:0:
192,192,66207,1,0,0:0:0:0:
320,192,66365,1,2,0:0:0:0:
64,192,66523,1,8,0:0:0:0:
448,192,66523,1,0,0:0:0:0:
192,192,66681,1,0,0:0:0:0:
320,192,66838,1,2,0:0:0:0:
448,192,66838,1,0,0:0:0:40:C_Short.wav
64,192,66996,128,2,67312:0:0:0:0:
192,192,66996,1,0,0:0:0:40:C_Short.wav
320,192,67312,1,2,0:0:0:0:
192,192,67470,1,8,0:0:0:0:
448,192,67470,1,0,0:0:0:0:
64,192,67628,1,0,0:0:0:30:soft-hitclap.wav
320,192,67786,1,2,0:0:0:0:
448,192,67786,1,0,0:0:0:40:C_Short2.wav
192,192,68023,1,2,0:0:0:0:
320,192,68023,1,0,0:0:0:40:C_Short2.wav
64,192,68260,1,8,0:0:0:0:
192,192,68260,1,0,0:0:0:0:
64,192,68417,128,2,68733:0:0:0:0:
448,192,68417,1,4,0:0:0:0:
320,192,68733,1,0,0:0:0:0:
192,192,68891,1,2,0:0:0:0:
320,192,69049,1,8,0:0:0:0:
448,192,69049,1,0,0:0:0:0:
64,192,69207,1,0,0:0:0:0:
192,192,69365,1,2,0:0:0:0:
320,192,69365,1,0,0:0:0:40:C_Short.wav
64,192,69523,1,2,0:0:0:0:
448,192,69523,128,0,69838:0:0:0:40:C_Short.wav
192,192,69838,1,2,0:0:0:0:
64,192,69996,1,8,0:0:0:0:
320,192,69996,128,0,70312:0:0:0:0:
64,192,70312,1,2,0:0:0:0:
192,192,70312,1,4,0:0:0:0:
192,192,70549,1,2,0:0:0:0:
320,192,70549,1,0,0:0:0:0:
192,192,70786,1,8,0:0:0:0:
448,192,70786,1,0,0:0:0:0:
320,192,70944,1,0,0:0:0:40:C_Short.wav
64,192,70944,1,2,0:0:0:0:
192,192,71023,1,0,0:0:0:30:soft-hitclap.wav
448,192,71102,1,0,0:0:0:30:soft-hitclap.wav
320,192,71181,1,0,0:0:0:30:soft-hitclap.wav
192,192,71260,1,2,0:0:0:0:
64,192,71338,1,0,0:0:0:30:soft-hitclap.wav
448,192,71417,1,0,0:0:0:30:soft-hitclap.wav
320,192,71496,1,0,0:0:0:30:soft-hitclap.wav
64,192,71575,1,2,0:0:0:0:
192,192,71654,1,0,0:0:0:30:soft-hitclap.wav
320,192,71733,1,0,0:0:0:30:soft-hitclap.wav
448,192,71812,1,0,0:0:0:30:soft-hitclap.wav
192,192,71891,1,10,0:0:0:0:
64,192,71970,1,8,0:0:0:0:
320,192,72049,1,8,0:0:0:0:
192,192,72128,1,8,0:0:0:0:
64,192,72207,1,2,0:0:0:0:
448,192,72207,128,8,72444:0:0:0:0:
192,192,72444,128,8,72681:0:0:0:0:
320,192,72444,1,2,0:0:0:0:
64,192,72681,1,2,0:0:0:0:
448,192,72681,1,8,0:0:0:0:
192,192,72838,1,8,0:0:0:0:
320,192,72838,1,2,0:0:0:0:
64,192,72996,1,0,0:0:0:0:
448,192,73154,1,0,0:0:0:0:
64,192,73312,128,2,73628:0:0:0:0:
192,192,73312,1,4,0:0:0:0:
320,192,73628,1,2,0:0:0:0:
192,192,73707,1,2,0:0:0:0:
64,192,73786,1,8,0:0:0:0:
448,192,73786,128,0,74102:0:0:0:40:Hat open.wav
64,192,74102,1,2,0:0:0:0:
320,192,74102,1,0,0:0:0:40:Hat open.wav
192,192,74260,1,2,0:0:0:0:
320,192,74417,1,8,0:0:0:0:
448,192,74417,1,0,0:0:0:40:Hat open.wav
192,192,74575,128,4,74891:0:0:0:0:
448,192,74575,1,2,0:0:0:0:
320,192,74891,1,2,0:0:0:0:
64,192,75049,1,8,0:0:0:0:
448,192,75049,1,0,0:0:0:40:Hat open.wav
192,192,75207,1,0,0:0:0:0:
320,192,75365,1,2,0:0:0:0:
448,192,75365,1,0,0:0:0:40:Hat open.wav
64,192,75523,1,2,0:0:0:0:
192,192,75681,1,8,0:0:0:0:
320,192,75681,1,0,0:0:0:40:Hat open.wav
448,192,75838,128,4,76154:0:0:0:0:
192,192,75838,1,2,0:0:0:0:
320,192,76154,1,2,0:0:0:0:
64,192,76312,128,8,76628:0:0:0:0:
320,192,76312,1,0,0:0:0:40:Hat open.wav
192,192,76628,1,2,0:0:0:0:
448,192,76628,1,0,0:0:0:40:Hat open.wav
320,192,76786,1,2,0:0:0:0:
64,192,76944,1,8,0:0:0:0:
192,192,76944,1,0,0:0:0:40:Hat open.wav
192,192,77102,1,2,0:0:0:0:
320,192,77102,128,4,77417:0:0:0:0:
64,192,77417,1,2,0:0:0:0:
192,192,77575,1,8,0:0:0:0:
448,192,77575,128,0,77891:0:0:0:40:Hat open.wav
64,192,77891,1,2,0:0:0:0:
320,192,77891,1,0,0:0:0:40:Hat open.wav
192,192,78049,1,2,0:0:0:0:
320,192,78207,1,8,0:0:0:0:
448,192,78207,1,0,0:0:0:40:Hat open.wav
320,192,78365,1,2,0:0:0:0:
64,192,78365,128,4,78681:0:0:0:0:
192,192,78681,1,2,0:0:0:0:
320,192,78838,128,8,79154:0:0:0:0:
192,192,78838,1,0,0:0:0:40:Hat open.wav
64,192,79154,1,2,0:0:0:0:
448,192,79154,1,0,0:0:0:40:Hat open.wav
192,192,79312,1,2,0:0:0:0:
320,192,79470,1,8,0:0:0:0:
448,192,79470,1,0,0:0:0:40:Hat open.wav
64,192,79628,1,2,0:0:0:0:
448,192,79628,128,4,79944:0:0:0:0:
64,192,79944,1,2,0:0:0:0:
192,192,79944,1,0,0:0:0:0:
448,192,80102,1,8,0:0:0:0:
320,192,80181,1,0,0:0:0:30:soft-hitclap.wav
64,192,80260,1,0,0:0:0:30:soft-hitclap.wav
192,192,80338,1,0,0:0:0:30:soft-hitclap.wav
448,192,80417,1,8,0:0:0:0:
320,192,80496,1,0,0:0:0:30:soft-hitclap.wav
64,192,80575,1,0,0:0:0:30:soft-hitclap.wav
192,192,80654,1,0,0:0:0:30:soft-hitclap.wav
320,192,80733,1,8,0:0:0:0:
64,192,80891,128,2,81207:0:0:0:0:
448,192,80891,1,4,0:0:0:0:
320,192,81207,128,2,81523:0:0:0:0:
192,192,81365,1,8,0:0:0:0:
448,192,81523,128,0,81838:0:0:0:0:
64,192,81681,1,2,0:0:0:0:
320,192,81838,1,8,0:0:0:0:
192,192,81917,1,0,0:0:0:30:soft-hitclap.wav
448,192,81996,1,0,0:0:0:30:soft-hitclap.wav
320,192,82075,1,0,0:0:0:30:soft-hitclap.wav
64,192,82154,1,8,0:0:0:0:
192,192,82233,1,0,0:0:0:30:soft-hitclap.wav
320,192,82312,1,0,0:0:0:40:Tom1.wav
448,192,82391,1,0,0:0:0:40:Tom2.wav
64,192,82470,1,0,0:0:0:40:Tom3.wav
192,192,82549,1,0,0:0:0:30:Tom4.wav
448,192,82628,1,2,0:0:0:0:
320,192,82707,1,0,0:0:0:40:Tom2.wav
192,192,82786,1,8,0:0:0:0:
64,192,82865,1,8,0:0:0:0:
320,192,82944,1,8,0:0:0:0:
448,192,83023,1,0,0:0:0:40:Tom2.wav
192,192,83102,1,8,0:0:0:0:
320,192,83181,1,8,0:0:0:0:
64,192,83260,1,8,0:0:0:0:
192,192,83338,1,0,0:0:0:40:Tom2.wav
320,192,83417,1,2,0:0:0:0:
448,192,83417,128,4,83733:0:0:0:0:
64,192,83733,1,2,0:0:0:0:
192,192,83891,1,8,0:0:0:0:
320,192,83891,1,0,0:0:0:40:Hat open.wav
448,192,84049,1,0,0:0:0:0:
64,192,84207,1,8,0:0:0:0:
192,192,84207,1,0,0:0:0:40:Hat open.wav
320,192,84365,1,2,0:0:0:0:
64,192,84523,1,8,0:0:0:0:
448,192,84523,1,0,0:0:0:40:Hat open.wav
192,192,84681,128,2,84996:0:0:0:0:
448,192,84681,1,4,0:0:0:0:
320,192,84996,1,2,0:0:0:0:
64,192,85154,1,8,0:0:0:0:
192,192,85154,1,0,0:0:0:40:Hat open.wav
320,192,85312,1,0,0:0:0:0:
64,192,85470,1,2,0:0:0:0:
448,192,85470,1,0,0:0:0:40:Hat open.wav
320,192,85628,1,8,0:0:0:0:
192,192,85707,1,8,0:0:0:0:
448,192,85786,1,8,0:0:0:0:
320,192,85865,1,8,0:0:0:0:
64,192,85944,128,4,86260:0:0:0:0:
192,192,85944,1,2,0:0:0:0:
320,192,86260,1,2,0:0:0:0:
192,192,86417,1,8,0:0:0:0:
64,192,86496,1,0,0:0:0:40:Tom1.wav
448,192,86575,1,0,0:0:0:40:Tom2.wav
320,192,86654,1,0,0:0:0:40:Tom3.wav
64,192,86733,1,8,0:0:0:0:
192,192,86812,1,0,0:0:0:40:Tom1.wav
320,192,86891,1,0,0:0:0:40:Tom2.wav
448,192,86970,1,0,0:0:0:40:Tom3.wav
64,192,87049,1,0,0:0:0:30:Tom4.wav
192,192,87128,1,0,0:0:0:30:Tom4.wav
320,192,87207,128,2,87523:0:0:0:0:
448,192,87207,1,4,0:0:0:0:
192,192,87523,1,2,0:0:0:0:
64,192,87681,1,8,0:0:0:0:
448,192,87681,1,0,0:0:0:40:Hat open.wav
192,192,87996,1,2,0:0:0:0:
448,192,87996,1,0,0:0:0:40:Hat open.wav
320,192,88154,1,2,0:0:0:0:
64,192,88312,1,8,0:0:0:0:
192,192,88312,1,0,0:0:0:40:Hat open.wav
64,192,88470,1,2,0:0:0:0:
320,192,88470,128,4,88786:0:0:0:0:
64,192,88786,1,2,0:0:0:0:
192,192,88865,1,2,0:0:0:0:
320,192,88944,1,8,0:0:0:0:
448,192,88944,128,0,89260:0:0:0:40:Hat open.wav
64,192,89260,1,2,0:0:0:0:
192,192,89260,1,0,0:0:0:40:Hat open.wav
448,192,89417,1,2,0:0:0:0:
64,192,89575,1,8,0:0:0:0:
320,192,89575,1,0,0:0:0:40:Hat open.wav
192,192,89733,128,2,90049:0:0:0:0:
320,192,90049,128,2,90365:0:0:0:0:
448,192,90207,1,8,0:0:0:0:
64,192,90365,128,0,90523:0:0:0:0:
192,192,90523,1,2,0:0:0:0:
320,192,90602,1,8,0:0:0:0:
448,192,90681,128,2,90996:0:0:0:0:
64,192,90838,1,8,0:0:0:0:
192,192,90996,128,2,91786:0:0:0:0:
320,192,91154,1,8,0:0:0:0:
64,192,91312,1,2,0:0:0:0:
448,192,91470,1,8,0:0:0:0:
64,192,91628,1,2,0:0:0:0:
320,192,91786,128,8,92417:0:0:0:0:
448,192,91944,1,2,0:0:0:0:
64,192,92102,1,8,0:0:0:0:
448,192,92260,1,2,0:0:0:0:
64,192,92417,128,8,92733:0:0:0:0:
192,192,92575,1,2,0:0:0:0:
448,192,92733,1,0,0:0:0:40:Tom1.wav
320,192,92812,1,0,0:0:0:40:Tom2.wav
192,192,92891,1,0,0:0:0:40:Tom3.wav
64,192,92970,1,0,0:0:0:30:Tom4.wav
320,192,93049,1,0,0:0:0:40:Tom1.wav
448,192,93128,1,0,0:0:0:40:Tom2.wav
64,192,93207,1,0,0:0:0:40:Tom3.wav
192,192,93286,1,0,0:0:0:30:Tom4.wav
320,192,93365,1,0,0:0:0:40:Tom1.wav
448,192,93444,1,0,0:0:0:40:Tom2.wav
192,192,93523,1,0,0:0:0:40:Tom3.wav
320,192,93602,1,0,0:0:0:30:Tom4.wav
64,192,93681,1,2,0:0:0:0:
448,192,93681,128,4,93838:0:0:0:0:
192,192,93838,128,0,93996:0:0:0:0:
320,192,93996,128,0,94154:0:0:0:0:
64,192,94154,128,0,94470:0:0:0:0:
448,192,94470,128,0,94786:0:0:0:0:
192,192,94786,128,0,95102:0:0:0:0:
320,192,95102,128,0,95417:0:0:0:0:
448,192,95417,128,0,95733:0:0:0:0:
64,192,95733,128,0,96049:0:0:0:30:Ride.wav
320,192,96049,128,2,96207:0:0:0:0:
192,192,96207,128,2,96365:0:0:0:0:
448,192,96365,128,0,96523:0:0:0:0:
320,192,96523,128,0,96681:0:0:0:0:
64,192,96681,128,0,96996:0:0:0:0:
448,192,96996,128,0,97312:0:0:0:0:
320,192,97312,128,0,97628:0:0:0:0:
192,192,97628,128,0,97944:0:0:0:0:
64,192,97944,1,8,0:0:0:0:
448,192,97944,1,0,0:0:0:0:
320,192,98102,1,0,0:0:0:0:
192,192,98260,1,0,0:0:0:40:Tom1.wav
320,192,98575,1,0,0:0:0:40:Tom2.wav
64,192,98733,1,2,0:0:0:0:
192,192,98733,128,4,98891:0:0:0:0:
448,192,98891,128,0,99049:0:0:0:0:
64,192,99049,128,0,99207:0:0:0:0:
320,192,99207,128,0,99523:0:0:0:0:
192,192,99523,128,0,99838:0:0:0:0:
448,192,99838,128,0,100154:0:0:0:0:
64,192,100154,128,0,100470:0:0:0:0:
192,192,100470,128,0,100786:0:0:0:0:
320,192,100786,128,0,101102:0:0:0:0:
64,192,101102,128,2,101260:0:0:0:0:
448,192,101260,128,2,101417:0:0:0:0:
192,192,101417,128,0,101575:0:0:0:30:Ride.wav
320,192,101575,128,0,101733:0:0:0:30:Ride.wav
64,192,101733,128,0,102049:0:0:0:30:Ride.wav
192,192,102049,128,0,102365:0:0:0:0:
448,192,102365,128,0,102681:0:0:0:0:
320,192,102681,128,0,102996:0:0:0:0:
64,192,102838,1,2,0:0:0:0:
192,192,102996,1,0,0:0:0:0:
448,192,103154,1,0,0:0:0:0:
448,192,103312,1,0,0:0:0:0:
192,192,103470,1,8,0:0:0:0:
320,192,103470,1,0,0:0:0:0:
64,192,103786,1,2,0:0:0:0:
448,192,103786,1,4,0:0:0:0:
192,192,103944,1,2,0:0:0:0:
320,192,104102,1,8,0:0:0:0:
448,192,104102,1,0,0:0:0:0:
64,192,104260,128,0,104575:0:0:0:0:
320,192,104417,1,0,0:0:0:0:
448,192,104575,128,0,104891:0:0:0:0:
192,192,104733,1,8,0:0:0:0:
320,192,104891,128,0,105207:0:0:0:0:
64,192,105049,1,0,0:0:0:0:
192,192,105207,128,0,105523:0:0:0:0:
448,192,105365,1,8,0:0:0:0:
64,192,105523,128,0,105838:0:0:0:0:
320,192,105681,1,0,0:0:0:0:
448,192,105838,1,2,0:0:0:0:
64,192,105996,1,8,0:0:0:0:
192,192,105996,1,0,0:0:0:0:
320,192,106154,1,0,0:0:0:0:
64,192,106312,1,2,0:0:0:0:
448,192,106312,1,0,0:0:0:0:
192,192,106470,1,2,0:0:0:0:
320,192,106628,1,8,0:0:0:0:
448,192,106628,1,0,0:0:0:0:
64,192,106786,128,0,107102:0:0:0:0:
192,192,106944,1,0,0:0:0:0:
448,192,107102,128,0,107417:0:0:0:0:
320,192,107260,1,8,0:0:0:0:
192,192,107417,128,0,107733:0:0:0:0:
64,192,107575,1,0,0:0:0:0:
320,192,107733,128,0,108049:0:0:0:0:
448,192,107891,1,8,0:0:0:0:
64,192,108049,128,0,108365:0:0:0:0:
192,192,108207,1,2,0:0:0:0:
448,192,108365,1,2,0:0:0:0:
192,192,108523,1,8,0:0:0:0:
320,192,108523,1,0,0:0:0:40:Hat open.wav
64,192,108681,1,2,0:0:0:0:
320,192,108838,1,2,0:0:0:0:
448,192,108838,1,4,0:0:0:0:
192,192,108996,1,2,0:0:0:0:
64,192,109154,1,8,0:0:0:0:
320,192,109154,1,0,0:0:0:0:
448,192,109312,128,0,109628:0:0:0:0:
192,192,109470,1,0,0:0:0:0:
64,192,109628,128,0,109944:0:0:0:0:
320,192,109786,1,8,0:0:0:0:
192,192,109944,128,0,110260:0:0:0:0:
448,192,110102,1,0,0:0:0:0:
320,192,110260,128,0,110575:0:0:0:0:
64,192,110417,1,8,0:0:0:0:
448,192,110575,128,0,110891:0:0:0:0:
192,192,110733,1,2,0:0:0:0:
320,192,110891,1,2,0:0:0:0:
64,192,111049,1,8,0:0:0:0:
448,192,111049,1,0,0:0:0:0:
192,192,111207,1,2,0:0:0:0:
320,192,111365,1,2,0:0:0:0:
320,192,111523,1,2,0:0:0:0:
64,192,111681,1,8,0:0:0:0:
448,192,111681,1,0,0:0:0:30:C_Short2.wav
192,192,111838,1,2,0:0:0:0:
192,192,111996,1,2,0:0:0:0:
64,192,112154,1,8,0:0:0:0:
448,192,112154,1,0,0:0:0:30:C_Short2.wav
320,192,112312,1,2,0:0:0:0:
320,192,112470,1,2,0:0:0:0:
64,192,112628,1,2,0:0:0:0:
448,192,112628,1,8,0:0:0:0:
192,192,112707,1,8,0:0:0:0:
320,192,112786,1,8,0:0:0:0:
448,192,112865,1,8,0:0:0:0:
64,192,112944,1,10,0:0:0:0:
192,192,113023,1,8,0:0:0:0:
320,192,113102,1,8,0:0:0:0:
448,192,113181,1,8,0:0:0:0:
64,192,113260,1,2,0:0:0:0:
192,192,113260,1,0,0:0:0:40:Tom1.wav
320,192,113496,1,0,0:0:0:40:Tom2.wav
448,192,113496,1,0,0:0:0:0:
64,192,113733,1,0,0:0:0:40:Tom3.wav
192,192,113733,1,0,0:0:0:0:
320,192,113891,1,2,0:0:0:0:
448,192,113891,128,4,114207:0:0:0:0:
192,192,114207,1,0,0:0:0:0:
320,192,114365,1,2,0:0:0:0:
64,192,114523,1,8,0:0:0:0:
448,192,114523,1,0,0:0:0:0:
192,192,114681,1,0,0:0:0:0:
320,192,114838,1,2,0:0:0:0:
448,192,114838,1,0,0:0:0:40:C_Short.wav
64,192,114996,128,2,115312:0:0:0:0:
192,192,114996,1,0,0:0:0:40:C_Short.wav
320,192,115312,1,2,0:0:0:0:
64,192,115470,1,8,0:0:0:0:
448,192,115470,1,0,0:0:0:0:
192,192,115628,1,0,0:0:0:30:soft-hitclap.wav
320,192,115786,1,2,0:0:0:0:
448,192,115786,1,0,0:0:0:40:C_Short2.wav
192,192,116023,1,2,0:0:0:0:
320,192,116023,1,0,0:0:0:40:C_Short2.wav
64,192,116260,1,8,0:0:0:0:
192,192,116260,1,0,0:0:0:0:
64,192,116417,128,2,116733:0:0:0:0:
448,192,116417,1,4,0:0:0:0:
320,192,116733,1,0,0:0:0:0:
192,192,116891,1,2,0:0:0:0:
64,192,117049,1,8,0:0:0:0:
448,192,117049,1,0,0:0:0:0:
320,192,117207,1,0,0:0:0:0:
64,192,117365,1,2,0:0:0:0:
192,192,117365,1,0,0:0:0:40:C_Short.wav
320,192,117523,1,2,0:0:0:0:
448,192,117523,128,0,117838:0:0:0:40:C_Short.wav
192,192,117838,1,2,0:0:0:0:
64,192,117996,1,8,0:0:0:0:
448,192,117996,1,0,0:0:0:0:
320,192,118154,1,0,0:0:0:30:soft-hitclap.wav
64,192,118312,1,2,0:0:0:0:
192,192,118312,1,0,0:0:0:40:C_Short2.wav
192,192,118549,1,2,0:0:0:0:
320,192,118549,1,0,0:0:0:40:C_Short2.wav
320,192,118786,1,8,0:0:0:0:
448,192,118786,1,0,0:0:0:0:
64,192,118944,1,2,0:0:0:0:
448,192,118944,128,4,119260:0:0:0:0:
192,192,119260,1,0,0:0:0:0:
320,192,119417,1,2,0:0:0:0:
64,192,119575,1,8,0:0:0:0:
192,192,119575,1,0,0:0:0:0:
448,192,119733,1,0,0:0:0:0:
192,192,119891,1,2,0:0:0:0:
320,192,119891,1,0,0:0:0:40:C_Short.wav
64,192,120049,128,2,120365:0:0:0:0:
448,192,120049,1,0,0:0:0:40:C_Short.wav
320,192,120365,1,2,0:0:0:0:
192,192,120523,128,8,120838:0:0:0:0:
448,192,120523,1,0,0:0:0:0:
320,192,120838,1,2,0:0:0:0:
448,192,120838,1,4,0:0:0:0:
192,192,121075,1,2,0:0:0:0:
320,192,121075,1,0,0:0:0:0:
64,192,121312,1,8,0:0:0:0:
320,192,121312,1,0,0:0:0:0:
192,192,121470,1,0,0:0:0:40:C_Short.wav
448,192,121470,1,2,0:0:0:0:
320,192,121549,1,0,0:0:0:30:soft-hitclap.wav
64,192,121628,1,0,0:0:0:30:soft-hitclap.wav
192,192,121707,1,0,0:0:0:30:soft-hitclap.wav
320,192,121786,1,2,0:0:0:0:
448,192,121865,1,0,0:0:0:30:soft-hitclap.wav
64,192,121944,1,0,0:0:0:30:soft-hitclap.wav
192,192,122023,1,0,0:0:0:30:soft-hitclap.wav
448,192,122102,1,2,0:0:0:0:
320,192,122181,1,0,0:0:0:30:soft-hitclap.wav
192,192,122260,1,0,0:0:0:30:soft-hitclap.wav
64,192,122338,1,0,0:0:0:30:soft-hitclap.wav
320,192,122417,1,10,0:0:0:0:
448,192,122496,1,8,0:0:0:0:
192,192,122575,1,8,0:0:0:0:
320,192,122654,1,8,0:0:0:0:
64,192,122733,128,2,122970:0:0:0:0:
448,192,122733,1,8,0:0:0:0:
192,192,122970,1,8,0:0:0:0:
320,192,122970,128,2,123207:0:0:0:0:
64,192,123207,1,2,0:0:0:0:
448,192,123207,1,8,0:0:0:0:
192,192,123365,1,8,0:0:0:0:
320,192,123365,1,2,0:0:0:0:
448,192,123523,1,0,0:0:0:0:
64,192,123681,1,0,0:0:0:0:
320,192,123838,1,2,0:0:0:0:
448,192,123838,128,4,124154:0:0:0:0:
192,192,124154,1,2,0:0:0:0:
320,192,124233,1,2,0:0:0:0:
64,192,124312,128,8,124628:0:0:0:0:
448,192,124312,1,0,0:0:0:40:Hat open.wav
192,192,124628,1,2,0:0:0:0:
448,192,124628,1,0,0:0:0:40:Hat open.wav
320,192,124786,1,2,0:0:0:0:
64,192,124944,1,8,0:0:0:0:
192,192,124944,1,0,0:0:0:40:Hat open.wav
192,192,125102,1,4,0:0:0:0:
320,192,125102,128,2,125417:0:0:0:0:
448,192,125417,1,2,0:0:0:0:
64,192,125575,1,8,0:0:0:0:
192,192,125575,1,0,0:0:0:40:Hat open.wav
320,192,125733,1,0,0:0:0:0:
64,192,125891,1,2,0:0:0:0:
448,192,125891,1,0,0:0:0:40:Hat open.wav
192,192,126049,1,2,0:0:0:0:
320,192,126207,1,8,0:0:0:0:
448,192,126207,1,0,0:0:0:40:Hat open.wav
448,192,126365,1,4,0:0:0:0:
64,192,126365,128,2,126681:0:0:0:0:
192,192,126681,1,2,0:0:0:0:
192,192,126838,1,8,0:0:0:0:
320,192,126838,128,0,127154:0:0:0:40:Hat open.wav
64,192,127154,1,2,0:0:0:0:
448,192,127154,1,0,0:0:0:40:Hat open.wav
192,192,127312,1,2,0:0:0:0:
320,192,127470,1,8,0:0:0:0:
448,192,127470,1,0,0:0:0:40:Hat open.wav
192,192,127628,128,2,127944:0:0:0:0:
320,192,127628,1,4,0:0:0:0:
448,192,127944,1,2,0:0:0:0:
64,192,128102,128,8,128417:0:0:0:0:
320,192,128102,1,0,0:0:0:40:Hat open.wav
192,192,128417,1,2,0:0:0:0:
448,192,128417,1,0,0:0:0:40:Hat open.wav
320,192,128575,1,2,0:0:0:0:
64,192,128733,1,8,0:0:0:0:
192,192,128733,1,0,0:0:0:40:Hat open.wav
448,192,128891,128,2,129207:0:0:0:0:
192,192,128891,1,4,0:0:0:0:
320,192,129207,1,2,0:0:0:0:
320,192,129365,1,8,0:0:0:0:
192,192,129365,128,0,129681:0:0:0:40:Hat open.wav
64,192,129681,1,2,0:0:0:0:
448,192,129681,1,0,0:0:0:40:Hat open.wav
320,192,129838,1,2,0:0:0:0:
192,192,129996,1,8,0:0:0:0:
64,192,129996,1,0,0:0:0:40:Hat open.wav
64,192,130154,128,2,130470:0:0:0:0:
448,192,130154,1,4,0:0:0:0:
320,192,130470,1,2,0:0:0:0:
448,192,130470,1,0,0:0:0:0:
64,192,130628,1,8,0:0:0:0:
192,192,130707,1,0,0:0:0:30:soft-hitclap.wav
448,192,130786,1,0,0:0:0:30:soft-hitclap.wav
320,192,130865,1,0,0:0:0:30:soft-hitclap.wav
64,192,130944,1,8,0:0:0:0:
192,192,131023,1,0,0:0:0:30:soft-hitclap.wav
448,192,131102,1,0,0:0:0:30:soft-hitclap.wav
320,192,131181,1,0,0:0:0:30:soft-hitclap.wav
192,192,131260,1,8,0:0:0:0:
64,192,131417,1,2,0:0:0:0:
448,192,131417,128,4,131733:0:0:0:0:
192,192,131733,128,2,132049:0:0:0:0:
320,192,131891,1,8,0:0:0:0:
64,192,132049,128,0,132365:0:0:0:0:
448,192,132207,1,2,0:0:0:0:
192,192,132365,1,8,0:0:0:0:
320,192,132444,1,0,0:0:0:30:soft-hitclap.wav
64,192,132523,1,0,0:0:0:30:soft-hitclap.wav
192,192,132602,1,0,0:0:0:30:soft-hitclap.wav
448,192,132681,1,8,0:0:0:0:
320,192,132760,1,0,0:0:0:30:soft-hitclap.wav
192,192,132838,1,0,0:0:0:40:Tom1.wav
64,192,132917,1,0,0:0:0:40:Tom2.wav
448,192,132996,1,0,0:0:0:40:Tom3.wav
320,192,133075,1,0,0:0:0:30:Tom4.wav
64,192,133154,1,2,0:0:0:0:
192,192,133233,1,0,0:0:0:40:Tom2.wav
320,192,133312,1,8,0:0:0:0:
448,192,133391,1,8,0:0:0:0:
192,192,133470,1,8,0:0:0:0:
64,192,133549,1,0,0:0:0:40:Tom2.wav
320,192,133628,1,8,0:0:0:0:
192,192,133707,1,8,0:0:0:0:
448,192,133786,1,8,0:0:0:0:
320,192,133865,1,0,0:0:0:40:Tom2.wav
64,192,133944,128,2,134260:0:0:0:0:
192,192,133944,1,4,0:0:0:0:
448,192,134260,1,2,0:0:0:0:
192,192,134417,1,8,0:0:0:0:
320,192,134417,1,0,0:0:0:40:Hat open.wav
64,192,134575,1,0,0:0:0:0:
320,192,134733,1,8,0:0:0:0:
448,192,134733,1,0,0:0:0:40:Hat open.wav
192,192,134891,1,2,0:0:0:0:
64,192,135049,1,8,0:0:0:0:
448,192,135049,1,0,0:0:0:40:Hat open.wav
64,192,135207,1,2,0:0:0:0:
320,192,135207,128,4,135523:0:0:0:0:
192,192,135523,1,2,0:0:0:0:
320,192,135681,1,8,0:0:0:0:
448,192,135681,1,0,0:0:0:40:Hat open.wav
192,192,135838,1,0,0:0:0:0:
64,192,135996,1,2,0:0:0:0:
448,192,135996,1,0,0:0:0:40:Hat open.wav
192,192,136154,1,8,0:0:0:0:
320,192,136233,1,8,0:0:0:0:
64,192,136312,1,8,0:0:0:0:
192,192,136391,1,8,0:0:0:0:
320,192,136470,1,4,0:0:0:0:
448,192,136470,128,2,136786:0:0:0:0:
192,192,136786,1,2,0:0:0:0:
320,192,136944,1,8,0:0:0:0:
448,192,137023,1,0,0:0:0:40:Tom1.wav
64,192,137102,1,0,0:0:0:40:Tom2.wav
192,192,137181,1,0,0:0:0:40:Tom3.wav
448,192,137260,1,8,0:0:0:0:
320,192,137338,1,0,0:0:0:40:Tom1.wav
192,192,137417,1,0,0:0:0:40:Tom2.wav
64,192,137496,1,0,0:0:0:40:Tom3.wav
448,192,137575,1,0,0:0:0:30:Tom4.wav
320,192,137654,1,0,0:0:0:30:Tom4.wav
64,192,137733,1,2,0:0:0:0:
192,192,137733,128,4,138049:0:0:0:0:
320,192,138049,1,2,0:0:0:0:
64,192,138207,1,8,0:0:0:0:
448,192,138207,1,0,0:0:0:40:Hat open.wav
64,192,138523,1,2,0:0:0:0:
320,192,138523,1,0,0:0:0:40:Hat open.wav
192,192,138681,1,2,0:0:0:0:
320,192,138838,1,8,0:0:0:0:
448,192,138838,1,0,0:0:0:40:Hat open.wav
192,192,138996,128,2,139312:0:0:0:0:
448,192,138996,1,4,0:0:0:0:
448,192,139312,1,2,0:0:0:0:
320,192,139391,1,2,0:0:0:0:
64,192,139470,128,8,139786:0:0:0:0:
192,192,139470,1,0,0:0:0:40:Hat open.wav
320,192,139786,1,2,0:0:0:0:
448,192,139786,1,0,0:0:0:40:Hat open.wav
192,192,139944,1,2,0:0:0:0:
64,192,140102,1,8,0:0:0:0:
448,192,140102,1,0,0:0:0:40:Hat open.wav
320,192,140260,128,2,140575:0:0:0:0:
192,192,140575,128,2,140891:0:0:0:0:
64,192,140733,1,8,0:0:0:0:
448,192,140891,128,0,141049:0:0:0:0:
320,192,141049,1,2,0:0:0:0:
192,192,141128,1,8,0:0:0:0:
64,192,141207,128,2,141523:0:0:0:0:
448,192,141365,1,8,0:0:0:0:
320,192,141523,128,2,142312:0:0:0:0:
192,192,141681,1,8,0:0:0:0:
448,192,141838,1,2,0:0:0:0:
64,192,141996,1,8,0:0:0:0:
448,192,142154,1,2,0:0:0:0:
192,192,142312,128,8,142944:0:0:0:0:
64,192,142470,1,2,0:0:0:0:
320,192,142628,1,8,0:0:0:0:
64,192,142786,1,2,0:0:0:0:
448,192,142944,128,8,143260:0:0:0:0:
320,192,143102,1,2,0:0:0:0:
64,192,143260,1,0,0:0:0:40:Tom1.wav
192,192,143338,1,0,0:0:0:40:Tom2.wav
320,192,143417,1,0,0:0:0:40:Tom3.wav
448,192,143496,1,0,0:0:0:30:Tom4.wav
192,192,143575,1,0,0:0:0:40:Tom1.wav
64,192,143654,1,0,0:0:0:40:Tom2.wav
448,192,143733,1,0,0:0:0:40:Tom3.wav
320,192,143812,1,0,0:0:0:30:Tom4.wav
192,192,143891,1,0,0:0:0:40:Tom1.wav
64,192,143970,1,0,0:0:0:40:Tom2.wav
320,192,144049,1,0,0:0:0:40:Tom3.wav
192,192,144128,1,0,0:0:0:30:Tom4.wav
64,192,144207,1,2,0:0:0:0:
448,192,144207,1,4,0:0:0:0:
320,192,144523,128,0,144838:0:0:0:0:
192,192,144681,128,0,144838:0:0:0:0:
64,192,144838,128,0,145154:0:0:0:0:
448,192,145154,128,0,146733:0:0:0:0:
320,192,145470,1,0,0:0:0:0:
64,192,145786,1,0,0:0:0:0:
192,192,146102,1,0,0:0:0:0:
320,192,146417,1,0,0:0:0:0:
64,192,146575,1,2,0:0:0:0:
64,192,146733,1,2,0:0:0:0:
192,192,147049,128,0,147365:0:0:0:0:
320,192,147207,128,0,147365:0:0:0:0:
448,192,147365,128,0,147681:0:0:0:0:
64,192,147681,128,0,149260:0:0:0:0:
448,192,147996,1,0,0:0:0:0:
192,192,148312,1,0,0:0:0:0:
320,192,148470,1,8,0:0:0:0:
448,192,148470,1,0,0:0:0:0:
192,192,148786,1,0,0:0:0:40:Tom1.wav
448,192,149102,1,0,0:0:0:40:Tom2.wav
192,192,149260,1,2,0:0:0:0:
320,192,149260,1,4,0:0:0:0:
448,192,149575,128,0,149891:0:0:0:0:
64,192,149733,128,0,149891:0:0:0:0:
192,192,149891,128,0,150207:0:0:0:0:
320,192,150207,128,0,151786:0:0:0:0:
192,192,150523,1,0,0:0:0:0:
448,192,150838,1,0,0:0:0:0:
64,192,151154,1,0,0:0:0:0:
448,192,151470,1,0,0:0:0:0:
192,192,151628,1,2,0:0:0:0:
64,192,151786,1,2,0:0:0:0:
448,192,151786,1,4,0:0:0:0:
192,192,151865,1,8,0:0:0:0:
448,192,151944,1,8,0:0:0:0:
320,192,152023,1,8,0:0:0:0:
64,192,152102,1,2,0:0:0:0:
192,192,152181,1,8,0:0:0:0:
448,192,152260,1,8,0:0:0:0:
320,192,152338,1,8,0:0:0:0:
192,192,152417,1,2,0:0:0:0:
64,192,152496,1,8,0:0:0:0:
320,192,152575,1,8,0:0:0:0:
448,192,152654,1,8,0:0:0:0:
192,192,152733,1,10,0:0:0:0:
64,192,152812,1,8,0:0:0:0:
320,192,152891,1,8,0:0:0:0:
448,192,152970,1,8,0:0:0:0:
64,192,153049,1,2,0:0:0:0:
192,192,153049,1,8,0:0:0:0:
192,192,153286,1,2,0:0:0:0:
448,192,153286,1,8,0:0:0:0:
64,192,153523,1,2,0:0:0:0:
448,192,153523,1,8,0:0:0:0:
320,192,153760,128,0,154154:0:0:0:0:
64,192,154154,128,2,154470:0:0:0:0:
192,192,154154,1,4,0:0:0:0:
320,192,154470,1,2,0:0:0:0:
192,192,154549,1,2,0:0:0:0:
64,192,154628,1,8,0:0:0:0:
448,192,154628,1,0,0:0:0:40:Hat open.wav
320,192,154786,1,0,0:0:0:0:
64,192,154944,1,2,0:0:0:0:
192,192,154944,1,0,0:0:0:40:Hat open.wav
320,192,155102,1,2,0:0:0:0:
64,192,155260,1,8,0:0:0:0:
448,192,155260,1,0,0:0:0:40:Hat open.wav
192,192,155417,128,4,155733:0:0:0:0:
448,192,155417,1,2,0:0:0:0:
320,192,155733,1,2,0:0:0:0:
64,192,155891,1,8,0:0:0:0:
448,192,155891,1,0,0:0:0:40:Hat open.wav
192,192,156049,1,0,0:0:0:0:
320,192,156207,1,2,0:0:0:0:
448,192,156207,1,0,0:0:0:40:Hat open.wav
192,192,156365,1,2,0:0:0:0:
64,192,156523,1,8,0:0:0:0:
320,192,156523,1,0,0:0:0:40:Hat open.wav
64,192,156681,1,4,0:0:0:0:
448,192,156681,128,2,156996:0:0:0:0:
192,192,156996,1,2,0:0:0:0:
64,192,157154,1,8,0:0:0:0:
448,192,157154,1,0,0:0:0:40:Hat open.wav
320,192,157312,1,0,0:0:0:0:
64,192,157470,1,2,0:0:0:0:
192,192,157470,1,0,0:0:0:40:Hat open.wav
320,192,157628,1,2,0:0:0:0:
192,192,157786,1,8,0:0:0:0:
448,192,157786,1,0,0:0:0:40:Hat open.wav
192,192,157944,1,2,0:0:0:0:
320,192,157944,128,4,158260:0:0:0:0:
64,192,158260,1,2,0:0:0:0:
192,192,158417,1,8,0:0:0:0:
448,192,158417,1,0,0:0:0:40:Hat open.wav
64,192,158733,1,2,0:0:0:0:
448,192,158733,1,0,0:0:0:40:Hat open.wav
320,192,158891,1,2,0:0:0:0:
64,192,159049,1,8,0:0:0:0:
192,192,159049,1,0,0:0:0:40:Hat open.wav
64,192,159207,1,2,0:0:0:0:
320,192,159207,128,4,159523:0:0:0:0:
448,192,159523,1,2,0:0:0:0:
192,192,159681,128,8,159996:0:0:0:0:
448,192,159681,1,0,0:0:0:40:Hat open.wav
64,192,159996,1,2,0:0:0:0:
320,192,159996,1,0,0:0:0:40:Hat open.wav
192,192,160154,1,2,0:0:0:0:
320,192,160312,1,8,0:0:0:0:
448,192,160312,1,0,0:0:0:40:Hat open.wav
64,192,160470,1,2,0:0:0:0:
448,192,160470,128,4,160786:0:0:0:0:
64,192,160786,1,2,0:0:0:0:
192,192,160786,1,0,0:0:0:0:
448,192,160944,1,8,0:0:0:0:
320,192,161023,1,0,0:0:0:30:soft-hitclap.wav
64,192,161102,1,0,0:0:0:30:soft-hitclap.wav
192,192,161181,1,0,0:0:0:30:soft-hitclap.wav
448,192,161260,1,8,0:0:0:0:
320,192,161338,1,0,0:0:0:30:soft-hitclap.wav
64,192,161417,1,0,0:0:0:30:soft-hitclap.wav
192,192,161496,1,0,0:0:0:30:soft-hitclap.wav
320,192,161575,1,8,0:0:0:0:
64,192,161733,128,2,162049:0:0:0:0:
448,192,161733,1,4,0:0:0:0:
320,192,162049,128,2,162365:0:0:0:0:
192,192,162207,1,8,0:0:0:0:
448,192,162365,128,0,162681:0:0:0:0:
64,192,162523,1,2,0:0:0:0:
320,192,162681,1,8,0:0:0:0:
192,192,162760,1,0,0:0:0:30:soft-hitclap.wav
448,192,162838,1,0,0:0:0:30:soft-hitclap.wav
320,192,162917,1,0,0:0:0:30:soft-hitclap.wav
64,192,162996,1,8,0:0:0:0:
192,192,163075,1,0,0:0:0:30:soft-hitclap.wav
320,192,163154,1,0,0:0:0:40:Tom1.wav
448,192,163233,1,0,0:0:0:40:Tom2.wav
64,192,163312,1,0,0:0:0:40:Tom3.wav
192,192,163391,1,0,0:0:0:30:Tom4.wav
448,192,163470,1,2,0:0:0:0:
320,192,163549,1,0,0:0:0:40:Tom2.wav
192,192,163628,1,8,0:0:0:0:
64,192,163707,1,8,0:0:0:0:
320,192,163786,1,8,0:0:0:0:
448,192,163865,1,0,0:0:0:40:Tom2.wav
192,192,163944,1,8,0:0:0:0:
320,192,164023,1,8,0:0:0:0:
64,192,164102,1,8,0:0:0:0:
192,192,164181,1,0,0:0:0:40:Tom2.wav
320,192,164260,1,2,0:0:0:0:
448,192,164260,128,4,164575:0:0:0:0:
64,192,164575,1,2,0:0:0:0:
192,192,164733,1,8,0:0:0:0:
320,192,164733,1,0,0:0:0:40:Hat open.wav
448,192,164891,1,0,0:0:0:0:
64,192,165049,1,8,0:0:0:0:
192,192,165049,1,0,0:0:0:40:Hat open.wav
320,192,165207,1,2,0:0:0:0:
64,192,165365,1,8,0:0:0:0:
448,192,165365,1,0,0:0:0:40:Hat open.wav
192,192,165523,128,2,165838:0:0:0:0:
448,192,165523,1,4,0:0:0:0:
320,192,165838,1,2,0:0:0:0:
64,192,165996,1,8,0:0:0:0:
192,192,165996,1,0,0:0:0:40:Hat open.wav
320,192,166154,1,0,0:0:0:0:
64,192,166312,1,2,0:0:0:0:
448,192,166312,1,0,0:0:0:40:Hat open.wav
320,192,166470,1,8,0:0:0:0:
192,192,166549,1,8,0:0:0:0:
448,192,166628,1,8,0:0:0:0:
320,192,166707,1,8,0:0:0:0:
64,192,166786,128,4,167102:0:0:0:0:
192,192,166786,1,2,0:0:0:0:
320,192,167102,1,2,0:0:0:0:
192,192,167260,1,8,0:0:0:0:
64,192,167338,1,0,0:0:0:40:Tom1.wav
448,192,167417,1,0,0:0:0:40:Tom2.wav
320,192,167496,1,0,0:0:0:40:Tom3.wav
64,192,167575,1,8,0:0:0:0:
192,192,167654,1,0,0:0:0:40:Tom1.wav
320,192,167733,1,0,0:0:0:40:Tom2.wav
448,192,167812,1,0,0:0:0:40:Tom3.wav
64,192,167891,1,0,0:0:0:30:Tom4.wav
192,192,167970,1,0,0:0:0:30:Tom4.wav
320,192,168049,128,2,168365:0:0:0:0:
448,192,168049,1,4,0:0:0:0:
64,192,168365,1,2,0:0:0:0:
192,192,168523,1,8,0:0:0:0:
448,192,168523,1,0,0:0:0:40:Hat open.wav
64,192,168838,1,2,0:0:0:0:
192,192,168838,1,0,0:0:0:40:Hat open.wav
320,192,168996,1,2,0:0:0:0:
64,192,169154,1,8,0:0:0:0:
448,192,169154,1,0,0:0:0:40:Hat open.wav
64,192,169312,1,2,0:0:0:0:
320,192,169312,128,4,169628:0:0:0:0:
192,192,169628,1,2,0:0:0:0:
64,192,169707,1,2,0:0:0:0:
320,192,169786,1,8,0:0:0:0:
448,192,169786,128,0,170102:0:0:0:40:Hat open.wav
64,192,170102,1,2,0:0:0:0:
192,192,170102,1,0,0:0:0:40:Hat open.wav
320,192,170260,1,2,0:0:0:0:
64,192,170417,1,8,0:0:0:0:
448,192,170417,1,0,0:0:0:40:Hat open.wav
192,192,170575,128,2,170891:0:0:0:0:
320,192,170891,128,2,171207:0:0:0:0:
448,192,171049,1,8,0:0:0:0:
64,192,171207,128,0,171365:0:0:0:0:
192,192,171365,1,2,0:0:0:0:
320,192,171444,1,8,0:0:0:0:
448,192,171523,128,2,171838:0:0:0:0:
64,192,171681,1,8,0:0:0:0:
192,192,171838,128,2,172628:0:0:0:0:
320,192,171996,1,8,0:0:0:0:
64,192,172154,1,2,0:0:0:0:
448,192,172312,1,8,0:0:0:0:
64,192,172470,1,2,0:0:0:0:
320,192,172628,128,8,173260:0:0:0:0:
448,192,172786,1,2,0:0:0:0:
192,192,172944,1,8,0:0:0:0:
448,192,173102,1,2,0:0:0:0:
64,192,173260,128,8,173575:0:0:0:0:
192,192,173417,1,2,0:0:0:0:
448,192,173575,1,0,0:0:0:40:Tom1.wav
320,192,173654,1,0,0:0:0:40:Tom2.wav
192,192,173733,1,0,0:0:0:40:Tom3.wav
64,192,173812,1,0,0:0:0:30:Tom4.wav
320,192,173891,1,0,0:0:0:40:Tom1.wav
448,192,173970,1,0,0:0:0:40:Tom2.wav
64,192,174049,1,0,0:0:0:40:Tom3.wav
192,192,174128,1,0,0:0:0:30:Tom4.wav
320,192,174207,1,0,0:0:0:40:Tom1.wav
448,192,174286,1,0,0:0:0:40:Tom2.wav
192,192,174365,1,0,0:0:0:40:Tom3.wav
320,192,174444,1,0,0:0:0:30:Tom4.wav
64,192,174523,1,2,0:0:0:0:
448,192,174523,1,4,0:0:0:0:
64,192,174681,1,2,0:0:0:0:
192,192,174681,1,4,0:0:0:0:
320,192,174996,1,2,0:0:0:0:
448,192,174996,1,0,0:0:0:0:
64,192,175154,1,8,0:0:0:0:
192,192,175154,1,0,0:0:0:0:
64,192,175470,1,2,0:0:0:0:
320,192,175470,1,4,0:0:0:0:
192,192,175628,1,2,0:0:0:0:
320,192,175628,1,4,0:0:0:0:
64,192,175944,1,2,0:0:0:0:
448,192,175944,1,0,0:0:0:0:
192,192,176102,128,2,176260:0:0:0:0:
320,192,176260,128,0,176417:0:0:0:15:soft-hitclap.wav
64,192,176417,1,8,0:0:0:0:
448,192,176417,1,0,0:0:0:0:
192,192,176575,1,2,0:0:0:0:
320,192,176733,1,2,0:0:0:0:
448,192,176733,1,0,0:0:0:0:
64,192,176891,1,2,0:0:0:0:
192,192,177049,1,8,0:0:0:0:
320,192,177049,1,0,0:0:0:30:C_Short2.wav
448,192,177207,1,2,0:0:0:0:
192,192,177365,1,2,0:0:0:0:
64,192,177523,1,8,0:0:0:0:
320,192,177523,1,0,0:0:0:30:C_Short2.wav
448,192,177681,1,2,0:0:0:0:
192,192,177838,1,2,0:0:0:0:
64,192,177996,128,2,185891:0:0:0:0:
320,192,177996,1,4,0:0:0:0:
448,192,177996,128,0,186838:0:0:0:0:
