osu file format v14

[General]
AudioFilename: r_ff5_bbrev.mp3
AudioLeadIn: 1500
PreviewTime: -1
Countdown: 0
SampleSet: None
StackLeniency: 0.7
Mode: 1
LetterboxInBreaks: 0
WidescreenStoryboard: 1

[Editor]
DistanceSpacing: 0.8
BeatDivisor: 4
GridSize: 8
TimelineZoom: 2.1

[Metadata]
Title:B.B. - REVENGE -
TitleUnicode:B.B. - REVENGE -
Artist:AKHT
ArtistUnicode:AKHT
Creator:Lno
Version:Oni
Source:
Tags:
BeatmapID:1765876
BeatmapSetID:844126

[Difficulty]
HPDrainRate:5
CircleSize:5
OverallDifficulty:6.5
ApproachRate:5
SliderMultiplier:1.4
SliderTickRate:1

[Events]
//Background and Video events
0,0,"bbrev-bg.png",0,0
//Break Periods
//Storyboard Layer 0 (Background)
//Storyboard Layer 1 (Fail)
//Storyboard Layer 2 (Pass)
//Storyboard Layer 3 (Foreground)
//Storyboard Sound Samples

[TimingPoints]
809,294.117647058824,4,1,0,100,1,0
57279,-100,4,1,0,100,0,1
66691,-100,4,1,0,100,0,0
164338,-100,4,1,0,50,0,0
165220,-100,4,1,0,75,0,0
165367,-100,4,1,0,100,0,0
165514,-100,4,1,0,100,0,1
184338,-100,4,1,0,100,0,0

[HitObjects]
224,224,809,5,0,0:0:0:0:
288,224,882,1,8,0:0:0:0:
288,224,956,1,8,0:0:0:0:
224,224,1029,1,0,0:0:0:0:
224,224,1103,1,0,0:0:0:0:
288,224,1176,1,8,0:0:0:0:
288,224,1250,1,8,0:0:0:0:
224,224,1323,1,0,0:0:0:0:
288,224,1397,1,8,0:0:0:0:
288,224,1470,1,8,0:0:0:0:
224,224,1544,1,0,0:0:0:0:
288,224,1617,1,8,0:0:0:0:
288,224,1691,1,8,0:0:0:0:
224,224,1764,1,0,0:0:0:0:
288,224,1838,1,8,0:0:0:0:
288,224,1911,1,8,0:0:0:0:
224,224,1985,1,0,0:0:0:0:
288,224,2059,1,8,0:0:0:0:
288,224,2132,1,8,0:0:0:0:
224,224,2206,1,0,0:0:0:0:
224,224,2279,1,0,0:0:0:0:
288,224,2353,1,8,0:0:0:0:
224,224,2426,1,0,0:0:0:0:
224,224,2500,1,0,0:0:0:0:
288,224,2573,1,8,0:0:0:0:
224,224,2647,1,0,0:0:0:0:
224,224,2720,1,0,0:0:0:0:
288,224,2794,1,8,0:0:0:0:
224,224,2867,1,0,0:0:0:0:
288,224,2941,1,8,0:0:0:0:
288,224,3014,1,8,0:0:0:0:
224,224,3088,1,0,0:0:0:0:
224,224,3161,1,0,0:0:0:0:
288,224,3234,1,8,0:0:0:0:
288,224,3308,1,8,0:0:0:0:
224,224,3381,1,0,0:0:0:0:
224,224,3455,1,0,0:0:0:0:
288,224,3528,1,8,0:0:0:0:
288,224,3602,1,8,0:0:0:0:
224,224,3675,1,0,0:0:0:0:
288,224,3749,1,8,0:0:0:0:
288,224,3822,1,8,0:0:0:0:
224,224,3896,1,0,0:0:0:0:
288,224,3969,1,8,0:0:0:0:
288,224,4043,1,8,0:0:0:0:
224,224,4116,1,0,0:0:0:0:
288,224,4190,1,8,0:0:0:0:
288,224,4263,1,8,0:0:0:0:
224,224,4337,1,0,0:0:0:0:
288,224,4411,1,8,0:0:0:0:
288,224,4484,1,8,0:0:0:0:
224,224,4558,1,0,0:0:0:0:
224,224,4631,1,0,0:0:0:0:
288,224,4705,1,8,0:0:0:0:
224,224,4778,1,0,0:0:0:0:
224,224,4852,1,0,0:0:0:0:
288,224,4925,1,8,0:0:0:0:
224,224,4999,1,0,0:0:0:0:
224,224,5072,1,0,0:0:0:0:
288,224,5146,1,8,0:0:0:0:
224,224,5219,1,0,0:0:0:0:
224,224,5514,1,0,0:0:0:0:
288,224,5587,1,8,0:0:0:0:
288,224,5661,1,8,0:0:0:0:
224,224,5734,1,0,0:0:0:0:
224,224,5808,1,0,0:0:0:0:
288,224,5881,1,8,0:0:0:0:
288,224,5955,1,8,0:0:0:0:
224,224,6028,1,0,0:0:0:0:
288,224,6102,1,8,0:0:0:0:
288,224,6175,1,8,0:0:0:0:
224,224,6249,1,0,0:0:0:0:
288,224,6322,1,8,0:0:0:0:
288,224,6396,1,8,0:0:0:0:
224,224,6469,1,0,0:0:0:0:
288,224,6543,1,8,0:0:0:0:
288,224,6616,1,8,0:0:0:0:
224,224,6690,1,0,0:0:0:0:
288,224,6764,1,8,0:0:0:0:
288,224,6837,1,8,0:0:0:0:
224,224,6911,1,0,0:0:0:0:
224,224,6984,1,0,0:0:0:0:
288,224,7058,1,8,0:0:0:0:
224,224,7131,1,0,0:0:0:0:
224,224,7205,1,0,0:0:0:0:
288,224,7278,1,8,0:0:0:0:
224,224,7352,1,0,0:0:0:0:
224,224,7425,1,0,0:0:0:0:
288,224,7499,1,8,0:0:0:0:
224,224,7572,1,0,0:0:0:0:
288,224,7646,1,8,0:0:0:0:
288,224,7719,1,8,0:0:0:0:
224,224,7793,1,0,0:0:0:0:
224,224,7867,1,0,0:0:0:0:
288,224,7940,1,8,0:0:0:0:
288,224,8014,1,8,0:0:0:0:
224,224,8087,1,0,0:0:0:0:
224,224,8161,1,0,0:0:0:0:
288,224,8234,1,8,0:0:0:0:
288,224,8308,1,8,0:0:0:0:
224,224,8381,1,0,0:0:0:0:
288,224,8455,1,8,0:0:0:0:
288,224,8528,1,8,0:0:0:0:
224,224,8602,1,0,0:0:0:0:
288,224,8675,1,8,0:0:0:0:
288,224,8749,1,8,0:0:0:0:
224,224,8822,1,0,0:0:0:0:
288,224,8896,1,8,0:0:0:0:
224,224,9191,1,0,0:0:0:0:
224,224,9264,1,0,0:0:0:0:
224,224,9338,1,0,0:0:0:0:
224,224,9411,1,0,0:0:0:0:
288,224,9485,1,8,0:0:0:0:
288,224,9559,1,8,0:0:0:0:
288,224,9632,1,8,0:0:0:0:
288,224,9706,1,8,0:0:0:0:
224,224,9779,1,0,0:0:0:0:
224,224,9853,1,0,0:0:0:0:
288,224,9926,1,8,0:0:0:0:
224,224,10000,1,0,0:0:0:0:
288,224,10073,1,8,0:0:0:0:
224,224,10147,1,0,0:0:0:0:
224,224,10220,1,0,0:0:0:0:
288,224,10294,1,8,0:0:0:0:
288,224,10367,1,8,0:0:0:0:
224,224,10441,1,0,0:0:0:0:
288,224,10514,1,8,0:0:0:0:
288,224,10588,1,8,0:0:0:0:
224,224,10661,1,0,0:0:0:0:
288,224,10735,1,8,0:0:0:0:
224,224,10809,1,0,0:0:0:0:
288,224,10882,1,8,0:0:0:0:
224,224,10956,1,0,0:0:0:0:
288,224,11029,1,8,0:0:0:0:
288,224,11103,1,8,0:0:0:0:
224,224,11176,1,0,0:0:0:0:
288,224,11250,1,8,0:0:0:0:
288,224,11323,1,8,0:0:0:0:
224,224,11397,1,0,0:0:0:0:
288,224,11470,1,8,0:0:0:0:
288,224,11544,1,8,0:0:0:0:
224,224,11617,1,0,0:0:0:0:
224,224,11691,1,0,0:0:0:0:
288,224,11764,1,8,0:0:0:0:
224,224,11838,1,0,0:0:0:0:
224,224,11911,1,0,0:0:0:0:
288,224,11985,1,8,0:0:0:0:
224,224,12059,1,0,0:0:0:0:
224,224,12132,1,0,0:0:0:0:
288,224,12206,1,8,0:0:0:0:
224,224,12279,1,0,0:0:0:0:
224,224,12353,1,0,0:0:0:0:
288,224,12426,1,8,0:0:0:0:
224,224,12500,1,0,0:0:0:0:
288,224,12573,1,8,0:0:0:0:
224,224,12647,1,0,0:0:0:0:
288,224,12720,1,8,0:0:0:0:
224,224,12794,1,0,0:0:0:0:
224,224,12867,1,0,0:0:0:0:
288,224,12941,1,8,0:0:0:0:
288,224,13014,1,8,0:0:0:0:
224,224,13088,1,0,0:0:0:0:
288,224,13161,1,8,0:0:0:0:
288,224,13235,1,8,0:0:0:0:
224,224,13309,1,0,0:0:0:0:
288,224,13382,1,8,0:0:0:0:
288,224,13456,1,8,0:0:0:0:
224,224,13529,1,0,0:0:0:0:
288,224,13603,1,8,0:0:0:0:
224,224,13676,1,0,0:0:0:0:
224,224,13750,1,0,0:0:0:0:
288,224,13823,1,8,0:0:0:0:
288,224,13897,1,8,0:0:0:0:
224,224,13970,1,0,0:0:0:0:
224,224,14044,1,0,0:0:0:0:
288,224,14117,1,8,0:0:0:0:
224,224,14191,1,0,0:0:0:0:
224,224,14264,1,0,0:0:0:0:
288,224,14338,1,8,0:0:0:0:
224,224,14411,1,0,0:0:0:0:
288,224,14485,1,8,0:0:0:0:
224,224,14559,1,0,0:0:0:0:
288,224,14632,1,8,0:0:0:0:
288,224,14779,1,8,0:0:0:0:
224,224,14926,1,0,0:0:0:0:
288,224,15073,1,8,0:0:0:0:
224,224,15220,1,0,0:0:0:0:
224,224,15294,1,0,0:0:0:0:
288,224,15367,1,8,0:0:0:0:
224,224,15514,1,0,0:0:0:0:
288,224,15661,1,8,0:0:0:0:
224,224,15809,1,0,0:0:0:0:
224,224,15882,1,0,0:0:0:0:
288,224,15956,1,8,0:0:0:0:
288,224,16103,1,8,0:0:0:0:
288,224,16250,1,8,0:0:0:0:
224,224,16397,1,0,0:0:0:0:
224,224,16470,1,0,0:0:0:0:
288,224,16544,1,8,0:0:0:0:
224,224,16691,1,0,0:0:0:0:
224,224,16838,1,0,0:0:0:0:
224,224,16985,1,0,0:0:0:0:
288,224,17132,1,8,0:0:0:0:
288,224,17426,1,8,0:0:0:0:
224,224,17573,1,0,0:0:0:0:
224,224,17647,1,0,0:0:0:0:
288,224,17720,1,8,0:0:0:0:
224,224,17867,1,0,0:0:0:0:
288,224,18088,1,8,0:0:0:0:
224,224,18161,1,0,0:0:0:0:
224,224,18382,1,0,0:0:0:0:
288,224,18456,1,8,0:0:0:0:
256,192,18529,8,8,19338,0:0:0:0:
224,224,19632,5,0,0:0:0:0:
224,224,19779,1,0,0:0:0:0:
288,224,19853,1,8,0:0:0:0:
224,224,19926,1,0,0:0:0:0:
288,224,20000,1,8,0:0:0:0:
224,224,20073,1,0,0:0:0:0:
288,224,20147,1,8,0:0:0:0:
224,224,20220,1,0,0:0:0:0:
224,224,20294,1,0,0:0:0:0:
288,224,20367,1,8,0:0:0:0:
224,224,20441,1,0,0:0:0:0:
288,224,20514,1,8,0:0:0:0:
224,224,20588,1,0,0:0:0:0:
288,224,20661,1,8,0:0:0:0:
224,224,20735,1,0,0:0:0:0:
288,224,20809,1,8,0:0:0:0:
224,224,20882,1,0,0:0:0:0:
288,224,20956,1,8,0:0:0:0:
224,224,21029,1,0,0:0:0:0:
288,224,21103,1,8,0:0:0:0:
224,224,21176,1,0,0:0:0:0:
288,224,21250,1,8,0:0:0:0:
288,224,21323,1,8,0:0:0:0:
224,224,21397,1,0,0:0:0:0:
288,224,21470,1,8,0:0:0:0:
288,224,21544,1,8,0:0:0:0:
224,224,21617,1,0,0:0:0:0:
288,224,21691,1,8,0:0:0:0:
224,224,21764,1,0,0:0:0:0:
288,224,21838,1,8,0:0:0:0:
224,224,21911,1,0,0:0:0:0:
288,224,21985,1,8,0:0:0:0:
224,224,22059,1,0,0:0:0:0:
288,224,22132,1,8,0:0:0:0:
224,224,22206,1,0,0:0:0:0:
288,224,22279,1,8,0:0:0:0:
224,224,22353,1,0,0:0:0:0:
288,224,22426,1,8,0:0:0:0:
224,224,22500,1,0,0:0:0:0:
224,224,22573,1,0,0:0:0:0:
288,224,22647,1,8,0:0:0:0:
224,224,22720,1,0,0:0:0:0:
224,224,22794,1,0,0:0:0:0:
288,224,22867,1,8,0:0:0:0:
224,224,23014,1,0,0:0:0:0:
224,224,23088,1,0,0:0:0:0:
288,224,23161,1,8,0:0:0:0:
224,224,23235,1,0,0:0:0:0:
288,224,23309,1,8,0:0:0:0:
288,224,23382,1,8,0:0:0:0:
224,224,23456,1,0,0:0:0:0:
288,224,23529,1,8,0:0:0:0:
288,224,23603,1,8,0:0:0:0:
224,224,23676,1,0,0:0:0:0:
224,224,23750,1,0,0:0:0:0:
288,224,23823,1,8,0:0:0:0:
224,224,23897,1,0,0:0:0:0:
288,224,23970,1,8,0:0:0:0:
288,224,24044,1,8,0:0:0:0:
288,224,24338,1,8,0:0:0:0:
224,224,24411,1,0,0:0:0:0:
288,224,24485,1,8,0:0:0:0:
224,224,24559,1,0,0:0:0:0:
288,224,24632,1,8,0:0:0:0:
288,224,24730,1,8,0:0:0:0:
224,224,24828,1,0,0:0:0:0:
224,224,24926,1,0,0:0:0:0:
224,224,25073,1,0,0:0:0:0:
288,224,25147,1,8,0:0:0:0:
288,224,25220,1,8,0:0:0:0:
224,224,25294,1,0,0:0:0:0:
288,224,25367,1,8,0:0:0:0:
224,224,25441,1,0,0:0:0:0:
224,224,25514,1,0,0:0:0:0:
224,224,25588,1,0,0:0:0:0:
288,224,25661,1,8,0:0:0:0:
224,224,25735,1,0,0:0:0:0:
224,224,25809,1,0,0:0:0:0:
224,224,25882,1,0,0:0:0:0:
288,224,25956,1,8,0:0:0:0:
224,224,26029,1,0,0:0:0:0:
288,224,26103,1,8,0:0:0:0:
224,224,26176,1,0,0:0:0:0:
288,224,26250,1,8,0:0:0:0:
224,224,26323,1,0,0:0:0:0:
288,224,26397,1,8,0:0:0:0:
288,224,26544,1,8,0:0:0:0:
224,160,26691,1,4,0:0:0:0:
224,160,26887,1,4,0:0:0:0:
224,160,27083,1,4,0:0:0:0:
224,160,27279,1,4,0:0:0:0:
224,160,27475,1,4,0:0:0:0:
224,160,27671,1,4,0:0:0:0:
288,160,27867,1,12,0:0:0:0:
256,192,28014,8,0,28897,0:0:0:0:
224,224,29044,5,0,0:0:0:0:
288,224,29191,1,8,0:0:0:0:
224,224,29338,1,0,0:0:0:0:
224,224,29411,1,0,0:0:0:0:
288,224,29485,1,8,0:0:0:0:
224,224,29632,1,0,0:0:0:0:
224,224,29706,1,0,0:0:0:0:
288,224,29779,1,8,0:0:0:0:
224,224,29926,1,0,0:0:0:0:
288,224,30073,1,8,0:0:0:0:
224,224,30220,1,0,0:0:0:0:
224,224,30294,1,0,0:0:0:0:
288,224,30367,1,8,0:0:0:0:
288,224,30441,1,8,0:0:0:0:
224,224,30514,1,0,0:0:0:0:
224,224,30588,1,0,0:0:0:0:
288,224,30661,1,8,0:0:0:0:
224,224,30809,1,0,0:0:0:0:
224,224,30882,1,0,0:0:0:0:
288,224,30956,1,8,0:0:0:0:
224,224,31029,1,0,0:0:0:0:
288,224,31103,1,8,0:0:0:0:
288,224,31176,1,8,0:0:0:0:
288,224,31250,1,8,0:0:0:0:
224,224,31323,1,0,0:0:0:0:
288,224,31397,1,8,0:0:0:0:
288,224,31544,1,8,0:0:0:0:
224,224,31691,1,0,0:0:0:0:
224,224,31764,1,0,0:0:0:0:
288,224,31838,1,8,0:0:0:0:
224,224,31985,1,0,0:0:0:0:
224,224,32059,1,0,0:0:0:0:
288,224,32132,1,8,0:0:0:0:
224,224,32279,1,0,0:0:0:0:
288,224,32426,1,8,0:0:0:0:
224,224,32573,1,0,0:0:0:0:
288,224,32720,1,8,0:0:0:0:
288,224,32794,1,8,0:0:0:0:
224,224,32867,1,0,0:0:0:0:
224,224,32941,1,0,0:0:0:0:
288,224,33014,1,8,0:0:0:0:
288,224,33161,1,8,0:0:0:0:
224,224,33235,1,0,0:0:0:0:
288,224,33309,1,8,0:0:0:0:
288,224,33382,1,8,0:0:0:0:
224,224,33456,1,0,0:0:0:0:
224,224,33529,1,0,0:0:0:0:
288,224,33603,1,8,0:0:0:0:
224,224,33676,1,0,0:0:0:0:
288,224,33750,1,8,0:0:0:0:
288,224,33897,1,8,0:0:0:0:
224,224,34044,1,0,0:0:0:0:
224,224,34117,1,0,0:0:0:0:
288,224,34191,1,8,0:0:0:0:
224,224,34338,1,0,0:0:0:0:
224,224,34411,1,0,0:0:0:0:
288,224,34485,1,8,0:0:0:0:
224,224,34632,1,0,0:0:0:0:
288,224,34779,1,8,0:0:0:0:
288,224,34853,1,8,0:0:0:0:
224,224,34926,1,0,0:0:0:0:
288,224,35073,1,8,0:0:0:0:
224,224,35220,1,0,0:0:0:0:
224,224,35294,1,0,0:0:0:0:
288,224,35367,1,8,0:0:0:0:
224,224,35514,1,0,0:0:0:0:
224,224,35588,1,0,0:0:0:0:
288,224,35661,1,8,0:0:0:0:
288,224,35735,1,8,0:0:0:0:
224,224,35809,1,0,0:0:0:0:
224,224,35882,1,0,0:0:0:0:
288,224,35956,1,8,0:0:0:0:
224,224,36029,1,0,0:0:0:0:
288,224,36103,1,8,0:0:0:0:
288,224,36250,1,8,0:0:0:0:
224,224,36397,1,0,0:0:0:0:
224,224,36470,1,0,0:0:0:0:
288,224,36544,1,8,0:0:0:0:
224,224,36617,1,0,0:0:0:0:
288,224,36691,1,8,0:0:0:0:
288,224,36838,1,8,0:0:0:0:
224,224,36985,1,0,0:0:0:0:
288,224,37279,1,8,0:0:0:0:
288,224,37353,1,8,0:0:0:0:
224,224,37426,1,0,0:0:0:0:
224,224,37500,1,0,0:0:0:0:
224,224,37573,1,0,0:0:0:0:
224,224,37647,1,0,0:0:0:0:
288,224,37720,1,8,0:0:0:0:
288,224,37794,1,8,0:0:0:0:
224,224,37867,1,0,0:0:0:0:
224,224,37941,1,0,0:0:0:0:
224,224,38014,1,0,0:0:0:0:
224,224,38088,1,0,0:0:0:0:
288,224,38161,1,8,0:0:0:0:
224,224,38235,1,0,0:0:0:0:
288,224,38309,1,8,0:0:0:0:
224,224,38382,1,0,0:0:0:0:
288,224,38456,1,8,0:0:0:0:
288,224,38603,1,8,0:0:0:0:
224,224,38750,1,0,0:0:0:0:
224,224,38823,1,0,0:0:0:0:
288,224,38897,1,8,0:0:0:0:
224,224,39044,1,0,0:0:0:0:
224,224,39118,1,0,0:0:0:0:
288,224,39191,1,8,0:0:0:0:
224,224,39338,1,0,0:0:0:0:
288,224,39485,1,8,0:0:0:0:
224,224,39632,1,0,0:0:0:0:
224,224,39706,1,0,0:0:0:0:
288,224,39779,1,8,0:0:0:0:
288,224,39853,1,8,0:0:0:0:
224,224,39926,1,0,0:0:0:0:
224,224,40000,1,0,0:0:0:0:
288,224,40073,1,8,0:0:0:0:
224,224,40221,1,0,0:0:0:0:
224,224,40294,1,0,0:0:0:0:
288,224,40368,1,8,0:0:0:0:
224,224,40441,1,0,0:0:0:0:
288,224,40515,1,8,0:0:0:0:
288,224,40588,1,8,0:0:0:0:
288,224,40662,1,8,0:0:0:0:
224,224,40735,1,0,0:0:0:0:
288,224,40809,1,8,0:0:0:0:
288,224,40956,1,8,0:0:0:0:
224,224,41103,1,0,0:0:0:0:
224,224,41176,1,0,0:0:0:0:
288,224,41250,1,8,0:0:0:0:
224,224,41397,1,0,0:0:0:0:
224,224,41471,1,0,0:0:0:0:
288,224,41544,1,8,0:0:0:0:
224,224,41691,1,0,0:0:0:0:
288,224,41838,1,8,0:0:0:0:
224,224,41985,1,0,0:0:0:0:
288,224,42132,1,8,0:0:0:0:
288,224,42206,1,8,0:0:0:0:
224,224,42279,1,0,0:0:0:0:
224,224,42353,1,0,0:0:0:0:
288,224,42426,1,8,0:0:0:0:
288,224,42573,1,8,0:0:0:0:
224,224,42647,1,0,0:0:0:0:
288,224,42721,1,8,0:0:0:0:
288,224,42794,1,8,0:0:0:0:
224,224,42868,1,0,0:0:0:0:
224,224,42941,1,0,0:0:0:0:
288,224,43015,1,8,0:0:0:0:
224,224,43088,1,0,0:0:0:0:
288,224,43162,1,8,0:0:0:0:
288,224,43309,1,8,0:0:0:0:
224,224,43456,1,0,0:0:0:0:
224,224,43529,1,0,0:0:0:0:
288,224,43603,1,8,0:0:0:0:
224,224,43750,1,0,0:0:0:0:
224,224,43823,1,0,0:0:0:0:
288,224,43897,1,8,0:0:0:0:
224,224,44044,1,0,0:0:0:0:
288,224,44191,1,8,0:0:0:0:
288,224,44265,1,8,0:0:0:0:
224,224,44338,1,0,0:0:0:0:
288,224,44485,1,8,0:0:0:0:
224,224,44632,1,0,0:0:0:0:
224,224,44706,1,0,0:0:0:0:
288,224,44779,1,8,0:0:0:0:
224,224,44926,1,0,0:0:0:0:
224,224,45000,1,0,0:0:0:0:
288,224,45073,1,8,0:0:0:0:
288,224,45147,1,8,0:0:0:0:
224,224,45221,1,0,0:0:0:0:
224,224,45294,1,0,0:0:0:0:
288,224,45368,1,8,0:0:0:0:
224,224,45441,1,0,0:0:0:0:
288,224,45515,1,8,0:0:0:0:
288,224,45662,1,8,0:0:0:0:
224,224,45809,1,0,0:0:0:0:
224,224,45882,1,0,0:0:0:0:
288,224,45956,1,8,0:0:0:0:
224,224,46029,1,0,0:0:0:0:
288,224,46103,1,8,0:0:0:0:
288,224,46250,1,8,0:0:0:0:
224,224,46397,1,0,0:0:0:0:
288,224,46691,1,8,0:0:0:0:
288,224,46765,1,8,0:0:0:0:
224,224,46838,1,0,0:0:0:0:
224,224,46912,1,0,0:0:0:0:
224,224,46985,1,0,0:0:0:0:
224,224,47059,1,0,0:0:0:0:
288,224,47132,1,8,0:0:0:0:
288,224,47206,1,8,0:0:0:0:
224,224,47279,1,0,0:0:0:0:
224,224,47353,1,0,0:0:0:0:
224,224,47426,1,0,0:0:0:0:
224,224,47500,1,0,0:0:0:0:
288,224,47573,1,8,0:0:0:0:
224,224,47647,1,0,0:0:0:0:
288,224,47721,1,8,0:0:0:0:
224,224,47794,1,0,0:0:0:0:
224,224,47867,1,0,0:0:0:0:
224,224,48014,1,0,0:0:0:0:
288,224,48161,1,8,0:0:0:0:
224,224,48309,1,0,0:0:0:0:
288,224,48456,1,8,0:0:0:0:
288,224,48603,1,8,0:0:0:0:
224,224,48750,1,0,0:0:0:0:
224,224,48897,1,0,0:0:0:0:
288,224,49044,1,8,0:0:0:0:
224,224,49191,1,0,0:0:0:0:
288,224,49338,1,8,0:0:0:0:
224,224,49485,1,0,0:0:0:0:
288,224,49632,1,8,0:0:0:0:
224,224,49779,1,0,0:0:0:0:
224,224,50073,1,0,0:0:0:0:
288,224,50220,1,8,0:0:0:0:
224,224,50367,1,0,0:0:0:0:
288,224,50514,1,8,0:0:0:0:
224,224,50661,1,0,0:0:0:0:
288,224,50809,1,8,0:0:0:0:
224,224,50956,1,0,0:0:0:0:
224,224,51250,1,0,0:0:0:0:
288,224,51397,1,8,0:0:0:0:
288,224,51544,1,8,0:0:0:0:
224,224,51691,1,0,0:0:0:0:
224,224,51838,1,0,0:0:0:0:
288,224,51985,1,8,0:0:0:0:
288,224,52132,1,8,0:0:0:0:
224,224,52279,1,0,0:0:0:0:
288,224,52426,1,8,0:0:0:0:
224,224,52573,1,0,0:0:0:0:
224,224,52720,1,0,0:0:0:0:
288,224,52867,1,8,0:0:0:0:
224,224,53015,1,0,0:0:0:0:
288,224,53162,1,8,0:0:0:0:
288,224,53309,1,8,0:0:0:0:
224,224,53456,1,0,0:0:0:0:
224,224,53603,1,0,0:0:0:0:
288,224,53750,1,8,0:0:0:0:
224,224,53897,1,0,0:0:0:0:
288,224,54044,1,8,0:0:0:0:
224,224,54191,1,0,0:0:0:0:
288,224,54338,1,8,0:0:0:0:
224,224,54485,1,0,0:0:0:0:
224,224,54779,1,0,0:0:0:0:
288,224,54926,1,8,0:0:0:0:
224,224,55073,1,0,0:0:0:0:
288,224,55220,1,8,0:0:0:0:
224,224,55367,1,0,0:0:0:0:
288,224,55515,1,8,0:0:0:0:
224,224,55662,1,0,0:0:0:0:
224,224,55956,1,0,0:0:0:0:
288,224,56103,1,8,0:0:0:0:
288,224,56250,1,8,0:0:0:0:
224,224,56397,1,0,0:0:0:0:
224,224,56470,1,0,0:0:0:0:
224,224,56544,1,0,0:0:0:0:
288,224,56691,1,8,0:0:0:0:
288,224,56838,1,8,0:0:0:0:
224,224,56985,1,0,0:0:0:0:
288,224,57132,1,8,0:0:0:0:
224,224,57279,1,0,0:0:0:0:
224,224,57353,1,0,0:0:0:0:
224,224,57426,1,0,0:0:0:0:
224,224,57500,1,0,0:0:0:0:
288,224,57573,1,8,0:0:0:0:
224,224,57721,1,0,0:0:0:0:
224,224,57794,1,0,0:0:0:0:
288,224,57868,1,8,0:0:0:0:
288,224,58015,1,8,0:0:0:0:
288,224,58161,1,8,0:0:0:0:
224,224,58235,1,0,0:0:0:0:
288,224,58309,1,8,0:0:0:0:
288,224,58456,1,8,0:0:0:0:
288,224,58529,1,8,0:0:0:0:
224,224,58603,1,0,0:0:0:0:
288,224,58750,1,8,0:0:0:0:
288,224,58823,1,8,0:0:0:0:
224,224,58897,1,0,0:0:0:0:
288,224,59044,1,8,0:0:0:0:
288,224,59117,1,8,0:0:0:0:
224,224,59191,1,0,0:0:0:0:
224,224,59264,1,0,0:0:0:0:
224,224,59338,1,0,0:0:0:0:
224,224,59485,1,0,0:0:0:0:
288,224,59632,1,8,0:0:0:0:
288,224,59706,1,8,0:0:0:0:
224,224,59779,1,0,0:0:0:0:
288,224,59926,1,8,0:0:0:0:
288,224,60000,1,8,0:0:0:0:
224,224,60073,1,0,0:0:0:0:
288,224,60221,1,8,0:0:0:0:
288,224,60294,1,8,0:0:0:0:
224,224,60368,1,0,0:0:0:0:
224,224,60514,1,0,0:0:0:0:
224,224,60662,1,0,0:0:0:0:
288,224,60809,1,8,0:0:0:0:
224,224,60882,1,0,0:0:0:0:
288,224,60956,1,8,0:0:0:0:
224,224,61029,1,0,0:0:0:0:
224,224,61103,1,0,0:0:0:0:
224,224,61250,1,0,0:0:0:0:
224,224,61323,1,0,0:0:0:0:
288,224,61397,1,8,0:0:0:0:
288,224,61544,1,8,0:0:0:0:
224,224,61691,1,0,0:0:0:0:
288,224,61838,1,8,0:0:0:0:
224,224,61985,1,0,0:0:0:0:
224,224,62059,1,0,0:0:0:0:
224,224,62132,1,0,0:0:0:0:
224,224,62206,1,0,0:0:0:0:
288,224,62279,1,8,0:0:0:0:
224,224,62427,1,0,0:0:0:0:
224,224,62500,1,0,0:0:0:0:
288,224,62574,1,8,0:0:0:0:
224,224,62647,1,0,0:0:0:0:
288,224,62721,1,8,0:0:0:0:
224,224,62868,1,0,0:0:0:0:
224,224,63015,1,0,0:0:0:0:
288,224,63162,1,8,0:0:0:0:
288,224,63235,1,8,0:0:0:0:
224,224,63309,1,0,0:0:0:0:
288,224,63456,1,8,0:0:0:0:
288,224,63529,1,8,0:0:0:0:
224,224,63603,1,0,0:0:0:0:
288,224,63750,1,8,0:0:0:0:
288,224,63823,1,8,0:0:0:0:
224,224,63897,1,0,0:0:0:0:
224,224,63970,1,0,0:0:0:0:
224,224,64044,1,0,0:0:0:0:
224,224,64191,1,0,0:0:0:0:
224,224,64264,1,0,0:0:0:0:
288,224,64338,1,8,0:0:0:0:
288,224,64411,1,8,0:0:0:0:
224,224,64485,1,0,0:0:0:0:
288,224,64632,1,8,0:0:0:0:
288,224,64706,1,8,0:0:0:0:
224,224,64779,1,0,0:0:0:0:
288,224,64927,1,8,0:0:0:0:
288,224,65000,1,8,0:0:0:0:
224,224,65074,1,0,0:0:0:0:
224,224,65220,1,0,0:0:0:0:
288,224,65294,1,8,0:0:0:0:
224,224,65368,1,0,0:0:0:0:
224,224,65441,1,0,0:0:0:0:
288,224,65515,1,8,0:0:0:0:
224,224,65588,1,0,0:0:0:0:
288,224,65662,1,8,0:0:0:0:
224,224,65735,1,0,0:0:0:0:
288,224,65809,1,8,0:0:0:0:
224,224,65882,1,0,0:0:0:0:
288,224,65956,1,8,0:0:0:0:
224,224,66029,1,0,0:0:0:0:
288,224,66103,1,8,0:0:0:0:
288,224,66250,1,8,0:0:0:0:
224,224,66397,1,0,0:0:0:0:
288,224,66544,1,8,0:0:0:0:
288,224,66691,1,8,0:0:0:0:
288,224,66764,1,8,0:0:0:0:
288,224,66838,1,8,0:0:0:0:
224,224,66985,1,0,0:0:0:0:
288,224,67132,1,8,0:0:0:0:
288,224,67206,1,8,0:0:0:0:
224,224,67279,1,0,0:0:0:0:
288,224,67426,1,8,0:0:0:0:
224,224,67573,1,0,0:0:0:0:
224,224,67647,1,0,0:0:0:0:
288,224,67720,1,8,0:0:0:0:
224,224,67794,1,0,0:0:0:0:
224,224,67867,1,0,0:0:0:0:
288,224,68014,1,8,0:0:0:0:
288,224,68088,1,8,0:0:0:0:
224,224,68161,1,0,0:0:0:0:
288,224,68309,1,8,0:0:0:0:
288,224,68456,1,8,0:0:0:0:
224,224,68529,1,0,0:0:0:0:
288,224,68603,1,8,0:0:0:0:
288,224,68676,1,8,0:0:0:0:
224,224,68750,1,0,0:0:0:0:
288,224,68897,1,8,0:0:0:0:
224,224,69044,1,0,0:0:0:0:
288,224,69191,1,8,0:0:0:0:
288,224,69264,1,8,0:0:0:0:
224,224,69338,1,0,0:0:0:0:
288,224,69485,1,8,0:0:0:0:
224,224,69632,1,0,0:0:0:0:
288,224,69706,1,8,0:0:0:0:
288,224,69779,1,8,0:0:0:0:
288,224,69853,1,8,0:0:0:0:
224,224,69926,1,0,0:0:0:0:
288,224,70073,1,8,0:0:0:0:
224,224,70220,1,0,0:0:0:0:
288,224,70367,1,8,0:0:0:0:
224,224,70514,1,0,0:0:0:0:
224,224,70588,1,0,0:0:0:0:
288,224,70661,1,8,0:0:0:0:
288,224,70809,1,8,0:0:0:0:
224,224,70882,1,0,0:0:0:0:
288,224,70956,1,8,0:0:0:0:
288,224,71029,1,8,0:0:0:0:
224,224,71103,1,0,0:0:0:0:
224,224,71250,1,0,0:0:0:0:
224,224,71323,1,0,0:0:0:0:
288,224,71397,1,8,0:0:0:0:
288,224,71544,1,8,0:0:0:0:
288,224,71691,1,8,0:0:0:0:
224,224,71764,1,0,0:0:0:0:
288,224,71838,1,8,0:0:0:0:
288,224,71911,1,8,0:0:0:0:
224,224,71985,1,0,0:0:0:0:
288,224,72132,1,8,0:0:0:0:
224,224,72206,1,0,0:0:0:0:
288,224,72279,1,8,0:0:0:0:
288,224,72426,1,8,0:0:0:0:
224,224,72573,1,0,0:0:0:0:
288,224,72720,1,8,0:0:0:0:
224,224,72867,1,0,0:0:0:0:
224,224,72941,1,0,0:0:0:0:
288,224,73014,1,8,0:0:0:0:
224,224,73088,1,0,0:0:0:0:
224,224,73161,1,0,0:0:0:0:
288,224,73309,1,8,0:0:0:0:
224,224,73456,1,0,0:0:0:0:
224,224,73529,1,0,0:0:0:0:
288,224,73603,1,8,0:0:0:0:
224,224,73750,1,0,0:0:0:0:
288,224,73897,1,8,0:0:0:0:
288,224,73970,1,8,0:0:0:0:
224,224,74044,1,0,0:0:0:0:
224,224,74117,1,0,0:0:0:0:
288,224,74191,1,8,0:0:0:0:
224,224,74338,1,0,0:0:0:0:
288,224,74485,1,8,0:0:0:0:
288,224,74559,1,8,0:0:0:0:
224,224,74632,1,0,0:0:0:0:
288,224,74779,1,8,0:0:0:0:
224,224,74926,1,0,0:0:0:0:
288,224,75073,1,8,0:0:0:0:
224,224,75147,1,0,0:0:0:0:
288,224,75220,1,8,0:0:0:0:
288,224,75294,1,8,0:0:0:0:
288,224,75367,1,8,0:0:0:0:
224,224,75441,1,0,0:0:0:0:
288,224,75514,1,8,0:0:0:0:
224,224,75735,1,0,0:0:0:0:
224,224,75809,1,0,0:0:0:0:
224,224,75956,1,0,0:0:0:0:
288,224,76103,1,8,0:0:0:0:
224,224,76176,1,0,0:0:0:0:
224,224,76250,1,0,0:0:0:0:
288,224,76323,1,8,0:0:0:0:
224,224,76397,1,0,0:0:0:0:
224,224,76470,1,0,0:0:0:0:
288,224,76544,1,8,0:0:0:0:
224,224,76617,1,0,0:0:0:0:
224,224,76691,1,0,0:0:0:0:
288,224,76764,1,8,0:0:0:0:
224,224,76838,1,0,0:0:0:0:
224,224,76911,1,0,0:0:0:0:
288,224,76985,1,8,0:0:0:0:
224,224,77059,1,0,0:0:0:0:
288,224,77132,1,8,0:0:0:0:
224,224,77181,1,0,0:0:0:0:
224,224,77230,1,0,0:0:0:0:
288,224,77279,1,8,0:0:0:0:
224,224,77353,1,0,0:0:0:0:
288,224,77426,1,8,0:0:0:0:
288,224,77500,1,8,0:0:0:0:
288,224,77573,1,8,0:0:0:0:
224,224,77647,1,0,0:0:0:0:
288,224,77720,1,8,0:0:0:0:
224,224,77794,1,0,0:0:0:0:
288,224,77867,1,8,0:0:0:0:
224,224,77941,1,0,0:0:0:0:
224,224,78014,1,0,0:0:0:0:
288,224,78088,1,8,0:0:0:0:
224,224,78161,1,0,0:0:0:0:
224,224,78235,1,0,0:0:0:0:
288,224,78309,1,8,0:0:0:0:
224,224,78382,1,0,0:0:0:0:
288,224,78456,1,8,0:0:0:0:
224,224,78529,1,0,0:0:0:0:
224,224,78603,1,0,0:0:0:0:
288,224,78676,1,8,0:0:0:0:
224,224,78750,1,0,0:0:0:0:
224,224,78823,1,0,0:0:0:0:
288,224,78897,1,8,0:0:0:0:
224,224,78970,1,0,0:0:0:0:
288,224,79044,1,8,0:0:0:0:
224,224,79117,1,0,0:0:0:0:
224,224,79191,1,0,0:0:0:0:
288,224,79264,1,8,0:0:0:0:
224,224,79338,1,0,0:0:0:0:
224,224,79411,1,0,0:0:0:0:
288,224,79485,1,8,0:0:0:0:
224,224,79559,1,0,0:0:0:0:
288,224,79632,1,8,0:0:0:0:
224,224,79706,1,0,0:0:0:0:
224,224,79779,1,0,0:0:0:0:
288,224,79853,1,8,0:0:0:0:
224,224,79926,1,0,0:0:0:0:
224,224,80000,1,0,0:0:0:0:
288,224,80073,1,8,0:0:0:0:
224,224,80147,1,0,0:0:0:0:
288,224,80220,1,8,0:0:0:0:
224,224,80294,1,0,0:0:0:0:
224,224,80367,1,0,0:0:0:0:
288,224,80441,1,8,0:0:0:0:
288,224,80514,1,8,0:0:0:0:
288,224,80661,1,8,0:0:0:0:
288,224,80809,1,8,0:0:0:0:
224,224,80882,1,0,0:0:0:0:
288,224,80956,1,8,0:0:0:0:
288,224,81029,1,8,0:0:0:0:
224,224,81103,1,0,0:0:0:0:
224,224,81176,1,0,0:0:0:0:
288,224,81250,1,8,0:0:0:0:
224,224,81323,1,0,0:0:0:0:
288,224,81397,1,8,0:0:0:0:
288,224,81470,1,8,0:0:0:0:
224,224,81544,1,0,0:0:0:0:
288,224,81617,1,8,0:0:0:0:
224,224,81691,1,0,0:0:0:0:
224,224,81764,1,0,0:0:0:0:
288,224,81838,1,8,0:0:0:0:
224,224,81911,1,0,0:0:0:0:
288,224,81985,1,8,0:0:0:0:
288,224,82059,1,8,0:0:0:0:
224,224,82132,1,0,0:0:0:0:
288,224,82206,1,8,0:0:0:0:
224,224,82279,1,0,0:0:0:0:
224,224,82353,1,0,0:0:0:0:
288,224,82426,1,8,0:0:0:0:
224,224,82500,1,0,0:0:0:0:
288,224,82573,1,8,0:0:0:0:
288,224,82647,1,8,0:0:0:0:
224,224,82720,1,0,0:0:0:0:
288,224,82794,1,8,0:0:0:0:
224,224,82867,1,0,0:0:0:0:
224,224,82941,1,0,0:0:0:0:
288,224,83014,1,8,0:0:0:0:
224,224,83088,1,0,0:0:0:0:
288,224,83161,1,8,0:0:0:0:
224,224,83235,1,0,0:0:0:0:
288,224,83309,1,8,0:0:0:0:
288,224,83456,1,8,0:0:0:0:
224,224,83529,1,0,0:0:0:0:
288,224,83603,1,8,0:0:0:0:
288,224,83750,1,8,0:0:0:0:
224,224,83823,1,0,0:0:0:0:
288,224,83897,1,8,0:0:0:0:
288,224,84044,1,8,0:0:0:0:
224,224,84191,1,0,0:0:0:0:
224,224,84338,1,0,0:0:0:0:
288,224,84411,1,8,0:0:0:0:
288,224,84485,1,8,0:0:0:0:
224,224,84559,1,0,0:0:0:0:
288,224,84632,1,8,0:0:0:0:
288,224,84730,1,8,0:0:0:0:
224,224,84828,1,0,0:0:0:0:
288,224,84926,1,8,0:0:0:0:
288,224,85000,1,8,0:0:0:0:
224,224,85073,1,0,0:0:0:0:
224,224,85147,1,0,0:0:0:0:
288,224,85220,1,8,0:0:0:0:
288,224,85514,1,8,0:0:0:0:
224,224,85588,1,0,0:0:0:0:
288,224,85661,1,8,0:0:0:0:
288,224,85735,1,8,0:0:0:0:
224,224,85809,1,0,0:0:0:0:
224,224,85882,1,0,0:0:0:0:
288,224,85956,1,8,0:0:0:0:
224,224,86029,1,0,0:0:0:0:
288,224,86103,1,8,0:0:0:0:
288,224,86176,1,8,0:0:0:0:
224,224,86250,1,0,0:0:0:0:
224,224,86323,1,0,0:0:0:0:
288,224,86397,1,8,0:0:0:0:
224,224,86470,1,0,0:0:0:0:
288,224,86544,1,8,0:0:0:0:
288,224,86617,1,8,0:0:0:0:
224,224,86691,1,0,0:0:0:0:
224,224,86764,1,0,0:0:0:0:
288,224,86838,1,8,0:0:0:0:
224,224,86911,1,0,0:0:0:0:
288,224,86985,1,8,0:0:0:0:
288,224,87059,1,8,0:0:0:0:
224,224,87132,1,0,0:0:0:0:
224,224,87206,1,0,0:0:0:0:
288,224,87279,1,8,0:0:0:0:
224,224,87353,1,0,0:0:0:0:
224,224,87426,1,0,0:0:0:0:
288,224,87500,1,8,0:0:0:0:
224,224,87573,1,0,0:0:0:0:
224,224,87647,1,0,0:0:0:0:
288,224,87720,1,8,0:0:0:0:
224,224,87794,1,0,0:0:0:0:
224,224,87867,1,0,0:0:0:0:
224,224,87941,1,0,0:0:0:0:
288,224,88014,1,8,0:0:0:0:
224,224,88088,1,0,0:0:0:0:
288,224,88161,1,8,0:0:0:0:
288,224,88235,1,8,0:0:0:0:
224,224,88309,1,0,0:0:0:0:
288,224,88382,1,8,0:0:0:0:
288,224,88456,1,8,0:0:0:0:
224,224,88529,1,0,0:0:0:0:
288,224,88603,1,8,0:0:0:0:
288,224,88676,1,8,0:0:0:0:
224,224,88750,1,0,0:0:0:0:
288,224,88823,1,8,0:0:0:0:
288,224,88897,1,8,0:0:0:0:
224,224,88970,1,0,0:0:0:0:
288,224,89044,1,8,0:0:0:0:
288,224,89117,1,8,0:0:0:0:
224,224,89191,1,0,0:0:0:0:
288,224,89264,1,8,0:0:0:0:
224,224,89338,1,0,0:0:0:0:
288,224,89411,1,8,0:0:0:0:
288,224,89485,1,8,0:0:0:0:
224,224,89559,1,0,0:0:0:0:
224,224,89632,1,0,0:0:0:0:
224,224,89706,1,0,0:0:0:0:
288,224,89779,1,8,0:0:0:0:
224,224,89853,1,0,0:0:0:0:
224,224,89926,1,0,0:0:0:0:
288,224,90073,1,8,0:0:0:0:
224,224,90220,1,0,0:0:0:0:
288,224,90367,1,8,0:0:0:0:
224,224,90514,1,0,0:0:0:0:
224,224,90588,1,0,0:0:0:0:
288,224,90661,1,8,0:0:0:0:
288,224,90809,1,8,0:0:0:0:
288,224,90956,1,8,0:0:0:0:
224,224,91103,1,0,0:0:0:0:
224,224,91176,1,0,0:0:0:0:
288,224,91250,1,8,0:0:0:0:
288,224,91397,1,8,0:0:0:0:
224,224,91544,1,0,0:0:0:0:
224,224,91617,1,0,0:0:0:0:
288,224,91691,1,8,0:0:0:0:
288,224,91838,1,8,0:0:0:0:
224,224,91911,1,0,0:0:0:0:
288,224,91985,1,8,0:0:0:0:
288,224,92059,1,8,0:0:0:0:
224,224,92132,1,0,0:0:0:0:
288,224,92279,1,8,0:0:0:0:
224,224,92353,1,0,0:0:0:0:
224,224,92426,1,0,0:0:0:0:
288,224,92573,1,8,0:0:0:0:
288,224,92720,1,8,0:0:0:0:
224,224,92867,1,0,0:0:0:0:
224,224,93014,1,0,0:0:0:0:
224,224,93088,1,0,0:0:0:0:
288,224,93161,1,8,0:0:0:0:
224,224,93235,1,0,0:0:0:0:
288,224,93309,1,8,0:0:0:0:
288,224,93456,1,8,0:0:0:0:
224,224,93529,1,0,0:0:0:0:
224,224,93603,1,0,0:0:0:0:
288,224,93897,1,8,0:0:0:0:
224,224,93970,1,0,0:0:0:0:
288,224,94044,1,8,0:0:0:0:
224,224,94191,1,0,0:0:0:0:
224,224,94338,1,0,0:0:0:0:
224,224,94411,1,0,0:0:0:0:
224,224,94485,1,0,0:0:0:0:
224,224,94559,1,0,0:0:0:0:
288,224,94632,1,8,0:0:0:0:
288,224,94706,1,8,0:0:0:0:
288,224,94779,1,8,0:0:0:0:
288,224,94853,1,8,0:0:0:0:
288,224,94926,1,8,0:0:0:0:
224,224,95000,1,0,0:0:0:0:
224,224,95073,1,0,0:0:0:0:
288,224,95147,1,8,0:0:0:0:
224,224,95220,1,0,0:0:0:0:
224,224,95294,1,0,0:0:0:0:
288,224,95367,1,8,0:0:0:0:
224,224,95440,1,0,0:0:0:0:
224,224,95514,1,0,0:0:0:0:
288,224,95588,1,8,0:0:0:0:
224,224,95661,1,0,0:0:0:0:
224,224,95735,1,0,0:0:0:0:
288,224,95809,1,8,0:0:0:0:
224,224,95882,1,0,0:0:0:0:
288,224,95956,1,8,0:0:0:0:
224,224,96029,1,0,0:0:0:0:
288,224,96103,1,8,0:0:0:0:
224,224,96176,1,0,0:0:0:0:
288,224,96250,1,8,0:0:0:0:
224,224,96323,1,0,0:0:0:0:
288,224,96397,1,8,0:0:0:0:
288,224,96470,1,8,0:0:0:0:
288,224,96544,1,8,0:0:0:0:
224,224,96617,1,0,0:0:0:0:
288,224,96691,1,8,0:0:0:0:
288,224,96764,1,8,0:0:0:0:
288,224,96838,1,8,0:0:0:0:
224,224,96911,1,0,0:0:0:0:
288,224,96985,1,8,0:0:0:0:
224,224,97059,1,0,0:0:0:0:
288,224,97132,1,8,0:0:0:0:
288,224,97206,1,8,0:0:0:0:
288,224,97279,1,8,0:0:0:0:
224,224,97353,1,0,0:0:0:0:
288,224,97426,1,8,0:0:0:0:
224,224,97500,1,0,0:0:0:0:
288,224,97573,1,8,0:0:0:0:
288,224,97647,1,8,0:0:0:0:
288,224,97720,1,8,0:0:0:0:
224,224,97794,1,0,0:0:0:0:
288,224,97867,1,8,0:0:0:0:
288,224,98014,1,8,0:0:0:0:
224,224,98161,1,0,0:0:0:0:
224,224,98235,1,0,0:0:0:0:
288,224,98309,1,8,0:0:0:0:
224,224,98382,1,0,0:0:0:0:
288,224,98456,1,8,0:0:0:0:
224,224,98529,1,0,0:0:0:0:
288,224,98603,1,8,0:0:0:0:
224,224,98676,1,0,0:0:0:0:
288,224,98750,1,8,0:0:0:0:
224,224,98823,1,0,0:0:0:0:
288,224,98897,1,8,0:0:0:0:
224,224,98970,1,0,0:0:0:0:
288,224,99044,1,8,0:0:0:0:
288,224,99191,1,8,0:0:0:0:
224,224,99338,1,0,0:0:0:0:
224,224,99485,1,0,0:0:0:0:
288,224,99632,1,8,0:0:0:0:
288,224,99779,1,8,0:0:0:0:
224,224,100073,1,0,0:0:0:0:
288,224,100147,1,8,0:0:0:0:
288,224,100220,1,8,0:0:0:0:
288,224,100367,1,8,0:0:0:0:
288,224,100514,1,8,0:0:0:0:
288,224,100661,1,8,0:0:0:0:
224,224,100735,1,0,0:0:0:0:
288,224,100809,1,8,0:0:0:0:
288,224,100956,1,8,0:0:0:0:
288,224,101029,1,8,0:0:0:0:
288,224,101176,1,8,0:0:0:0:
224,224,101250,1,0,0:0:0:0:
288,224,101323,1,8,0:0:0:0:
288,224,101397,1,8,0:0:0:0:
224,224,101544,1,0,0:0:0:0:
288,224,101691,1,8,0:0:0:0:
288,224,101838,1,8,0:0:0:0:
224,224,101911,1,0,0:0:0:0:
224,224,101985,1,0,0:0:0:0:
288,224,102059,1,8,0:0:0:0:
224,224,102132,1,0,0:0:0:0:
288,224,102206,1,8,0:0:0:0:
224,224,102279,1,0,0:0:0:0:
288,224,102353,1,8,0:0:0:0:
224,224,102426,1,0,0:0:0:0:
288,224,102500,1,8,0:0:0:0:
224,224,102573,1,0,0:0:0:0:
288,224,102647,1,8,0:0:0:0:
288,224,102720,1,8,0:0:0:0:
288,224,102794,1,8,0:0:0:0:
224,224,102867,1,0,0:0:0:0:
288,224,102941,1,8,0:0:0:0:
224,224,103014,1,0,0:0:0:0:
288,224,103088,1,8,0:0:0:0:
224,224,103161,1,0,0:0:0:0:
288,224,103309,1,8,0:0:0:0:
224,224,103456,1,0,0:0:0:0:
288,224,103603,1,8,0:0:0:0:
288,224,103750,1,8,0:0:0:0:
288,224,103823,1,8,0:0:0:0:
224,224,103897,1,0,0:0:0:0:
288,224,103970,1,8,0:0:0:0:
288,224,104117,1,8,0:0:0:0:
288,224,104191,1,8,0:0:0:0:
288,160,104338,1,12,0:0:0:0:
288,160,105367,1,12,0:0:0:0:
288,160,105661,1,12,0:0:0:0:
288,160,106397,1,12,0:0:0:0:
288,160,106691,1,12,0:0:0:0:
288,160,107720,1,12,0:0:0:0:
288,160,108014,1,12,0:0:0:0:
288,160,108750,1,12,0:0:0:0:
288,160,109044,1,12,0:0:0:0:
288,224,109191,1,8,0:0:0:0:
224,224,109338,1,0,0:0:0:0:
224,224,109411,1,0,0:0:0:0:
288,224,109485,1,8,0:0:0:0:
224,224,109632,1,0,0:0:0:0:
224,224,109706,1,0,0:0:0:0:
288,224,109779,1,8,0:0:0:0:
224,224,109926,1,0,0:0:0:0:
288,160,110073,1,12,0:0:0:0:
288,160,110367,1,12,0:0:0:0:
224,224,110514,1,0,0:0:0:0:
224,224,110588,1,0,0:0:0:0:
288,224,110661,1,8,0:0:0:0:
224,224,110809,1,0,0:0:0:0:
224,224,110882,1,0,0:0:0:0:
288,224,110956,1,8,0:0:0:0:
288,160,111103,1,12,0:0:0:0:
288,160,111397,1,12,0:0:0:0:
288,224,111544,1,8,0:0:0:0:
224,224,111691,1,0,0:0:0:0:
224,224,111764,1,0,0:0:0:0:
288,224,111838,1,8,0:0:0:0:
224,224,111985,1,0,0:0:0:0:
224,224,112059,1,0,0:0:0:0:
288,224,112132,1,8,0:0:0:0:
224,224,112279,1,0,0:0:0:0:
224,160,112426,1,4,0:0:0:0:
288,160,112720,1,12,0:0:0:0:
224,224,112867,2,0,L|72:224,1,140
288,224,113309,1,8,0:0:0:0:
288,224,113382,1,8,0:0:0:0:
288,224,113456,1,8,0:0:0:0:
288,224,113529,1,8,0:0:0:0:
288,224,113603,1,8,0:0:0:0:
288,224,113676,1,8,0:0:0:0:
224,224,113750,1,0,0:0:0:0:
224,224,113823,1,0,0:0:0:0:
288,224,113897,1,8,0:0:0:0:
224,224,113970,1,0,0:0:0:0:
224,224,114044,1,0,0:0:0:0:
288,224,114117,1,8,0:0:0:0:
288,224,114191,1,8,0:0:0:0:
224,224,114264,1,0,0:0:0:0:
288,224,114338,1,8,0:0:0:0:
288,224,114411,1,8,0:0:0:0:
288,224,114485,1,8,0:0:0:0:
224,224,114559,1,0,0:0:0:0:
288,224,114632,1,8,0:0:0:0:
288,224,114706,1,8,0:0:0:0:
288,224,114779,1,8,0:0:0:0:
224,224,114853,1,0,0:0:0:0:
288,224,114926,1,8,0:0:0:0:
288,224,115000,1,8,0:0:0:0:
224,224,115073,1,0,0:0:0:0:
224,224,115147,1,0,0:0:0:0:
224,224,115220,1,0,0:0:0:0:
288,224,115294,1,8,0:0:0:0:
288,224,115367,1,8,0:0:0:0:
224,224,115441,1,0,0:0:0:0:
288,224,115514,1,8,0:0:0:0:
288,224,115588,1,8,0:0:0:0:
224,224,115661,1,0,0:0:0:0:
288,224,115735,1,8,0:0:0:0:
224,224,115809,1,0,0:0:0:0:
224,224,115882,1,0,0:0:0:0:
288,224,115956,1,8,0:0:0:0:
288,224,116029,1,8,0:0:0:0:
224,224,116103,1,0,0:0:0:0:
288,224,116176,1,8,0:0:0:0:
224,224,116250,1,0,0:0:0:0:
224,224,116323,1,0,0:0:0:0:
288,224,116397,1,8,0:0:0:0:
224,224,116470,1,0,0:0:0:0:
224,224,116544,1,0,0:0:0:0:
288,224,116617,1,8,0:0:0:0:
288,224,116691,1,8,0:0:0:0:
224,224,116764,1,0,0:0:0:0:
288,224,116838,1,8,0:0:0:0:
224,224,116911,1,0,0:0:0:0:
224,224,116985,1,0,0:0:0:0:
288,224,117059,1,8,0:0:0:0:
224,224,117132,1,0,0:0:0:0:
224,224,117206,1,0,0:0:0:0:
288,224,117279,1,8,0:0:0:0:
288,224,117353,1,8,0:0:0:0:
288,224,117426,1,8,0:0:0:0:
224,224,117500,1,0,0:0:0:0:
288,224,117573,1,8,0:0:0:0:
288,224,117647,1,8,0:0:0:0:
224,224,117720,1,0,0:0:0:0:
288,224,117794,1,8,0:0:0:0:
288,224,117867,1,8,0:0:0:0:
224,224,117941,1,0,0:0:0:0:
288,224,118014,1,8,0:0:0:0:
224,224,118088,1,0,0:0:0:0:
288,224,118161,1,8,0:0:0:0:
224,224,118456,1,0,0:0:0:0:
224,224,118529,1,0,0:0:0:0:
288,224,118603,1,8,0:0:0:0:
224,224,118676,1,0,0:0:0:0:
288,224,118750,1,8,0:0:0:0:
224,224,118823,1,0,0:0:0:0:
288,224,118897,1,8,0:0:0:0:
288,224,118970,1,8,0:0:0:0:
224,224,119044,1,0,0:0:0:0:
224,224,119117,1,0,0:0:0:0:
288,224,119191,1,8,0:0:0:0:
224,224,119264,1,0,0:0:0:0:
288,224,119338,1,8,0:0:0:0:
288,224,119411,1,8,0:0:0:0:
224,224,119485,1,0,0:0:0:0:
288,224,119559,1,8,0:0:0:0:
288,224,119632,1,8,0:0:0:0:
224,224,119706,1,0,0:0:0:0:
288,224,119779,1,8,0:0:0:0:
288,224,119853,1,8,0:0:0:0:
224,224,119926,1,0,0:0:0:0:
288,224,120000,1,8,0:0:0:0:
288,224,120073,1,8,0:0:0:0:
224,224,120147,1,0,0:0:0:0:
288,224,120220,1,8,0:0:0:0:
288,224,120294,1,8,0:0:0:0:
224,224,120367,1,0,0:0:0:0:
224,224,120441,1,0,0:0:0:0:
288,224,120514,1,8,0:0:0:0:
224,224,120588,1,0,0:0:0:0:
288,224,120661,1,8,0:0:0:0:
288,224,120735,1,8,0:0:0:0:
224,224,120809,1,0,0:0:0:0:
288,224,120882,1,8,0:0:0:0:
224,224,120956,1,0,0:0:0:0:
224,224,121029,1,0,0:0:0:0:
224,224,121103,1,0,0:0:0:0:
288,224,121176,1,8,0:0:0:0:
224,224,121250,1,0,0:0:0:0:
224,224,121323,1,0,0:0:0:0:
224,224,121397,1,0,0:0:0:0:
288,224,121470,1,8,0:0:0:0:
224,224,121544,1,0,0:0:0:0:
224,224,121617,1,0,0:0:0:0:
224,224,121691,1,0,0:0:0:0:
288,224,121764,1,8,0:0:0:0:
224,224,121838,1,0,0:0:0:0:
224,224,121911,1,0,0:0:0:0:
224,224,121985,1,0,0:0:0:0:
288,224,122059,1,8,0:0:0:0:
288,224,122132,1,8,0:0:0:0:
224,224,122206,1,0,0:0:0:0:
224,224,122279,1,0,0:0:0:0:
288,224,122353,1,8,0:0:0:0:
288,224,122426,1,8,0:0:0:0:
224,224,122500,1,0,0:0:0:0:
224,224,122573,1,0,0:0:0:0:
288,224,122720,1,8,0:0:0:0:
224,224,122867,1,0,0:0:0:0:
288,224,123014,1,8,0:0:0:0:
288,224,123309,1,8,0:0:0:0:
288,224,123456,1,8,0:0:0:0:
288,224,123603,1,8,0:0:0:0:
288,224,123750,1,8,0:0:0:0:
288,224,123897,1,8,0:0:0:0:
224,224,124044,1,0,0:0:0:0:
288,224,124191,1,8,0:0:0:0:
288,224,124485,1,8,0:0:0:0:
224,224,124632,1,0,0:0:0:0:
224,224,124779,1,0,0:0:0:0:
288,224,124926,1,8,0:0:0:0:
288,224,125073,1,8,0:0:0:0:
224,224,125220,1,0,0:0:0:0:
288,224,125367,1,8,0:0:0:0:
288,224,125661,1,8,0:0:0:0:
224,224,125809,1,0,0:0:0:0:
224,224,125956,1,0,0:0:0:0:
288,224,126103,1,8,0:0:0:0:
224,224,126250,1,0,0:0:0:0:
288,224,126397,1,8,0:0:0:0:
288,224,126544,1,8,0:0:0:0:
224,224,126691,1,0,0:0:0:0:
288,224,126838,1,8,0:0:0:0:
224,224,126985,1,0,0:0:0:0:
224,224,127132,1,0,0:0:0:0:
224,224,127279,1,0,0:0:0:0:
224,224,127426,1,0,0:0:0:0:
288,224,127720,1,8,0:0:0:0:
288,224,128014,1,8,0:0:0:0:
224,224,128161,1,0,0:0:0:0:
224,224,128259,1,0,0:0:0:0:
288,224,128358,1,8,0:0:0:0:
224,224,128456,1,0,0:0:0:0:
224,224,128554,1,0,0:0:0:0:
288,224,128652,1,8,0:0:0:0:
224,224,128750,1,0,0:0:0:0:
288,224,128848,1,8,0:0:0:0:
288,224,128946,1,8,0:0:0:0:
224,224,129044,1,0,0:0:0:0:
288,224,129142,1,8,0:0:0:0:
288,224,129240,1,8,0:0:0:0:
288,224,129338,1,8,0:0:0:0:
224,224,129436,1,0,0:0:0:0:
288,224,129534,1,8,0:0:0:0:
224,224,129632,1,0,0:0:0:0:
288,224,129730,1,8,0:0:0:0:
224,224,129828,1,0,0:0:0:0:
288,224,129926,1,8,0:0:0:0:
224,224,130024,1,0,0:0:0:0:
288,224,130122,1,8,0:0:0:0:
224,224,130220,1,0,0:0:0:0:
288,224,130318,1,8,0:0:0:0:
224,224,130416,1,0,0:0:0:0:
288,224,130514,1,8,0:0:0:0:
224,224,130612,1,0,0:0:0:0:
288,224,130710,1,8,0:0:0:0:
224,224,130809,1,0,0:0:0:0:
288,224,130907,1,8,0:0:0:0:
224,224,131005,1,0,0:0:0:0:
288,224,131103,1,8,0:0:0:0:
288,224,131250,1,8,0:0:0:0:
224,224,131397,1,0,0:0:0:0:
288,224,131544,1,8,0:0:0:0:
288,224,131691,1,8,0:0:0:0:
224,224,131838,1,0,0:0:0:0:
288,224,131985,1,8,0:0:0:0:
224,224,132132,1,0,0:0:0:0:
288,224,132426,1,8,0:0:0:0:
288,224,132720,1,8,0:0:0:0:
224,224,132867,1,0,0:0:0:0:
288,224,133014,1,8,0:0:0:0:
224,224,133309,1,0,0:0:0:0:
288,224,133603,1,8,0:0:0:0:
224,224,133750,1,0,0:0:0:0:
288,224,133897,1,8,0:0:0:0:
224,224,134191,1,0,0:0:0:0:
224,224,134485,1,0,0:0:0:0:
224,224,134632,1,0,0:0:0:0:
224,224,134779,1,0,0:0:0:0:
288,224,135073,1,8,0:0:0:0:
288,224,135367,1,8,0:0:0:0:
224,224,135661,1,0,0:0:0:0:
288,224,135809,1,8,0:0:0:0:
224,224,135956,1,0,0:0:0:0:
288,224,136103,1,8,0:0:0:0:
224,224,136250,1,0,0:0:0:0:
288,224,136397,1,8,0:0:0:0:
224,224,136544,1,0,0:0:0:0:
288,224,136691,1,8,0:0:0:0:
224,224,136838,1,0,0:0:0:0:
288,224,136985,1,8,0:0:0:0:
224,224,137132,1,0,0:0:0:0:
288,224,137279,1,8,0:0:0:0:
224,224,137377,1,0,0:0:0:0:
224,224,137475,1,0,0:0:0:0:
288,224,137573,1,8,0:0:0:0:
224,224,137671,1,0,0:0:0:0:
224,224,137769,1,0,0:0:0:0:
288,224,137867,1,8,0:0:0:0:
224,224,137965,1,0,0:0:0:0:
224,224,138063,1,0,0:0:0:0:
288,224,138161,1,8,0:0:0:0:
224,224,138259,1,0,0:0:0:0:
224,224,138358,1,0,0:0:0:0:
288,224,138456,1,8,0:0:0:0:
224,224,138554,1,0,0:0:0:0:
224,224,138652,1,0,0:0:0:0:
288,224,138750,1,8,0:0:0:0:
224,224,138848,1,0,0:0:0:0:
224,224,138946,1,0,0:0:0:0:
288,224,139044,1,8,0:0:0:0:
224,224,139142,1,0,0:0:0:0:
224,224,139240,1,0,0:0:0:0:
288,224,139338,1,8,0:0:0:0:
224,224,139436,1,0,0:0:0:0:
224,224,139534,1,0,0:0:0:0:
288,224,139632,1,8,0:0:0:0:
288,224,140073,1,8,0:0:0:0:
288,224,140514,1,8,0:0:0:0:
288,224,140956,1,8,0:0:0:0:
288,224,141397,1,8,0:0:0:0:
288,224,141691,1,8,0:0:0:0:
288,160,141985,1,12,0:0:0:0:
288,160,142132,1,12,0:0:0:0:
288,160,142279,1,12,0:0:0:0:
288,160,142426,1,12,0:0:0:0:
288,160,142573,1,12,0:0:0:0:
288,160,142867,1,12,0:0:0:0:
288,160,143014,1,12,0:0:0:0:
288,160,143161,1,12,0:0:0:0:
288,160,143309,1,12,0:0:0:0:
288,160,143456,1,12,0:0:0:0:
224,224,143603,1,0,0:0:0:0:
288,224,143897,1,8,0:0:0:0:
288,160,144338,1,12,0:0:0:0:
288,160,144485,1,12,0:0:0:0:
288,160,144632,1,12,0:0:0:0:
288,160,144779,1,12,0:0:0:0:
288,160,144926,1,12,0:0:0:0:
288,160,145220,1,12,0:0:0:0:
288,160,145367,1,12,0:0:0:0:
288,160,145514,1,12,0:0:0:0:
288,160,145661,1,12,0:0:0:0:
288,160,145809,1,12,0:0:0:0:
224,224,145956,1,0,0:0:0:0:
288,224,146103,1,8,0:0:0:0:
224,224,146250,1,0,0:0:0:0:
288,224,146397,1,8,0:0:0:0:
288,224,146470,1,8,0:0:0:0:
224,224,146544,1,0,0:0:0:0:
224,224,146617,1,0,0:0:0:0:
224,224,146691,1,0,0:0:0:0:
288,224,146764,1,8,0:0:0:0:
288,224,146838,1,8,0:0:0:0:
224,224,146911,1,0,0:0:0:0:
224,224,146985,1,0,0:0:0:0:
288,224,147059,1,8,0:0:0:0:
288,224,147132,1,8,0:0:0:0:
224,224,147206,1,0,0:0:0:0:
224,224,147279,1,0,0:0:0:0:
288,224,147353,1,8,0:0:0:0:
288,224,147426,1,8,0:0:0:0:
288,224,147500,1,8,0:0:0:0:
224,224,147573,1,0,0:0:0:0:
288,224,147647,1,8,0:0:0:0:
224,224,147720,1,0,0:0:0:0:
224,224,147794,1,0,0:0:0:0:
224,224,147867,1,0,0:0:0:0:
288,224,147941,1,8,0:0:0:0:
224,224,148014,1,0,0:0:0:0:
224,224,148088,1,0,0:0:0:0:
224,224,148161,1,0,0:0:0:0:
288,224,148235,1,8,0:0:0:0:
224,224,148309,1,0,0:0:0:0:
224,224,148382,1,0,0:0:0:0:
224,224,148456,1,0,0:0:0:0:
288,224,148529,1,8,0:0:0:0:
224,224,148603,1,0,0:0:0:0:
224,224,148676,1,0,0:0:0:0:
224,224,148750,1,0,0:0:0:0:
288,224,148823,1,8,0:0:0:0:
224,224,148897,1,0,0:0:0:0:
224,224,148970,1,0,0:0:0:0:
288,224,149044,1,8,0:0:0:0:
224,224,149191,1,0,0:0:0:0:
224,224,149338,1,0,0:0:0:0:
288,224,149485,1,8,0:0:0:0:
224,224,149926,1,0,0:0:0:0:
224,224,150073,1,0,0:0:0:0:
224,224,150220,1,0,0:0:0:0:
288,224,150367,1,8,0:0:0:0:
288,224,150514,1,8,0:0:0:0:
288,224,150661,1,8,0:0:0:0:
224,224,150809,1,0,0:0:0:0:
288,224,150956,1,8,0:0:0:0:
288,224,151103,1,8,0:0:0:0:
288,224,151176,1,8,0:0:0:0:
288,224,151250,1,8,0:0:0:0:
288,224,151397,1,8,0:0:0:0:
288,224,151470,1,8,0:0:0:0:
224,224,151544,1,0,0:0:0:0:
224,224,151691,1,0,0:0:0:0:
288,224,151838,1,8,0:0:0:0:
288,224,151911,1,8,0:0:0:0:
224,224,151985,1,0,0:0:0:0:
224,224,152059,1,0,0:0:0:0:
288,224,152132,1,8,0:0:0:0:
224,224,152206,1,0,0:0:0:0:
288,224,152279,1,8,0:0:0:0:
224,224,152426,1,0,0:0:0:0:
288,224,152573,1,8,0:0:0:0:
288,224,152720,1,8,0:0:0:0:
224,224,152794,1,0,0:0:0:0:
288,224,152867,1,8,0:0:0:0:
288,224,153014,1,8,0:0:0:0:
288,224,153088,1,8,0:0:0:0:
224,224,153161,1,0,0:0:0:0:
224,224,153309,1,0,0:0:0:0:
224,224,153456,1,0,0:0:0:0:
224,224,153529,1,0,0:0:0:0:
224,224,153603,1,0,0:0:0:0:
288,224,153750,1,8,0:0:0:0:
288,224,153823,1,8,0:0:0:0:
224,224,153897,1,0,0:0:0:0:
288,224,153970,1,8,0:0:0:0:
224,224,154044,1,0,0:0:0:0:
288,224,154191,1,8,0:0:0:0:
288,224,154338,1,8,0:0:0:0:
288,224,154411,1,8,0:0:0:0:
224,224,154485,1,0,0:0:0:0:
288,224,154632,1,8,0:0:0:0:
288,224,154779,1,8,0:0:0:0:
224,224,154853,1,0,0:0:0:0:
224,224,154926,1,0,0:0:0:0:
224,224,155073,1,0,0:0:0:0:
224,224,155220,1,0,0:0:0:0:
224,224,155367,1,0,0:0:0:0:
224,224,155441,1,0,0:0:0:0:
288,224,155514,1,8,0:0:0:0:
288,224,155588,1,8,0:0:0:0:
288,224,155661,1,8,0:0:0:0:
288,224,155735,1,8,0:0:0:0:
224,224,155809,1,0,0:0:0:0:
224,224,155882,1,0,0:0:0:0:
224,224,155956,1,0,0:0:0:0:
224,224,156029,1,0,0:0:0:0:
288,224,156103,1,8,0:0:0:0:
224,224,156250,1,0,0:0:0:0:
224,224,156323,1,0,0:0:0:0:
288,224,156397,1,8,0:0:0:0:
224,224,156544,1,0,0:0:0:0:
224,224,156617,1,0,0:0:0:0:
288,224,156691,1,8,0:0:0:0:
288,224,156838,1,8,0:0:0:0:
288,224,156911,1,8,0:0:0:0:
224,224,156985,1,0,0:0:0:0:
288,224,157132,1,8,0:0:0:0:
224,224,157279,1,0,0:0:0:0:
288,224,157426,1,8,0:0:0:0:
288,224,157500,1,8,0:0:0:0:
224,224,157573,1,0,0:0:0:0:
288,224,157720,1,8,0:0:0:0:
288,224,157794,1,8,0:0:0:0:
224,224,157867,1,0,0:0:0:0:
224,224,158014,1,0,0:0:0:0:
224,224,158088,1,0,0:0:0:0:
288,224,158161,1,8,0:0:0:0:
224,224,158309,1,0,0:0:0:0:
288,224,158456,1,8,0:0:0:0:
288,224,158529,1,8,0:0:0:0:
224,224,158603,1,0,0:0:0:0:
288,224,158676,1,8,0:0:0:0:
288,224,158750,1,8,0:0:0:0:
288,224,158897,1,8,0:0:0:0:
224,224,158970,1,0,0:0:0:0:
288,224,159044,1,8,0:0:0:0:
224,224,159191,1,0,0:0:0:0:
224,224,159264,1,0,0:0:0:0:
288,224,159338,1,8,0:0:0:0:
288,224,159485,1,8,0:0:0:0:
224,224,159632,1,0,0:0:0:0:
224,224,159706,1,0,0:0:0:0:
288,224,159779,1,8,0:0:0:0:
224,224,159853,1,0,0:0:0:0:
288,224,159926,1,8,0:0:0:0:
224,224,160073,1,0,0:0:0:0:
224,224,160147,1,0,0:0:0:0:
288,224,160220,1,8,0:0:0:0:
288,224,160318,1,8,0:0:0:0:
288,224,160416,1,8,0:0:0:0:
288,224,160514,1,8,0:0:0:0:
288,224,160612,1,8,0:0:0:0:
288,224,160710,1,8,0:0:0:0:
224,224,160809,1,0,0:0:0:0:
224,224,160956,1,0,0:0:0:0:
224,224,161250,1,0,0:0:0:0:
288,224,161397,1,8,0:0:0:0:
224,224,161544,1,0,0:0:0:0:
224,224,161838,1,0,0:0:0:0:
288,224,161985,1,8,0:0:0:0:
224,224,162132,1,0,0:0:0:0:
224,224,162206,1,0,0:0:0:0:
288,224,162279,1,8,0:0:0:0:
288,224,162426,1,8,0:0:0:0:
224,224,162573,1,0,0:0:0:0:
288,224,162720,1,8,0:0:0:0:
288,224,162867,1,8,0:0:0:0:
224,224,163014,1,0,0:0:0:0:
224,224,163161,1,0,0:0:0:0:
224,224,163309,1,0,0:0:0:0:
224,224,163603,1,0,0:0:0:0:
288,224,163750,1,8,0:0:0:0:
288,224,163897,1,8,0:0:0:0:
224,224,164044,1,0,0:0:0:0:
288,224,164338,1,8,0:0:0:0:
288,224,164485,1,8,0:0:0:0:
288,224,164559,1,8,0:0:0:0:
288,224,164632,1,8,0:0:0:0:
288,224,164779,1,8,0:0:0:0:
288,224,164853,1,8,0:0:0:0:
288,224,164926,1,8,0:0:0:0:
288,224,165073,1,8,0:0:0:0:
288,160,165220,1,12,0:0:0:0:
288,224,165367,1,8,0:0:0:0:
288,224,165441,1,8,0:0:0:0:
224,224,165514,1,0,0:0:0:0:
224,224,165588,1,0,0:0:0:0:
224,224,165661,1,0,0:0:0:0:
224,224,165735,1,0,0:0:0:0:
288,224,165808,1,8,0:0:0:0:
224,224,165956,1,0,0:0:0:0:
224,224,166029,1,0,0:0:0:0:
288,224,166103,1,8,0:0:0:0:
288,224,166250,1,8,0:0:0:0:
288,224,166396,1,8,0:0:0:0:
224,224,166470,1,0,0:0:0:0:
288,224,166544,1,8,0:0:0:0:
288,224,166691,1,8,0:0:0:0:
288,224,166764,1,8,0:0:0:0:
224,224,166838,1,0,0:0:0:0:
288,224,166985,1,8,0:0:0:0:
288,224,167058,1,8,0:0:0:0:
224,224,167132,1,0,0:0:0:0:
288,224,167279,1,8,0:0:0:0:
288,224,167352,1,8,0:0:0:0:
224,224,167426,1,0,0:0:0:0:
224,224,167499,1,0,0:0:0:0:
224,224,167573,1,0,0:0:0:0:
224,224,167720,1,0,0:0:0:0:
288,224,167867,1,8,0:0:0:0:
288,224,167941,1,8,0:0:0:0:
224,224,168014,1,0,0:0:0:0:
288,224,168161,1,8,0:0:0:0:
288,224,168235,1,8,0:0:0:0:
224,224,168308,1,0,0:0:0:0:
288,224,168456,1,8,0:0:0:0:
288,224,168529,1,8,0:0:0:0:
224,224,168603,1,0,0:0:0:0:
224,224,168749,1,0,0:0:0:0:
224,224,168897,1,0,0:0:0:0:
288,224,169044,1,8,0:0:0:0:
224,224,169117,1,0,0:0:0:0:
288,224,169191,1,8,0:0:0:0:
224,224,169264,1,0,0:0:0:0:
224,224,169338,1,0,0:0:0:0:
224,224,169485,1,0,0:0:0:0:
224,224,169558,1,0,0:0:0:0:
288,224,169632,1,8,0:0:0:0:
288,224,169779,1,8,0:0:0:0:
224,224,169926,1,0,0:0:0:0:
288,224,170073,1,8,0:0:0:0:
224,224,170220,1,0,0:0:0:0:
224,224,170294,1,0,0:0:0:0:
224,224,170367,1,0,0:0:0:0:
224,224,170441,1,0,0:0:0:0:
288,224,170514,1,8,0:0:0:0:
224,224,170662,1,0,0:0:0:0:
224,224,170735,1,0,0:0:0:0:
288,224,170809,1,8,0:0:0:0:
224,224,170882,1,0,0:0:0:0:
288,224,170956,1,8,0:0:0:0:
224,224,171103,1,0,0:0:0:0:
224,224,171250,1,0,0:0:0:0:
288,224,171397,1,8,0:0:0:0:
288,224,171470,1,8,0:0:0:0:
224,224,171544,1,0,0:0:0:0:
288,224,171691,1,8,0:0:0:0:
288,224,171764,1,8,0:0:0:0:
224,224,171838,1,0,0:0:0:0:
288,224,171985,1,8,0:0:0:0:
288,224,172058,1,8,0:0:0:0:
224,224,172132,1,0,0:0:0:0:
224,224,172205,1,0,0:0:0:0:
224,224,172279,1,0,0:0:0:0:
224,224,172426,1,0,0:0:0:0:
224,224,172499,1,0,0:0:0:0:
288,224,172573,1,8,0:0:0:0:
288,224,172646,1,8,0:0:0:0:
224,224,172720,1,0,0:0:0:0:
288,224,172867,1,8,0:0:0:0:
288,224,172941,1,8,0:0:0:0:
224,224,173014,1,0,0:0:0:0:
288,224,173162,1,8,0:0:0:0:
288,224,173235,1,8,0:0:0:0:
224,224,173309,1,0,0:0:0:0:
224,224,173456,1,0,0:0:0:0:
224,224,173603,1,0,0:0:0:0:
224,224,173676,1,0,0:0:0:0:
288,224,173750,1,8,0:0:0:0:
288,224,173897,1,8,0:0:0:0:
288,224,173970,1,8,0:0:0:0:
224,224,174044,1,0,0:0:0:0:
224,224,174191,1,0,0:0:0:0:
288,224,174338,1,8,0:0:0:0:
224,224,174411,1,0,0:0:0:0:
288,224,174485,1,8,0:0:0:0:
224,224,174632,1,0,0:0:0:0:
224,224,174779,1,0,0:0:0:0:
224,224,174853,1,0,0:0:0:0:
288,224,174926,1,8,0:0:0:0:
288,224,175000,1,8,0:0:0:0:
224,224,175073,1,0,0:0:0:0:
224,224,175147,1,0,0:0:0:0:
288,224,175220,1,8,0:0:0:0:
288,224,175294,1,8,0:0:0:0:
288,224,175367,1,8,0:0:0:0:
224,224,175441,1,0,0:0:0:0:
224,224,175514,1,0,0:0:0:0:
288,224,175588,1,8,0:0:0:0:
288,224,175661,1,8,0:0:0:0:
288,224,175735,1,8,0:0:0:0:
224,224,175809,1,0,0:0:0:0:
224,224,175882,1,0,0:0:0:0:
288,224,175956,1,8,0:0:0:0:
288,224,176029,1,8,0:0:0:0:
288,224,176103,1,8,0:0:0:0:
224,224,176176,1,0,0:0:0:0:
224,224,176250,1,0,0:0:0:0:
288,224,176323,1,8,0:0:0:0:
288,224,176397,1,8,0:0:0:0:
288,224,176470,1,8,0:0:0:0:
224,224,176544,1,0,0:0:0:0:
224,224,176617,1,0,0:0:0:0:
288,224,176691,1,8,0:0:0:0:
288,224,176764,1,8,0:0:0:0:
288,224,176838,1,8,0:0:0:0:
224,224,176911,1,0,0:0:0:0:
224,224,176985,1,0,0:0:0:0:
288,224,177059,1,8,0:0:0:0:
288,224,177132,1,8,0:0:0:0:
224,224,177206,1,0,0:0:0:0:
288,224,177279,1,8,0:0:0:0:
288,224,177353,1,8,0:0:0:0:
224,224,177426,1,0,0:0:0:0:
288,224,177573,1,8,0:0:0:0:
288,224,177647,1,8,0:0:0:0:
224,224,177720,1,0,0:0:0:0:
288,224,177868,1,8,0:0:0:0:
288,224,177941,1,8,0:0:0:0:
224,224,178015,1,0,0:0:0:0:
224,224,178161,1,0,0:0:0:0:
224,224,178309,1,0,0:0:0:0:
288,224,178456,1,8,0:0:0:0:
224,224,178529,1,0,0:0:0:0:
288,224,178603,1,8,0:0:0:0:
288,224,178676,1,8,0:0:0:0:
224,224,178750,1,0,0:0:0:0:
288,224,178823,1,8,0:0:0:0:
288,224,178897,1,8,0:0:0:0:
224,224,178970,1,0,0:0:0:0:
288,224,179044,1,8,0:0:0:0:
224,224,179117,1,0,0:0:0:0:
288,224,179191,1,8,0:0:0:0:
288,224,179264,1,8,0:0:0:0:
224,224,179338,1,0,0:0:0:0:
224,224,179411,1,0,0:0:0:0:
288,224,179485,1,8,0:0:0:0:
288,224,179559,1,8,0:0:0:0:
288,224,179632,1,8,0:0:0:0:
224,224,179779,1,0,0:0:0:0:
224,224,179853,1,0,0:0:0:0:
288,224,179926,1,8,0:0:0:0:
224,224,180074,1,0,0:0:0:0:
224,224,180147,1,0,0:0:0:0:
288,224,180221,1,8,0:0:0:0:
224,224,180294,1,0,0:0:0:0:
288,224,180368,1,8,0:0:0:0:
224,224,180515,1,0,0:0:0:0:
224,224,180662,1,0,0:0:0:0:
288,224,180809,1,8,0:0:0:0:
288,224,180882,1,8,0:0:0:0:
224,224,180956,1,0,0:0:0:0:
224,224,181029,1,0,0:0:0:0:
288,224,181103,1,8,0:0:0:0:
288,224,181176,1,8,0:0:0:0:
224,224,181250,1,0,0:0:0:0:
224,224,181323,1,0,0:0:0:0:
288,224,181397,1,8,0:0:0:0:
288,224,181470,1,8,0:0:0:0:
224,224,181544,1,0,0:0:0:0:
288,224,181617,1,8,0:0:0:0:
224,224,181691,1,0,0:0:0:0:
224,224,181838,1,0,0:0:0:0:
288,224,181985,1,8,0:0:0:0:
288,224,182059,1,8,0:0:0:0:
224,224,182132,1,0,0:0:0:0:
288,224,182279,1,8,0:0:0:0:
288,224,182353,1,8,0:0:0:0:
224,224,182426,1,0,0:0:0:0:
288,224,182574,1,8,0:0:0:0:
288,224,182647,1,8,0:0:0:0:
224,224,182721,1,0,0:0:0:0:
224,224,182868,1,0,0:0:0:0:
224,224,183015,1,0,0:0:0:0:
224,224,183088,1,0,0:0:0:0:
288,224,183162,1,8,0:0:0:0:
288,224,183309,1,8,0:0:0:0:
288,224,183382,1,8,0:0:0:0:
224,224,183456,1,0,0:0:0:0:
224,224,183603,1,0,0:0:0:0:
288,224,183750,1,8,0:0:0:0:
224,224,183823,1,0,0:0:0:0:
288,224,183897,1,8,0:0:0:0:
224,224,184044,1,0,0:0:0:0:
224,224,184191,1,0,0:0:0:0:
288,224,184338,1,8,0:0:0:0:
288,224,184485,1,8,0:0:0:0:
224,224,184559,1,0,0:0:0:0:
288,224,184632,1,8,0:0:0:0:
224,224,184779,1,0,0:0:0:0:
288,224,184926,1,8,0:0:0:0:
288,224,185220,1,8,0:0:0:0:
288,224,185367,1,8,0:0:0:0:
224,224,185661,1,0,0:0:0:0:
288,224,185809,1,8,0:0:0:0:
224,224,185956,1,0,0:0:0:0:
288,224,186103,1,8,0:0:0:0:
288,224,186397,1,8,0:0:0:0:
224,224,186544,1,0,0:0:0:0:
224,224,186691,1,0,0:0:0:0:
224,224,186764,1,0,0:0:0:0:
224,224,186838,1,0,0:0:0:0:
288,224,186985,1,8,0:0:0:0:
288,224,187132,1,8,0:0:0:0:
224,224,187206,1,0,0:0:0:0:
288,224,187279,1,8,0:0:0:0:
288,224,187426,1,8,0:0:0:0:
224,224,187573,1,0,0:0:0:0:
288,224,187720,1,8,0:0:0:0:
224,224,188014,1,0,0:0:0:0:
288,224,188161,1,8,0:0:0:0:
224,224,188309,1,0,0:0:0:0:
288,224,188456,1,8,0:0:0:0:
224,224,188603,1,0,0:0:0:0:
288,224,188750,1,8,0:0:0:0:
224,224,188823,1,0,0:0:0:0:
288,224,188897,1,8,0:0:0:0:
224,224,188970,1,0,0:0:0:0:
288,224,189044,1,8,0:0:0:0:
288,224,189485,1,8,0:0:0:0:
288,224,189926,1,8,0:0:0:0:
224,224,190220,1,0,0:0:0:0:
288,224,190809,1,8,0:0:0:0:
288,224,190882,1,8,0:0:0:0:
288,224,190956,1,8,0:0:0:0:
288,224,191029,1,8,0:0:0:0:
288,224,191103,1,8,0:0:0:0:
288,224,191176,1,8,0:0:0:0:
288,224,191250,1,8,0:0:0:0:
288,224,191323,1,8,0:0:0:0:
224,224,191397,1,0,0:0:0:0:
224,224,191544,1,0,0:0:0:0:
224,224,191617,1,0,0:0:0:0:
288,224,191691,1,8,0:0:0:0:
224,224,191838,1,0,0:0:0:0:
224,224,191911,1,0,0:0:0:0:
288,224,191985,1,8,0:0:0:0:
224,224,192132,1,0,0:0:0:0:
224,224,192206,1,0,0:0:0:0:
288,224,192279,1,8,0:0:0:0:
288,224,192353,1,8,0:0:0:0:
224,224,192426,1,0,0:0:0:0:
224,224,192500,1,0,0:0:0:0:
288,224,192573,1,8,0:0:0:0:
288,224,192647,1,8,0:0:0:0:
288,224,192720,1,8,0:0:0:0:
288,224,192794,1,8,0:0:0:0:
224,224,192867,1,0,0:0:0:0:
224,224,192941,1,0,0:0:0:0:
224,224,193014,1,0,0:0:0:0:
224,224,193088,1,0,0:0:0:0:
224,224,193161,1,0,0:0:0:0:
224,224,193210,1,0,0:0:0:0:
224,224,193259,1,0,0:0:0:0:
224,224,193309,1,0,0:0:0:0:
224,224,193382,1,0,0:0:0:0:
288,224,193456,1,8,0:0:0:0:
288,224,193529,1,8,0:0:0:0:
288,224,193603,1,8,0:0:0:0:
288,224,193676,1,8,0:0:0:0:
288,224,193750,1,8,0:0:0:0:
224,224,193823,1,0,0:0:0:0:
288,224,193897,1,8,0:0:0:0:
224,224,194044,1,0,0:0:0:0:
288,224,194191,1,8,0:0:0:0:
288,224,194265,1,8,0:0:0:0:
224,224,194338,1,0,0:0:0:0:
288,224,194485,1,8,0:0:0:0:
224,224,194632,1,0,0:0:0:0:
224,224,194706,1,0,0:0:0:0:
288,224,194779,1,8,0:0:0:0:
224,224,194853,1,0,0:0:0:0:
224,224,194926,1,0,0:0:0:0:
288,224,195073,1,8,0:0:0:0:
288,224,195147,1,8,0:0:0:0:
224,224,195220,1,0,0:0:0:0:
288,224,195368,1,8,0:0:0:0:
288,224,195515,1,8,0:0:0:0:
224,224,195588,1,0,0:0:0:0:
288,224,195662,1,8,0:0:0:0:
288,224,195735,1,8,0:0:0:0:
224,224,195809,1,0,0:0:0:0:
288,224,195956,1,8,0:0:0:0:
224,224,196103,1,0,0:0:0:0:
288,224,196250,1,8,0:0:0:0:
288,224,196323,1,8,0:0:0:0:
224,224,196397,1,0,0:0:0:0:
288,224,196544,1,8,0:0:0:0:
224,224,196691,1,0,0:0:0:0:
288,224,196765,1,8,0:0:0:0:
288,224,196838,1,8,0:0:0:0:
288,224,196912,1,8,0:0:0:0:
224,224,196985,1,0,0:0:0:0:
288,224,197132,1,8,0:0:0:0:
224,224,197279,1,0,0:0:0:0:
288,224,197426,1,8,0:0:0:0:
224,224,197573,1,0,0:0:0:0:
224,224,197647,1,0,0:0:0:0:
288,224,197720,1,8,0:0:0:0:
288,224,197868,1,8,0:0:0:0:
224,224,197941,1,0,0:0:0:0:
288,224,198015,1,8,0:0:0:0:
288,224,198088,1,8,0:0:0:0:
224,224,198162,1,0,0:0:0:0:
224,224,198309,1,0,0:0:0:0:
224,224,198382,1,0,0:0:0:0:
288,224,198456,1,8,0:0:0:0:
288,224,198603,1,8,0:0:0:0:
288,224,198750,1,8,0:0:0:0:
224,224,198823,1,0,0:0:0:0:
288,224,198897,1,8,0:0:0:0:
288,224,198970,1,8,0:0:0:0:
224,224,199044,1,0,0:0:0:0:
288,224,199191,1,8,0:0:0:0:
224,224,199265,1,0,0:0:0:0:
288,224,199338,1,8,0:0:0:0:
288,224,199485,1,8,0:0:0:0:
224,224,199632,1,0,0:0:0:0:
288,224,199779,1,8,0:0:0:0:
224,224,199926,1,0,0:0:0:0:
224,224,200000,1,0,0:0:0:0:
288,224,200073,1,8,0:0:0:0:
224,224,200147,1,0,0:0:0:0:
224,224,200220,1,0,0:0:0:0:
288,224,200368,1,8,0:0:0:0:
224,224,200515,1,0,0:0:0:0:
224,224,200588,1,0,0:0:0:0:
288,224,200662,1,8,0:0:0:0:
224,224,200809,1,0,0:0:0:0:
288,224,200956,1,8,0:0:0:0:
288,224,201029,1,8,0:0:0:0:
224,224,201103,1,0,0:0:0:0:
224,224,201176,1,0,0:0:0:0:
288,224,201250,1,8,0:0:0:0:
224,224,201397,1,0,0:0:0:0:
288,224,201544,1,8,0:0:0:0:
288,224,201618,1,8,0:0:0:0:
224,224,201691,1,0,0:0:0:0:
288,224,201838,1,8,0:0:0:0:
224,224,201985,1,0,0:0:0:0:
288,224,202132,1,8,0:0:0:0:
224,224,202206,1,0,0:0:0:0:
288,224,202279,1,8,0:0:0:0:
288,224,202353,1,8,0:0:0:0:
288,224,202426,1,8,0:0:0:0:
224,224,202500,1,0,0:0:0:0:
288,224,202573,1,8,0:0:0:0:
224,224,202868,1,0,0:0:0:0:
288,224,202941,1,8,0:0:0:0:
224,224,203015,1,0,0:0:0:0:
288,160,203161,1,12,0:0:0:0:
288,160,203456,1,12,0:0:0:0:
224,160,203750,1,4,0:0:0:0:
224,160,204044,1,4,0:0:0:0:
288,160,204338,1,12,0:0:0:0:
288,160,204632,1,12,0:0:0:0:
224,160,204926,1,4,0:0:0:0:
288,160,205220,1,12,0:0:0:0:
224,160,205514,1,4,0:0:0:0:
288,224,205661,1,8,0:0:0:0:
224,224,205809,1,0,0:0:0:0:
224,224,205882,1,0,0:0:0:0:
288,224,205956,1,8,0:0:0:0:
288,224,206103,1,8,0:0:0:0:
288,224,206250,1,8,0:0:0:0:
288,224,206397,1,8,0:0:0:0:
224,224,206470,1,0,0:0:0:0:
288,224,206544,1,8,0:0:0:0:
224,224,206691,1,0,0:0:0:0:
224,224,206764,1,0,0:0:0:0:
288,224,206838,1,8,0:0:0:0:
224,224,206911,1,0,0:0:0:0:
288,224,206985,1,8,0:0:0:0:
288,224,207132,1,8,0:0:0:0:
288,224,207206,1,8,0:0:0:0:
224,224,207279,1,0,0:0:0:0:
288,224,207426,1,8,0:0:0:0:
288,224,207573,1,8,0:0:0:0:
224,224,207647,1,0,0:0:0:0:
224,224,207720,1,0,0:0:0:0:
224,224,207794,1,0,0:0:0:0:
288,224,207867,1,8,0:0:0:0:
224,224,207965,1,0,0:0:0:0:
224,224,208063,1,0,0:0:0:0:
288,224,208161,1,8,0:0:0:0:
224,224,208259,1,0,0:0:0:0:
224,224,208358,1,0,0:0:0:0:
288,224,208456,1,8,0:0:0:0:
288,224,208554,1,8,0:0:0:0:
224,224,208652,1,0,0:0:0:0:
288,224,208750,1,8,0:0:0:0:
288,224,208848,1,8,0:0:0:0:
224,224,208946,1,0,0:0:0:0:
288,224,209044,1,8,0:0:0:0:
224,224,209117,1,0,0:0:0:0:
224,224,209191,1,0,0:0:0:0:
288,224,209264,1,8,0:0:0:0:
224,224,209338,1,0,0:0:0:0:
224,224,209411,1,0,0:0:0:0:
288,224,209485,1,8,0:0:0:0:
224,224,209559,1,0,0:0:0:0:
288,224,209632,1,8,0:0:0:0:
288,224,209706,1,8,0:0:0:0:
224,224,209779,1,0,0:0:0:0:
288,224,209853,1,8,0:0:0:0:
288,224,209926,1,8,0:0:0:0:
224,224,210000,1,0,0:0:0:0:
288,224,210073,1,8,0:0:0:0:
224,224,210147,1,0,0:0:0:0:
288,224,210220,1,8,0:0:0:0:
256,192,210294,8,8,212279,0:0:0:0:
224,224,212573,5,0,0:0:0:0:
288,224,212720,1,8,0:0:0:0:
224,224,212867,1,0,0:0:0:0:
224,224,212940,1,0,0:0:0:0:
288,224,213014,1,8,0:0:0:0:
224,224,213161,1,0,0:0:0:0:
224,224,213235,1,0,0:0:0:0:
288,224,213308,1,8,0:0:0:0:
224,224,213455,1,0,0:0:0:0:
288,224,213602,1,8,0:0:0:0:
224,224,213749,1,0,0:0:0:0:
224,224,213823,1,0,0:0:0:0:
288,224,213896,1,8,0:0:0:0:
288,224,213970,1,8,0:0:0:0:
224,224,214043,1,0,0:0:0:0:
224,224,214117,1,0,0:0:0:0:
288,224,214190,1,8,0:0:0:0:
224,224,214338,1,0,0:0:0:0:
224,224,214411,1,0,0:0:0:0:
288,224,214485,1,8,0:0:0:0:
224,224,214558,1,0,0:0:0:0:
288,224,214632,1,8,0:0:0:0:
288,224,214705,1,8,0:0:0:0:
288,224,214779,1,8,0:0:0:0:
224,224,214852,1,0,0:0:0:0:
288,224,214926,1,8,0:0:0:0:
288,224,215073,1,8,0:0:0:0:
224,224,215220,1,0,0:0:0:0:
224,224,215293,1,0,0:0:0:0:
288,224,215367,1,8,0:0:0:0:
224,224,215514,1,0,0:0:0:0:
224,224,215588,1,0,0:0:0:0:
288,224,215661,1,8,0:0:0:0:
224,224,215808,1,0,0:0:0:0:
288,224,215955,1,8,0:0:0:0:
224,224,216102,1,0,0:0:0:0:
288,224,216249,1,8,0:0:0:0:
288,224,216323,1,8,0:0:0:0:
224,224,216396,1,0,0:0:0:0:
224,224,216470,1,0,0:0:0:0:
288,224,216543,1,8,0:0:0:0:
288,224,216690,1,8,0:0:0:0:
224,224,216764,1,0,0:0:0:0:
288,224,216838,1,8,0:0:0:0:
288,224,216911,1,8,0:0:0:0:
224,224,216985,1,0,0:0:0:0:
224,224,217058,1,0,0:0:0:0:
288,224,217132,1,8,0:0:0:0:
224,224,217205,1,0,0:0:0:0:
288,224,217279,1,8,0:0:0:0:
288,224,217426,1,8,0:0:0:0:
224,224,217573,1,0,0:0:0:0:
224,224,217646,1,0,0:0:0:0:
288,224,217720,1,8,0:0:0:0:
224,224,217867,1,0,0:0:0:0:
224,224,217940,1,0,0:0:0:0:
288,224,218014,1,8,0:0:0:0:
224,224,218161,1,0,0:0:0:0:
288,224,218308,1,8,0:0:0:0:
288,224,218382,1,8,0:0:0:0:
224,224,218455,1,0,0:0:0:0:
288,224,218602,1,8,0:0:0:0:
224,224,218749,1,0,0:0:0:0:
224,224,218823,1,0,0:0:0:0:
288,224,218896,1,8,0:0:0:0:
224,224,219043,1,0,0:0:0:0:
224,224,219117,1,0,0:0:0:0:
288,224,219190,1,8,0:0:0:0:
288,224,219264,1,8,0:0:0:0:
224,224,219338,1,0,0:0:0:0:
224,224,219411,1,0,0:0:0:0:
288,224,219485,1,8,0:0:0:0:
224,224,219558,1,0,0:0:0:0:
288,224,219632,1,8,0:0:0:0:
288,224,219779,1,8,0:0:0:0:
224,224,219926,1,0,0:0:0:0:
224,224,219999,1,0,0:0:0:0:
288,224,220073,1,8,0:0:0:0:
224,224,220146,1,0,0:0:0:0:
288,224,220220,1,8,0:0:0:0:
288,224,220367,1,8,0:0:0:0:
224,224,220514,1,0,0:0:0:0:
288,224,220809,1,8,0:0:0:0:
288,224,220858,1,8,0:0:0:0:
288,224,220907,1,8,0:0:0:0:
224,224,220956,1,0,0:0:0:0:
224,224,221102,1,0,0:0:0:0:
288,224,221250,1,8,0:0:0:0:
288,224,221299,1,8,0:0:0:0:
288,224,221348,1,8,0:0:0:0:
224,224,221397,1,0,0:0:0:0:
224,224,221544,1,0,0:0:0:0:
288,224,221691,1,8,0:0:0:0:
224,224,221764,1,0,0:0:0:0:
288,224,221838,1,8,0:0:0:0:
224,224,221985,1,0,0:0:0:0:
288,224,222132,1,8,0:0:0:0:
224,224,222279,1,0,0:0:0:0:
224,224,222352,1,0,0:0:0:0:
288,224,222426,1,8,0:0:0:0:
224,224,222573,1,0,0:0:0:0:
224,224,222647,1,0,0:0:0:0:
288,224,222720,1,8,0:0:0:0:
224,224,222867,1,0,0:0:0:0:
288,224,223014,1,8,0:0:0:0:
224,224,223161,1,0,0:0:0:0:
224,224,223235,1,0,0:0:0:0:
288,224,223308,1,8,0:0:0:0:
288,224,223382,1,8,0:0:0:0:
224,224,223455,1,0,0:0:0:0:
224,224,223529,1,0,0:0:0:0:
288,224,223602,1,8,0:0:0:0:
224,224,223750,1,0,0:0:0:0:
224,224,223823,1,0,0:0:0:0:
288,224,223897,1,8,0:0:0:0:
224,224,223970,1,0,0:0:0:0:
288,224,224044,1,8,0:0:0:0:
288,224,224117,1,8,0:0:0:0:
288,224,224191,1,8,0:0:0:0:
224,224,224264,1,0,0:0:0:0:
288,224,224338,1,8,0:0:0:0:
288,224,224485,1,8,0:0:0:0:
224,224,224632,1,0,0:0:0:0:
224,224,224705,1,0,0:0:0:0:
288,224,224779,1,8,0:0:0:0:
224,224,224926,1,0,0:0:0:0:
224,224,225000,1,0,0:0:0:0:
288,224,225073,1,8,0:0:0:0:
224,224,225220,1,0,0:0:0:0:
288,224,225367,1,8,0:0:0:0:
224,224,225514,1,0,0:0:0:0:
288,224,225661,1,8,0:0:0:0:
288,224,225735,1,8,0:0:0:0:
224,224,225808,1,0,0:0:0:0:
224,224,225882,1,0,0:0:0:0:
288,224,225955,1,8,0:0:0:0:
288,224,226102,1,8,0:0:0:0:
224,224,226176,1,0,0:0:0:0:
288,224,226250,1,8,0:0:0:0:
288,224,226323,1,8,0:0:0:0:
224,224,226397,1,0,0:0:0:0:
224,224,226470,1,0,0:0:0:0:
288,224,226544,1,8,0:0:0:0:
224,224,226617,1,0,0:0:0:0:
288,224,226691,1,8,0:0:0:0:
288,224,226838,1,8,0:0:0:0:
224,224,226985,1,0,0:0:0:0:
224,224,227058,1,0,0:0:0:0:
288,224,227132,1,8,0:0:0:0:
224,224,227279,1,0,0:0:0:0:
224,224,227352,1,0,0:0:0:0:
288,224,227426,1,8,0:0:0:0:
224,224,227573,1,0,0:0:0:0:
288,224,227720,1,8,0:0:0:0:
288,224,227794,1,8,0:0:0:0:
224,224,227867,1,0,0:0:0:0:
288,224,228014,1,8,0:0:0:0:
224,224,228161,1,0,0:0:0:0:
224,224,228235,1,0,0:0:0:0:
288,224,228308,1,8,0:0:0:0:
224,224,228455,1,0,0:0:0:0:
224,224,228529,1,0,0:0:0:0:
288,224,228602,1,8,0:0:0:0:
288,224,228676,1,8,0:0:0:0:
224,224,228750,1,0,0:0:0:0:
224,224,228823,1,0,0:0:0:0:
288,224,228897,1,8,0:0:0:0:
224,224,228970,1,0,0:0:0:0:
288,224,229044,1,8,0:0:0:0:
288,224,229191,1,8,0:0:0:0:
224,224,229338,1,0,0:0:0:0:
224,224,229411,1,0,0:0:0:0:
288,224,229485,1,8,0:0:0:0:
224,224,229558,1,0,0:0:0:0:
288,224,229632,1,8,0:0:0:0:
288,224,229779,1,8,0:0:0:0:
224,224,229926,1,0,0:0:0:0:
224,224,230220,1,0,0:0:0:0:
224,224,230514,1,0,0:0:0:0:
224,224,230809,1,0,0:0:0:0:
288,224,231005,1,8,0:0:0:0:
288,224,231201,1,8,0:0:0:0:
288,224,231397,1,8,0:0:0:0:
288,224,231470,1,8,0:0:0:0:
224,224,231544,1,0,0:0:0:0:
224,224,231617,1,0,0:0:0:0:
288,224,231691,1,8,0:0:0:0:
288,224,231764,1,8,0:0:0:0:
224,224,231838,1,0,0:0:0:0:
224,224,231911,1,0,0:0:0:0:
288,224,231985,1,8,0:0:0:0:
224,224,232058,1,0,0:0:0:0:
288,224,232132,1,8,0:0:0:0:
224,224,232205,1,0,0:0:0:0:
288,224,232279,1,8,0:0:0:0:
224,224,232352,1,0,0:0:0:0:
288,224,232426,1,8,0:0:0:0:
224,224,232499,1,0,0:0:0:0:
288,224,232573,1,8,0:0:0:0:
288,224,232647,1,8,0:0:0:0:
224,224,232720,1,0,0:0:0:0:
224,224,232794,1,0,0:0:0:0:
288,224,232867,1,8,0:0:0:0:
288,224,232941,1,8,0:0:0:0:
224,224,233014,1,0,0:0:0:0:
224,224,233088,1,0,0:0:0:0:
288,224,233161,1,8,0:0:0:0:
224,224,233235,1,0,0:0:0:0:
288,224,233309,1,8,0:0:0:0:
224,224,233382,1,0,0:0:0:0:
288,224,233456,1,8,0:0:0:0:
224,224,233529,1,0,0:0:0:0:
288,224,233602,1,8,0:0:0:0:
224,224,233676,1,0,0:0:0:0:
288,224,233749,1,8,0:0:0:0:
288,224,233822,1,8,0:0:0:0:
224,224,233896,1,0,0:0:0:0:
224,224,233969,1,0,0:0:0:0:
288,224,234043,1,8,0:0:0:0:
288,224,234116,1,8,0:0:0:0:
224,224,234190,1,0,0:0:0:0:
224,224,234263,1,0,0:0:0:0:
288,224,234337,1,8,0:0:0:0:
224,224,234410,1,0,0:0:0:0:
288,224,234484,1,8,0:0:0:0:
224,224,234557,1,0,0:0:0:0:
288,224,234631,1,8,0:0:0:0:
224,224,234704,1,0,0:0:0:0:
288,224,234778,1,8,0:0:0:0:
224,224,234851,1,0,0:0:0:0:
288,224,234925,1,8,0:0:0:0:
288,224,234999,1,8,0:0:0:0:
224,224,235072,1,0,0:0:0:0:
224,224,235146,1,0,0:0:0:0:
288,224,235219,1,8,0:0:0:0:
288,224,235293,1,8,0:0:0:0:
224,224,235366,1,0,0:0:0:0:
224,224,235440,1,0,0:0:0:0:
288,224,235513,1,8,0:0:0:0:
224,224,235588,1,0,0:0:0:0:
288,224,235661,1,8,0:0:0:0:
224,224,235735,1,0,0:0:0:0:
288,224,235808,1,8,0:0:0:0:
288,224,235955,1,8,0:0:0:0:
288,224,236103,1,8,0:0:0:0:
288,224,236176,1,8,0:0:0:0:
224,224,236250,1,0,0:0:0:0:
224,224,236323,1,0,0:0:0:0:
288,224,236397,1,8,0:0:0:0:
288,224,236470,1,8,0:0:0:0:
224,224,236544,1,0,0:0:0:0:
224,224,236617,1,0,0:0:0:0:
288,224,236691,1,8,0:0:0:0:
224,224,236764,1,0,0:0:0:0:
288,224,236838,1,8,0:0:0:0:
224,224,236911,1,0,0:0:0:0:
288,224,236985,1,8,0:0:0:0:
224,224,237058,1,0,0:0:0:0:
288,224,237132,1,8,0:0:0:0:
224,224,237205,1,0,0:0:0:0:
288,224,237279,1,8,0:0:0:0:
288,224,237353,1,8,0:0:0:0:
224,224,237426,1,0,0:0:0:0:
224,224,237500,1,0,0:0:0:0:
288,224,237573,1,8,0:0:0:0:
288,224,237647,1,8,0:0:0:0:
224,224,237720,1,0,0:0:0:0:
224,224,237794,1,0,0:0:0:0:
288,224,237867,1,8,0:0:0:0:
224,224,237941,1,0,0:0:0:0:
288,224,238015,1,8,0:0:0:0:
224,224,238088,1,0,0:0:0:0:
288,224,238162,1,8,0:0:0:0:
224,224,238235,1,0,0:0:0:0:
288,224,238308,1,8,0:0:0:0:
224,224,238382,1,0,0:0:0:0:
288,224,238456,1,8,0:0:0:0:
288,224,238529,1,8,0:0:0:0:
224,224,238603,1,0,0:0:0:0:
224,224,238676,1,0,0:0:0:0:
288,224,238750,1,8,0:0:0:0:
288,224,238823,1,8,0:0:0:0:
224,224,238897,1,0,0:0:0:0:
224,224,238970,1,0,0:0:0:0:
288,224,239044,1,8,0:0:0:0:
224,224,239117,1,0,0:0:0:0:
288,224,239191,1,8,0:0:0:0:
224,224,239264,1,0,0:0:0:0:
288,224,239338,1,8,0:0:0:0:
224,224,239411,1,0,0:0:0:0:
224,224,239485,1,0,0:0:0:0:
224,224,239559,1,0,0:0:0:0:
288,224,239632,1,8,0:0:0:0:
288,224,239706,1,8,0:0:0:0:
224,224,239779,1,0,0:0:0:0:
224,224,239853,1,0,0:0:0:0:
224,224,239926,1,0,0:0:0:0:
224,224,240000,1,0,0:0:0:0:
288,224,240073,1,8,0:0:0:0:
288,224,240147,1,8,0:0:0:0:
224,224,240220,1,0,0:0:0:0:
224,224,240294,1,0,0:0:0:0:
224,224,240367,1,0,0:0:0:0:
224,224,240441,1,0,0:0:0:0:
288,224,240514,1,8,0:0:0:0:
224,224,240588,1,0,0:0:0:0:
288,224,240662,1,8,0:0:0:0:
224,224,240735,1,0,0:0:0:0:
288,224,240809,1,8,0:0:0:0:
288,224,240882,1,8,0:0:0:0:
224,224,240956,1,0,0:0:0:0:
224,224,241029,1,0,0:0:0:0:
288,224,241103,1,8,0:0:0:0:
288,224,241176,1,8,0:0:0:0:
224,224,241250,1,0,0:0:0:0:
224,224,241323,1,0,0:0:0:0:
288,224,241397,1,8,0:0:0:0:
224,224,241470,1,0,0:0:0:0:
288,224,241544,1,8,0:0:0:0:
224,224,241617,1,0,0:0:0:0:
288,224,241691,1,8,0:0:0:0:
224,224,241764,1,0,0:0:0:0:
288,224,241838,1,8,0:0:0:0:
224,224,241911,1,0,0:0:0:0:
288,224,241985,1,8,0:0:0:0:
288,224,242059,1,8,0:0:0:0:
224,224,242132,1,0,0:0:0:0:
224,224,242206,1,0,0:0:0:0:
288,224,242279,1,8,0:0:0:0:
288,224,242353,1,8,0:0:0:0:
224,224,242426,1,0,0:0:0:0:
224,224,242500,1,0,0:0:0:0:
288,224,242573,1,8,0:0:0:0:
224,224,242647,1,0,0:0:0:0:
288,224,242721,1,8,0:0:0:0:
224,224,242794,1,0,0:0:0:0:
288,224,242868,1,8,0:0:0:0:
224,224,242941,1,0,0:0:0:0:
288,224,243014,1,8,0:0:0:0:
224,224,243088,1,0,0:0:0:0:
288,224,243161,1,8,0:0:0:0:
288,224,243234,1,8,0:0:0:0:
224,224,243308,1,0,0:0:0:0:
224,224,243381,1,0,0:0:0:0:
288,224,243455,1,8,0:0:0:0:
288,224,243528,1,8,0:0:0:0:
224,224,243602,1,0,0:0:0:0:
224,224,243675,1,0,0:0:0:0:
288,224,243749,1,8,0:0:0:0:
224,224,243822,1,0,0:0:0:0:
288,224,243896,1,8,0:0:0:0:
224,224,243969,1,0,0:0:0:0:
288,224,244043,1,8,0:0:0:0:
224,224,244116,1,0,0:0:0:0:
288,224,244190,1,8,0:0:0:0:
224,224,244263,1,0,0:0:0:0:
288,224,244337,1,8,0:0:0:0:
288,224,244411,1,8,0:0:0:0:
224,224,244484,1,0,0:0:0:0:
224,224,244558,1,0,0:0:0:0:
288,224,244631,1,8,0:0:0:0:
288,224,244705,1,8,0:0:0:0:
224,224,244778,1,0,0:0:0:0:
224,224,244852,1,0,0:0:0:0:
288,224,244925,1,8,0:0:0:0:
224,224,245000,1,0,0:0:0:0:
288,224,245073,1,8,0:0:0:0:
224,224,245147,1,0,0:0:0:0:
288,224,245220,1,8,0:0:0:0:
288,224,245367,1,8,0:0:0:0:
288,224,245515,1,8,0:0:0:0:
288,224,245588,1,8,0:0:0:0:
224,224,245662,1,0,0:0:0:0:
224,224,245735,1,0,0:0:0:0:
288,224,245809,1,8,0:0:0:0:
288,224,245882,1,8,0:0:0:0:
224,224,245956,1,0,0:0:0:0:
224,224,246029,1,0,0:0:0:0:
288,224,246103,1,8,0:0:0:0:
224,224,246176,1,0,0:0:0:0:
288,224,246250,1,8,0:0:0:0:
224,224,246323,1,0,0:0:0:0:
288,224,246397,1,8,0:0:0:0:
224,224,246470,1,0,0:0:0:0:
288,224,246544,1,8,0:0:0:0:
224,224,246617,1,0,0:0:0:0:
288,224,246691,1,8,0:0:0:0:
288,224,246765,1,8,0:0:0:0:
224,224,246838,1,0,0:0:0:0:
224,224,246912,1,0,0:0:0:0:
288,224,246985,1,8,0:0:0:0:
288,224,247059,1,8,0:0:0:0:
224,224,247132,1,0,0:0:0:0:
224,224,247206,1,0,0:0:0:0:
288,224,247279,1,8,0:0:0:0:
224,224,247353,1,0,0:0:0:0:
288,224,247427,1,8,0:0:0:0:
224,224,247500,1,0,0:0:0:0:
288,224,247574,1,8,0:0:0:0:
224,224,247647,1,0,0:0:0:0:
288,224,247720,1,8,0:0:0:0:
224,224,247794,1,0,0:0:0:0:
288,224,247867,1,8,0:0:0:0:
224,224,247941,1,0,0:0:0:0:
288,224,248014,1,8,0:0:0:0:
224,224,248088,1,0,0:0:0:0:
288,224,248161,1,8,0:0:0:0:
224,224,248235,1,0,0:0:0:0:
288,224,248309,1,8,0:0:0:0:
224,224,248382,1,0,0:0:0:0:
288,224,248456,1,8,0:0:0:0:
224,224,248529,1,0,0:0:0:0:
288,224,248603,1,8,0:0:0:0:
224,224,248676,1,0,0:0:0:0:
224,224,248750,1,0,0:0:0:0:
224,224,248823,1,0,0:0:0:0:
288,224,248897,1,8,0:0:0:0:
288,224,248970,1,8,0:0:0:0:
288,224,249044,1,8,0:0:0:0:
256,192,249117,8,8,250073,0:0:0:0:
288,224,250220,5,8,0:0:0:0:
288,224,250294,1,8,0:0:0:0:
224,224,250367,1,0,0:0:0:0:
224,224,250441,1,0,0:0:0:0:
288,224,250514,1,8,0:0:0:0:
288,224,250588,1,8,0:0:0:0:
224,224,250661,1,0,0:0:0:0:
224,224,250735,1,0,0:0:0:0:
288,224,250809,1,8,0:0:0:0:
288,224,250883,1,8,0:0:0:0:
224,224,250956,1,0,0:0:0:0:
224,224,251030,1,0,0:0:0:0:
288,224,251103,1,8,0:0:0:0:
288,224,251177,1,8,0:0:0:0:
224,224,251250,1,0,0:0:0:0:
224,224,251324,1,0,0:0:0:0:
288,224,251397,1,8,0:0:0:0:
288,224,251471,1,8,0:0:0:0:
224,224,251544,1,0,0:0:0:0:
224,224,251618,1,0,0:0:0:0:
288,224,251691,1,8,0:0:0:0:
288,224,251765,1,8,0:0:0:0:
224,224,251838,1,0,0:0:0:0:
224,224,251912,1,0,0:0:0:0:
288,224,251985,1,8,0:0:0:0:
288,224,252083,1,8,0:0:0:0:
288,224,252181,1,8,0:0:0:0:
288,224,252279,1,8,0:0:0:0:
288,224,252377,1,8,0:0:0:0:
288,224,252475,1,8,0:0:0:0:
224,224,252573,1,0,0:0:0:0:
224,224,252720,1,0,0:0:0:0:
224,224,252867,1,0,0:0:0:0:
224,224,252941,1,0,0:0:0:0:
224,224,253014,1,0,0:0:0:0:
224,224,253088,1,0,0:0:0:0:
288,224,253161,1,8,0:0:0:0:
224,224,253309,1,0,0:0:0:0:
224,224,253456,1,0,0:0:0:0:
224,224,253529,1,0,0:0:0:0:
224,224,253603,1,0,0:0:0:0:
208,216,253676,1,0,0:0:0:0:
288,224,253750,1,8,0:0:0:0:
224,224,253897,1,0,0:0:0:0:
224,224,253970,1,0,0:0:0:0:
288,224,254044,1,8,0:0:0:0:
288,224,254191,1,8,0:0:0:0:
224,224,254264,1,0,0:0:0:0:
288,224,254338,1,8,0:0:0:0:
288,224,254485,1,8,0:0:0:0:
224,224,254632,1,0,0:0:0:0:
