osu file format v14

[General]
AudioFilename: r_ff5_bbrev.mp3
AudioLeadIn: 1500
PreviewTime: -1
Countdown: 0
SampleSet: None
StackLeniency: 0.7
Mode: 3
LetterboxInBreaks: 0
SpecialStyle: 0
WidescreenStoryboard: 0

[Editor]
DistanceSpacing: 0.8
BeatDivisor: 16
GridSize: 8
TimelineZoom: 1

[Metadata]
Title:B.B. - REVENGE -
TitleUnicode:B.B. - REVENGE -
Artist:AKHT
ArtistUnicode:AKHT
Creator:Lno
Version:4K - HD
Source:
Tags:
BeatmapID:1765875
BeatmapSetID:844126

[Difficulty]
HPDrainRate:8
CircleSize:4
OverallDifficulty:8
ApproachRate:8
SliderMultiplier:1.4
SliderTickRate:1

[Events]
//Background and Video events
0,0,"bbrev-bg.png",0,0
//Break Periods
//Storyboard Layer 0 (Background)
//Storyboard Layer 1 (Fail)
//Storyboard Layer 2 (Pass)
//Storyboard Layer 3 (Foreground)
//Storyboard Sound Samples

[TimingPoints]
831,294.118,4,1,0,15,1,0

[HitObjects]
64,192,831,5,0,0:0:0:0:
448,192,831,1,0,0:0:0:0:
192,192,904,1,0,0:0:0:0:
64,192,978,1,0,0:0:0:0:
192,192,1052,1,0,0:0:0:0:
320,192,1125,1,0,0:0:0:0:
448,192,1199,1,0,0:0:0:0:
64,192,1272,1,0,0:0:0:0:
448,192,1346,1,0,0:0:0:0:
192,192,1419,1,0,0:0:0:0:
320,192,1493,1,0,0:0:0:0:
192,192,1566,1,0,0:0:0:0:
320,192,1640,1,0,0:0:0:0:
64,192,1713,1,0,0:0:0:0:
192,192,1787,1,0,0:0:0:0:
64,192,1860,1,0,0:0:0:0:
448,192,1934,1,0,0:0:0:0:
64,192,2007,1,0,0:0:0:0:
448,192,2081,1,0,0:0:0:0:
64,192,2154,1,0,0:0:0:0:
320,192,2228,1,0,0:0:0:0:
192,192,2302,1,0,0:0:0:0:
448,192,2375,1,0,0:0:0:0:
64,192,2449,1,0,0:0:0:0:
448,192,2522,1,0,0:0:0:0:
192,192,2596,1,0,0:0:0:0:
448,192,2669,1,0,0:0:0:0:
64,192,2743,1,0,0:0:0:0:
320,192,2816,1,0,0:0:0:0:
64,192,2890,1,0,0:0:0:0:
448,192,2963,1,0,0:0:0:0:
320,192,3037,1,0,0:0:0:0:
192,192,3110,1,0,0:0:0:0:
64,192,3184,1,0,0:0:0:0:
448,192,3184,1,0,0:0:0:0:
192,192,3257,1,0,0:0:0:0:
64,192,3331,1,0,0:0:0:0:
192,192,3404,1,0,0:0:0:0:
320,192,3478,1,0,0:0:0:0:
448,192,3552,1,0,0:0:0:0:
64,192,3625,1,0,0:0:0:0:
448,192,3699,1,0,0:0:0:0:
192,192,3772,1,0,0:0:0:0:
320,192,3846,1,0,0:0:0:0:
192,192,3919,1,0,0:0:0:0:
320,192,3993,1,0,0:0:0:0:
64,192,4066,1,0,0:0:0:0:
192,192,4140,1,0,0:0:0:0:
64,192,4213,1,0,0:0:0:0:
448,192,4287,1,0,0:0:0:0:
64,192,4360,1,0,0:0:0:0:
448,192,4434,1,0,0:0:0:0:
64,192,4507,1,0,0:0:0:0:
320,192,4581,1,0,0:0:0:0:
192,192,4654,1,0,0:0:0:0:
448,192,4728,1,0,0:0:0:0:
64,192,4802,1,0,0:0:0:0:
448,192,4875,1,0,0:0:0:0:
192,192,4949,1,0,0:0:0:0:
320,192,5022,1,0,0:0:0:0:
64,192,5096,1,0,0:0:0:0:
192,192,5169,1,0,0:0:0:0:
64,0,5243,128,0,5537:0:0:0:0:
320,192,5537,1,0,0:0:0:0:
448,192,5537,1,0,0:0:0:0:
192,192,5610,1,0,0:0:0:0:
448,192,5684,1,0,0:0:0:0:
192,192,5757,1,0,0:0:0:0:
320,192,5831,1,0,0:0:0:0:
64,192,5904,1,0,0:0:0:0:
448,192,5978,1,0,0:0:0:0:
64,192,6052,1,0,0:0:0:0:
192,192,6125,1,0,0:0:0:0:
320,192,6199,1,0,0:0:0:0:
192,192,6272,1,0,0:0:0:0:
320,192,6346,1,0,0:0:0:0:
448,192,6419,1,0,0:0:0:0:
320,192,6493,1,0,0:0:0:0:
448,192,6566,1,0,0:0:0:0:
64,192,6640,1,0,0:0:0:0:
448,192,6713,1,0,0:0:0:0:
192,192,6787,1,0,0:0:0:0:
320,192,6860,1,0,0:0:0:0:
64,192,6934,1,0,0:0:0:0:
192,192,7007,1,0,0:0:0:0:
64,192,7081,1,0,0:0:0:0:
320,192,7154,1,0,0:0:0:0:
192,192,7228,1,0,0:0:0:0:
448,192,7302,1,0,0:0:0:0:
64,192,7375,1,0,0:0:0:0:
192,192,7449,1,0,0:0:0:0:
320,192,7522,1,0,0:0:0:0:
448,192,7596,1,0,0:0:0:0:
64,192,7669,1,0,0:0:0:0:
448,192,7743,1,0,0:0:0:0:
192,192,7816,1,0,0:0:0:0:
320,192,7890,1,0,0:0:0:0:
448,192,7890,1,0,0:0:0:0:
192,192,7963,1,0,0:0:0:0:
448,192,8037,1,0,0:0:0:0:
192,192,8110,1,0,0:0:0:0:
320,192,8184,1,0,0:0:0:0:
64,192,8257,1,0,0:0:0:0:
448,192,8331,1,0,0:0:0:0:
64,192,8404,1,0,0:0:0:0:
192,192,8478,1,0,0:0:0:0:
320,192,8552,1,0,0:0:0:0:
192,192,8625,1,0,0:0:0:0:
320,192,8699,1,0,0:0:0:0:
448,192,8772,1,0,0:0:0:0:
64,192,8846,1,0,0:0:0:0:
192,192,8919,1,0,0:0:0:0:
320,0,8919,128,0,9213:0:0:0:0:
64,192,9213,1,0,0:0:0:0:
192,192,9287,1,0,0:0:0:0:
64,192,9360,1,0,0:0:0:0:
192,192,9434,1,0,0:0:0:0:
64,192,9507,1,0,0:0:0:0:
192,192,9581,1,0,0:0:0:0:
64,192,9654,1,0,0:0:0:0:
192,192,9728,1,0,0:0:0:0:
64,192,9802,1,0,0:0:0:0:
192,192,9875,1,0,0:0:0:0:
64,192,9949,1,0,0:0:0:0:
448,192,9949,1,0,0:0:0:0:
192,192,10022,1,0,0:0:0:0:
64,192,10096,1,0,0:0:0:0:
192,192,10169,1,0,0:0:0:0:
320,192,10243,1,0,0:0:0:0:
448,192,10316,1,0,0:0:0:0:
320,192,10390,1,0,0:0:0:0:
448,192,10463,1,0,0:0:0:0:
64,192,10537,1,0,0:0:0:0:
320,192,10610,1,0,0:0:0:0:
64,192,10684,1,0,0:0:0:0:
320,192,10757,1,0,0:0:0:0:
64,192,10831,1,0,0:0:0:0:
320,192,10904,1,0,0:0:0:0:
64,192,10978,1,0,0:0:0:0:
320,192,11052,1,0,0:0:0:0:
192,192,11125,1,0,0:0:0:0:
448,192,11199,1,0,0:0:0:0:
64,192,11272,1,0,0:0:0:0:
320,192,11346,1,0,0:0:0:0:
192,192,11419,1,0,0:0:0:0:
448,192,11493,1,0,0:0:0:0:
64,192,11566,1,0,0:0:0:0:
192,192,11640,1,0,0:0:0:0:
320,192,11713,1,0,0:0:0:0:
448,192,11787,1,0,0:0:0:0:
320,192,11860,1,0,0:0:0:0:
192,192,11934,1,0,0:0:0:0:
64,192,12007,1,0,0:0:0:0:
192,192,12081,1,0,0:0:0:0:
64,192,12154,1,0,0:0:0:0:
448,192,12228,1,0,0:0:0:0:
192,192,12302,1,0,0:0:0:0:
320,192,12375,1,0,0:0:0:0:
64,192,12449,1,0,0:0:0:0:
192,192,12522,1,0,0:0:0:0:
320,192,12596,1,0,0:0:0:0:
192,192,12669,1,0,0:0:0:0:
64,192,12743,1,0,0:0:0:0:
192,192,12816,1,0,0:0:0:0:
64,192,12890,1,0,0:0:0:0:
192,192,12963,1,0,0:0:0:0:
64,192,13037,1,0,0:0:0:0:
192,192,13110,1,0,0:0:0:0:
64,192,13184,1,0,0:0:0:0:
192,192,13257,1,0,0:0:0:0:
64,192,13331,1,0,0:0:0:0:
192,192,13404,1,0,0:0:0:0:
64,192,13478,1,0,0:0:0:0:
320,192,13552,1,0,0:0:0:0:
192,192,13625,1,0,0:0:0:0:
320,192,13699,1,0,0:0:0:0:
64,192,13772,1,0,0:0:0:0:
192,192,13846,1,0,0:0:0:0:
320,192,13919,1,0,0:0:0:0:
448,192,13993,1,0,0:0:0:0:
320,192,14066,1,0,0:0:0:0:
448,192,14140,1,0,0:0:0:0:
192,192,14213,1,0,0:0:0:0:
320,192,14287,1,0,0:0:0:0:
64,192,14360,1,0,0:0:0:0:
448,192,14434,1,0,0:0:0:0:
192,192,14507,1,0,0:0:0:0:
320,192,14581,1,0,0:0:0:0:
64,0,14654,128,0,14948:0:0:0:0:
448,0,14949,128,0,15684:0:0:0:0:
192,192,15684,1,0,0:0:0:0:
448,192,15831,1,0,0:0:0:0:
448,192,15978,1,0,0:0:0:0:
320,192,16125,1,0,0:0:0:0:
448,192,16272,1,0,0:0:0:0:
448,192,16419,1,0,0:0:0:0:
64,192,16566,1,0,0:0:0:0:
448,192,16713,1,0,0:0:0:0:
448,192,16860,1,0,0:0:0:0:
448,192,17007,1,0,0:0:0:0:
192,0,17154,128,0,17448:0:0:0:0:
320,192,17449,1,0,0:0:0:0:
64,192,17596,1,0,0:0:0:0:
448,192,17743,1,0,0:0:0:0:
64,192,17890,1,0,0:0:0:0:
320,192,18086,1,0,0:0:0:0:
64,192,18184,1,0,0:0:0:0:
192,192,18380,1,0,0:0:0:0:
320,192,18478,1,0,0:0:0:0:
448,192,18527,1,0,0:0:0:0:
64,192,18576,1,0,0:0:0:0:
192,192,18625,1,0,0:0:0:0:
320,192,18699,1,0,0:0:0:0:
448,192,18772,1,0,0:0:0:0:
64,192,18846,1,0,0:0:0:0:
192,192,18919,1,0,0:0:0:0:
320,192,18968,1,0,0:0:0:0:
448,192,19017,1,0,0:0:0:0:
64,192,19066,1,0,0:0:0:0:
448,192,19140,1,0,0:0:0:0:
192,192,19213,1,0,0:0:0:0:
320,192,19287,1,0,0:0:0:0:
64,192,19360,1,0,0:0:0:0:
192,0,19360,128,0,19507:0:0:0:0:
320,0,19507,128,0,19801:0:0:0:0:
192,192,19802,1,0,0:0:0:0:
448,192,19875,1,0,0:0:0:0:
320,192,19949,1,0,0:0:0:0:
192,192,20022,1,0,0:0:0:0:
320,192,20096,1,0,0:0:0:0:
192,192,20169,1,0,0:0:0:0:
320,192,20243,1,0,0:0:0:0:
64,192,20316,1,0,0:0:0:0:
448,192,20390,1,0,0:0:0:0:
64,192,20463,1,0,0:0:0:0:
192,192,20537,1,0,0:0:0:0:
64,192,20610,1,0,0:0:0:0:
192,192,20684,1,0,0:0:0:0:
64,192,20757,1,0,0:0:0:0:
448,192,20831,1,0,0:0:0:0:
192,192,20904,1,0,0:0:0:0:
448,192,20978,1,0,0:0:0:0:
192,192,21052,1,0,0:0:0:0:
448,192,21125,1,0,0:0:0:0:
192,192,21199,1,0,0:0:0:0:
448,192,21272,1,0,0:0:0:0:
320,192,21346,1,0,0:0:0:0:
192,192,21419,1,0,0:0:0:0:
320,192,21493,1,0,0:0:0:0:
192,192,21566,1,0,0:0:0:0:
320,192,21640,1,0,0:0:0:0:
192,192,21713,1,0,0:0:0:0:
320,192,21787,1,0,0:0:0:0:
448,192,21860,1,0,0:0:0:0:
64,192,21934,1,0,0:0:0:0:
320,192,22007,1,0,0:0:0:0:
64,192,22081,1,0,0:0:0:0:
448,192,22154,1,0,0:0:0:0:
64,192,22228,1,0,0:0:0:0:
320,192,22302,1,0,0:0:0:0:
64,192,22375,1,0,0:0:0:0:
448,192,22449,1,0,0:0:0:0:
192,192,22522,1,0,0:0:0:0:
320,192,22596,1,0,0:0:0:0:
192,192,22669,1,0,0:0:0:0:
448,192,22743,1,0,0:0:0:0:
64,192,22816,1,0,0:0:0:0:
320,192,22890,1,0,0:0:0:0:
64,192,23037,1,0,0:0:0:0:
448,192,23110,1,0,0:0:0:0:
64,192,23184,1,0,0:0:0:0:
448,192,23257,1,0,0:0:0:0:
64,192,23331,1,0,0:0:0:0:
320,192,23404,1,0,0:0:0:0:
192,192,23478,1,0,0:0:0:0:
320,192,23552,1,0,0:0:0:0:
448,192,23625,1,0,0:0:0:0:
320,192,23699,1,0,0:0:0:0:
192,192,23772,1,0,0:0:0:0:
64,192,23846,1,0,0:0:0:0:
448,192,23919,1,0,0:0:0:0:
320,192,23993,1,0,0:0:0:0:
192,192,24066,1,0,0:0:0:0:
64,192,24360,1,0,0:0:0:0:
320,192,24434,1,0,0:0:0:0:
192,192,24507,1,0,0:0:0:0:
448,192,24581,1,0,0:0:0:0:
64,192,24654,1,0,0:0:0:0:
320,192,24753,1,0,0:0:0:0:
192,192,24851,1,0,0:0:0:0:
64,192,24949,1,0,0:0:0:0:
448,192,25096,1,0,0:0:0:0:
192,192,25169,1,0,0:0:0:0:
320,192,25243,1,0,0:0:0:0:
192,192,25316,1,0,0:0:0:0:
448,192,25390,1,0,0:0:0:0:
64,192,25463,1,0,0:0:0:0:
448,192,25537,1,0,0:0:0:0:
192,192,25684,1,0,0:0:0:0:
64,192,25757,1,0,0:0:0:0:
448,192,25831,1,0,0:0:0:0:
64,192,25904,1,0,0:0:0:0:
192,192,25978,1,0,0:0:0:0:
64,192,26052,1,0,0:0:0:0:
320,192,26125,1,0,0:0:0:0:
64,192,26199,1,0,0:0:0:0:
448,192,26272,1,0,0:0:0:0:
64,192,26346,1,0,0:0:0:0:
320,192,26419,1,0,0:0:0:0:
192,192,26566,1,0,0:0:0:0:
64,192,26713,1,0,0:0:0:0:
448,192,26713,1,0,0:0:0:0:
64,192,26909,1,0,0:0:0:0:
320,192,26909,1,0,0:0:0:0:
64,192,27105,1,0,0:0:0:0:
448,192,27105,1,0,0:0:0:0:
64,192,27302,1,0,0:0:0:0:
320,192,27302,1,0,0:0:0:0:
64,192,27498,1,0,0:0:0:0:
448,192,27498,1,0,0:0:0:0:
192,192,27694,1,0,0:0:0:0:
320,192,27694,1,0,0:0:0:0:
64,192,27890,1,0,0:0:0:0:
448,192,27890,1,0,0:0:0:0:
192,192,27963,1,0,0:0:0:0:
320,192,28037,1,0,0:0:0:0:
192,192,28110,1,0,0:0:0:0:
320,192,28184,1,0,0:0:0:0:
192,192,28257,1,0,0:0:0:0:
320,192,28331,1,0,0:0:0:0:
192,192,28404,1,0,0:0:0:0:
320,192,28478,1,0,0:0:0:0:
192,192,28552,1,0,0:0:0:0:
320,192,28625,1,0,0:0:0:0:
192,192,28699,1,0,0:0:0:0:
320,192,28772,1,0,0:0:0:0:
192,192,28846,1,0,0:0:0:0:
320,192,28919,1,0,0:0:0:0:
192,192,28993,1,0,0:0:0:0:
64,0,29066,128,0,29507:0:0:0:0:
448,192,29213,1,0,0:0:0:0:
448,192,29507,1,0,0:0:0:0:
320,0,29507,128,0,29948:0:0:0:0:
448,192,29802,1,0,0:0:0:0:
192,0,29949,128,0,30096:0:0:0:0:
448,192,30096,1,0,0:0:0:0:
320,0,30096,128,0,30243:0:0:0:0:
448,192,30390,1,0,0:0:0:0:
320,0,30390,128,0,30537:0:0:0:0:
448,192,30684,1,0,0:0:0:0:
320,0,30684,128,0,30831:0:0:0:0:
192,0,30831,128,0,30978:0:0:0:0:
448,192,30978,1,0,0:0:0:0:
320,0,30978,128,0,31125:0:0:0:0:
192,0,31125,128,0,31272:0:0:0:0:
448,192,31272,1,0,0:0:0:0:
320,0,31272,128,0,31419:0:0:0:0:
64,0,31419,128,0,31860:0:0:0:0:
448,192,31566,1,0,0:0:0:0:
448,192,31860,1,0,0:0:0:0:
320,0,31860,128,0,32301:0:0:0:0:
448,192,32154,1,0,0:0:0:0:
192,0,32302,128,0,32449:0:0:0:0:
448,192,32449,1,0,0:0:0:0:
320,0,32449,128,0,32596:0:0:0:0:
448,192,32743,1,0,0:0:0:0:
320,0,32743,128,0,32890:0:0:0:0:
448,192,33037,1,0,0:0:0:0:
320,0,33037,128,0,33184:0:0:0:0:
192,0,33184,128,0,33331:0:0:0:0:
448,192,33331,1,0,0:0:0:0:
64,0,33331,128,0,33478:0:0:0:0:
192,0,33478,128,0,33772:0:0:0:0:
448,192,33625,1,0,0:0:0:0:
64,0,33772,128,0,34213:0:0:0:0:
448,192,33919,1,0,0:0:0:0:
448,192,34213,1,0,0:0:0:0:
320,0,34213,128,0,34654:0:0:0:0:
448,192,34507,1,0,0:0:0:0:
192,0,34654,128,0,34801:0:0:0:0:
448,192,34802,1,0,0:0:0:0:
320,0,34802,128,0,34949:0:0:0:0:
448,192,35096,1,0,0:0:0:0:
320,0,35096,128,0,35243:0:0:0:0:
448,192,35390,1,0,0:0:0:0:
320,0,35390,128,0,35537:0:0:0:0:
64,0,35537,128,0,35684:0:0:0:0:
448,192,35684,1,0,0:0:0:0:
192,0,35684,128,0,35831:0:0:0:0:
320,0,35831,128,0,35978:0:0:0:0:
448,192,35978,1,0,0:0:0:0:
192,0,35978,128,0,36125:0:0:0:0:
320,0,36125,128,0,36198:0:0:0:0:
448,192,36272,1,0,0:0:0:0:
320,0,36272,128,0,36345:0:0:0:0:
448,192,36566,1,0,0:0:0:0:
320,0,36566,128,0,36713:0:0:0:0:
64,0,36713,128,0,36860:0:0:0:0:
448,192,36860,1,0,0:0:0:0:
320,0,36860,128,0,37007:0:0:0:0:
448,192,37007,1,0,0:0:0:0:
192,0,37007,128,0,37301:0:0:0:0:
64,192,37302,1,0,0:0:0:0:
448,192,37351,1,0,0:0:0:0:
192,192,37400,1,0,0:0:0:0:
320,192,37449,1,0,0:0:0:0:
64,192,37522,1,0,0:0:0:0:
192,192,37596,1,0,0:0:0:0:
320,192,37669,1,0,0:0:0:0:
448,192,37743,1,0,0:0:0:0:
64,192,37792,1,0,0:0:0:0:
320,192,37841,1,0,0:0:0:0:
192,192,37890,1,0,0:0:0:0:
448,192,37963,1,0,0:0:0:0:
64,192,38037,1,0,0:0:0:0:
192,192,38110,1,0,0:0:0:0:
320,192,38184,1,0,0:0:0:0:
448,0,38184,128,0,38331:0:0:0:0:
320,0,38331,128,0,38478:0:0:0:0:
192,0,38478,128,0,38772:0:0:0:0:
448,192,38625,1,0,0:0:0:0:
448,192,38919,1,0,0:0:0:0:
320,0,38919,128,0,39360:0:0:0:0:
448,192,39213,1,0,0:0:0:0:
192,0,39360,128,0,39507:0:0:0:0:
448,192,39508,1,0,0:0:0:0:
320,0,39508,128,0,39655:0:0:0:0:
448,192,39802,1,0,0:0:0:0:
320,0,39802,128,0,39949:0:0:0:0:
448,192,40096,1,0,0:0:0:0:
320,0,40096,128,0,40243:0:0:0:0:
192,0,40243,128,0,40390:0:0:0:0:
448,192,40390,1,0,0:0:0:0:
320,0,40390,128,0,40537:0:0:0:0:
192,0,40537,128,0,40684:0:0:0:0:
448,192,40684,1,0,0:0:0:0:
64,0,40684,128,0,40831:0:0:0:0:
192,0,40831,128,0,41272:0:0:0:0:
448,192,40978,1,0,0:0:0:0:
448,192,41272,1,0,0:0:0:0:
320,0,41272,128,0,41713:0:0:0:0:
448,192,41566,1,0,0:0:0:0:
192,0,41713,128,0,41860:0:0:0:0:
448,192,41860,1,0,0:0:0:0:
320,0,41860,128,0,42007:0:0:0:0:
448,192,42155,1,0,0:0:0:0:
320,0,42155,128,0,42302:0:0:0:0:
448,192,42449,1,0,0:0:0:0:
320,0,42449,128,0,42596:0:0:0:0:
192,0,42596,128,0,42743:0:0:0:0:
448,192,42743,1,0,0:0:0:0:
320,0,42743,128,0,42890:0:0:0:0:
192,0,42890,128,0,43037:0:0:0:0:
448,192,43037,1,0,0:0:0:0:
64,0,43184,128,0,43625:0:0:0:0:
448,192,43331,1,0,0:0:0:0:
448,192,43625,1,0,0:0:0:0:
320,0,43625,128,0,44066:0:0:0:0:
448,192,43919,1,0,0:0:0:0:
192,0,44066,128,0,44213:0:0:0:0:
448,192,44213,1,0,0:0:0:0:
320,0,44213,128,0,44360:0:0:0:0:
448,192,44508,1,0,0:0:0:0:
320,0,44508,128,0,44655:0:0:0:0:
448,192,44802,1,0,0:0:0:0:
320,0,44802,128,0,44949:0:0:0:0:
192,0,44949,128,0,45096:0:0:0:0:
448,192,45096,1,0,0:0:0:0:
64,0,45096,128,0,45243:0:0:0:0:
320,0,45243,128,0,45390:0:0:0:0:
448,192,45390,1,0,0:0:0:0:
320,0,45537,128,0,45610:0:0:0:0:
448,192,45684,1,0,0:0:0:0:
320,0,45684,128,0,45757:0:0:0:0:
448,192,45978,1,0,0:0:0:0:
320,0,45978,128,0,46125:0:0:0:0:
192,0,46125,128,0,46272:0:0:0:0:
448,192,46272,1,0,0:0:0:0:
320,0,46272,128,0,46419:0:0:0:0:
64,0,46419,128,0,46713:0:0:0:0:
448,192,46713,1,0,0:0:0:0:
320,192,46762,1,0,0:0:0:0:
192,192,46811,1,0,0:0:0:0:
64,192,46860,1,0,0:0:0:0:
448,192,46934,1,0,0:0:0:0:
192,192,47008,1,0,0:0:0:0:
320,192,47081,1,0,0:0:0:0:
64,192,47155,1,0,0:0:0:0:
192,192,47204,1,0,0:0:0:0:
320,192,47253,1,0,0:0:0:0:
448,192,47302,1,0,0:0:0:0:
64,192,47375,1,0,0:0:0:0:
448,192,47449,1,0,0:0:0:0:
192,192,47522,1,0,0:0:0:0:
320,192,47596,1,0,0:0:0:0:
64,192,47890,1,0,0:0:0:0:
448,192,47890,1,0,0:0:0:0:
192,192,48037,1,0,0:0:0:0:
320,192,48184,1,0,0:0:0:0:
192,192,48331,1,0,0:0:0:0:
64,192,48478,1,0,0:0:0:0:
192,192,48625,1,0,0:0:0:0:
64,192,48772,1,0,0:0:0:0:
320,192,48772,1,0,0:0:0:0:
192,192,48919,1,0,0:0:0:0:
448,192,48919,1,0,0:0:0:0:
64,192,49066,1,0,0:0:0:0:
192,192,49214,1,0,0:0:0:0:
448,192,49214,1,0,0:0:0:0:
320,192,49361,1,0,0:0:0:0:
448,192,49508,1,0,0:0:0:0:
192,192,49655,1,0,0:0:0:0:
64,192,49802,1,0,0:0:0:0:
448,192,49802,1,0,0:0:0:0:
192,192,49949,1,0,0:0:0:0:
320,192,49949,1,0,0:0:0:0:
192,192,50096,1,0,0:0:0:0:
320,192,50096,1,0,0:0:0:0:
448,192,50243,1,0,0:0:0:0:
64,0,50243,128,0,51419:0:0:0:0:
192,192,50390,1,0,0:0:0:0:
448,192,50537,1,0,0:0:0:0:
192,192,50684,1,0,0:0:0:0:
320,192,50831,1,0,0:0:0:0:
192,192,50978,1,0,0:0:0:0:
192,192,51272,1,0,0:0:0:0:
320,192,51419,1,0,0:0:0:0:
448,0,51419,128,0,52595:0:0:0:0:
192,192,51566,1,0,0:0:0:0:
320,192,51713,1,0,0:0:0:0:
192,192,51861,1,0,0:0:0:0:
64,192,52008,1,0,0:0:0:0:
192,192,52155,1,0,0:0:0:0:
320,192,52302,1,0,0:0:0:0:
192,0,52449,128,0,52596:0:0:0:0:
320,0,52596,128,0,52743:0:0:0:0:
64,0,52743,128,0,52890:0:0:0:0:
192,0,52890,128,0,53037:0:0:0:0:
64,0,53037,128,0,53184:0:0:0:0:
448,0,53184,128,0,53331:0:0:0:0:
192,0,53331,128,0,53478:0:0:0:0:
448,192,53478,1,0,0:0:0:0:
320,0,53478,128,0,53625:0:0:0:0:
192,192,53625,1,0,0:0:0:0:
64,0,53625,128,0,53772:0:0:0:0:
448,0,53772,128,0,53919:0:0:0:0:
192,192,53919,1,0,0:0:0:0:
64,0,53919,128,0,54066:0:0:0:0:
448,0,54066,128,0,54213:0:0:0:0:
192,0,54214,128,0,54361:0:0:0:0:
320,0,54361,128,0,54508:0:0:0:0:
448,192,54508,1,0,0:0:0:0:
64,0,54508,128,0,54655:0:0:0:0:
320,192,54655,1,0,0:0:0:0:
192,0,54655,128,0,54728:0:0:0:0:
320,192,54802,1,0,0:0:0:0:
192,0,54802,128,0,54875:0:0:0:0:
448,0,54949,128,0,55096:0:0:0:0:
64,0,54949,128,0,56125:0:0:0:0:
192,0,55096,128,0,55243:0:0:0:0:
448,0,55243,128,0,55390:0:0:0:0:
192,0,55390,128,0,55537:0:0:0:0:
320,0,55537,128,0,55684:0:0:0:0:
192,0,55684,128,0,55831:0:0:0:0:
192,0,55978,128,0,56125:0:0:0:0:
448,192,56272,1,0,0:0:0:0:
320,192,56346,1,0,0:0:0:0:
192,192,56419,1,0,0:0:0:0:
448,192,56566,1,0,0:0:0:0:
320,192,56640,1,0,0:0:0:0:
64,192,56714,1,0,0:0:0:0:
320,192,56861,1,0,0:0:0:0:
448,0,56861,128,0,56934:0:0:0:0:
320,192,57008,1,0,0:0:0:0:
448,0,57008,128,0,57081:0:0:0:0:
448,192,57155,1,0,0:0:0:0:
192,0,57155,128,0,57302:0:0:0:0:
448,192,57302,1,0,0:0:0:0:
64,0,57302,128,0,58478:0:0:0:0:
320,192,57449,1,0,0:0:0:0:
192,192,57596,1,0,0:0:0:0:
320,192,57743,1,0,0:0:0:0:
448,192,57890,1,0,0:0:0:0:
320,192,58037,1,0,0:0:0:0:
192,192,58184,1,0,0:0:0:0:
320,192,58331,1,0,0:0:0:0:
448,192,58478,1,0,0:0:0:0:
192,192,58625,1,0,0:0:0:0:
320,192,58772,1,0,0:0:0:0:
192,192,58919,1,0,0:0:0:0:
448,192,59066,1,0,0:0:0:0:
64,192,59214,1,0,0:0:0:0:
64,192,59508,1,0,0:0:0:0:
448,192,59655,1,0,0:0:0:0:
192,192,59802,1,0,0:0:0:0:
320,192,59949,1,0,0:0:0:0:
192,192,60096,1,0,0:0:0:0:
448,192,60243,1,0,0:0:0:0:
192,192,60390,1,0,0:0:0:0:
64,192,60684,1,0,0:0:0:0:
192,192,60831,1,0,0:0:0:0:
64,192,60978,1,0,0:0:0:0:
448,192,61125,1,0,0:0:0:0:
64,192,61272,1,0,0:0:0:0:
192,192,61419,1,0,0:0:0:0:
448,192,61419,1,0,0:0:0:0:
64,192,61567,1,0,0:0:0:0:
192,192,61567,1,0,0:0:0:0:
320,192,61640,1,0,0:0:0:0:
192,192,61714,1,0,0:0:0:0:
448,192,61714,1,0,0:0:0:0:
64,192,61861,1,0,0:0:0:0:
192,192,61861,1,0,0:0:0:0:
448,0,62008,128,0,63184:0:0:0:0:
64,192,63184,1,0,0:0:0:0:
192,192,63258,1,0,0:0:0:0:
320,192,63331,1,0,0:0:0:0:
192,192,63405,1,0,0:0:0:0:
64,192,63478,1,0,0:0:0:0:
192,192,63552,1,0,0:0:0:0:
448,192,63625,1,0,0:0:0:0:
192,192,63699,1,0,0:0:0:0:
448,192,63772,1,0,0:0:0:0:
64,192,63846,1,0,0:0:0:0:
320,192,63919,1,0,0:0:0:0:
192,192,63993,1,0,0:0:0:0:
448,192,64067,1,0,0:0:0:0:
192,192,64140,1,0,0:0:0:0:
320,192,64214,1,0,0:0:0:0:
192,192,64287,1,0,0:0:0:0:
448,192,64361,1,0,0:0:0:0:
320,192,64434,1,0,0:0:0:0:
192,192,64508,1,0,0:0:0:0:
448,192,64581,1,0,0:0:0:0:
320,192,64655,1,0,0:0:0:0:
192,192,64728,1,0,0:0:0:0:
448,192,64802,1,0,0:0:0:0:
192,192,64875,1,0,0:0:0:0:
64,192,64949,1,0,0:0:0:0:
448,192,65022,1,0,0:0:0:0:
320,192,65096,1,0,0:0:0:0:
192,192,65170,1,0,0:0:0:0:
64,192,65243,1,0,0:0:0:0:
320,192,65317,1,0,0:0:0:0:
64,192,65390,1,0,0:0:0:0:
320,192,65464,1,0,0:0:0:0:
448,192,65537,1,0,0:0:0:0:
320,192,65611,1,0,0:0:0:0:
192,192,65684,1,0,0:0:0:0:
320,192,65758,1,0,0:0:0:0:
192,192,65831,1,0,0:0:0:0:
64,192,65905,1,0,0:0:0:0:
192,192,65978,1,0,0:0:0:0:
64,192,66052,1,0,0:0:0:0:
192,0,66125,128,0,66272:0:0:0:0:
448,192,66272,1,0,0:0:0:0:
320,0,66272,128,0,66419:0:0:0:0:
448,192,66420,1,0,0:0:0:0:
192,0,66420,128,0,66567:0:0:0:0:
448,192,66567,1,0,0:0:0:0:
64,0,66567,128,0,66714:0:0:0:0:
192,0,66714,128,0,67008:0:0:0:0:
64,192,66861,1,0,0:0:0:0:
448,0,67008,128,0,67155:0:0:0:0:
64,192,67155,1,0,0:0:0:0:
192,0,67155,128,0,67449:0:0:0:0:
64,192,67449,1,0,0:0:0:0:
448,0,67449,128,0,67596:0:0:0:0:
320,0,67596,128,0,68478:0:0:0:0:
64,192,67743,1,0,0:0:0:0:
64,192,68037,1,0,0:0:0:0:
64,192,68331,1,0,0:0:0:0:
192,0,68478,128,0,68772:0:0:0:0:
64,192,68625,1,0,0:0:0:0:
448,192,68625,1,0,0:0:0:0:
320,0,68773,128,0,69067:0:0:0:0:
64,192,68920,1,0,0:0:0:0:
448,0,69067,128,0,69361:0:0:0:0:
64,192,69214,1,0,0:0:0:0:
320,0,69361,128,0,69508:0:0:0:0:
64,192,69508,1,0,0:0:0:0:
192,0,69508,128,0,69802:0:0:0:0:
64,192,69802,1,0,0:0:0:0:
320,0,69802,128,0,69949:0:0:0:0:
448,0,69949,128,0,70831:0:0:0:0:
64,192,70096,1,0,0:0:0:0:
64,192,70390,1,0,0:0:0:0:
64,192,70684,1,0,0:0:0:0:
192,0,70831,128,0,71125:0:0:0:0:
64,192,70978,1,0,0:0:0:0:
448,0,71126,128,0,71420:0:0:0:0:
64,192,71273,1,0,0:0:0:0:
320,0,71420,128,0,71714:0:0:0:0:
64,192,71567,1,0,0:0:0:0:
192,0,71714,128,0,71861:0:0:0:0:
64,192,71861,1,0,0:0:0:0:
320,0,71861,128,0,72008:0:0:0:0:
448,0,72008,128,0,72155:0:0:0:0:
64,192,72155,1,0,0:0:0:0:
320,0,72155,128,0,72302:0:0:0:0:
192,0,72302,128,0,72449:0:0:0:0:
64,192,72449,1,0,0:0:0:0:
448,0,72449,128,0,73037:0:0:0:0:
64,192,72743,1,0,0:0:0:0:
64,192,73037,1,0,0:0:0:0:
320,0,73037,128,0,73184:0:0:0:0:
448,0,73184,128,0,73478:0:0:0:0:
64,192,73331,1,0,0:0:0:0:
320,0,73479,128,0,73773:0:0:0:0:
64,192,73626,1,0,0:0:0:0:
192,0,73773,128,0,74655:0:0:0:0:
64,192,73920,1,0,0:0:0:0:
64,192,74214,1,0,0:0:0:0:
64,192,74508,1,0,0:0:0:0:
320,0,74655,128,0,74802:0:0:0:0:
64,192,74802,1,0,0:0:0:0:
448,0,74802,128,0,75831:0:0:0:0:
192,192,75096,1,0,0:0:0:0:
192,192,75243,1,0,0:0:0:0:
192,192,75390,1,0,0:0:0:0:
192,192,75537,1,0,0:0:0:0:
64,192,75684,1,0,0:0:0:0:
320,192,75758,1,0,0:0:0:0:
64,192,75832,1,0,0:0:0:0:
192,192,75832,1,0,0:0:0:0:
64,192,75979,1,0,0:0:0:0:
192,192,75979,1,0,0:0:0:0:
320,192,76052,1,0,0:0:0:0:
64,192,76126,1,0,0:0:0:0:
448,192,76126,1,0,0:0:0:0:
320,192,76199,1,0,0:0:0:0:
192,192,76273,1,0,0:0:0:0:
448,192,76346,1,0,0:0:0:0:
320,192,76420,1,0,0:0:0:0:
192,192,76493,1,0,0:0:0:0:
448,192,76567,1,0,0:0:0:0:
320,192,76640,1,0,0:0:0:0:
192,192,76714,1,0,0:0:0:0:
448,192,76787,1,0,0:0:0:0:
320,192,76861,1,0,0:0:0:0:
192,192,76935,1,0,0:0:0:0:
448,192,77008,1,0,0:0:0:0:
320,192,77082,1,0,0:0:0:0:
192,192,77155,1,0,0:0:0:0:
192,192,77376,1,0,0:0:0:0:
320,192,77449,1,0,0:0:0:0:
448,192,77523,1,0,0:0:0:0:
320,192,77596,1,0,0:0:0:0:
192,192,77670,1,0,0:0:0:0:
320,192,77743,1,0,0:0:0:0:
192,192,77817,1,0,0:0:0:0:
64,192,77890,1,0,0:0:0:0:
448,192,77964,1,0,0:0:0:0:
320,192,78037,1,0,0:0:0:0:
64,192,78111,1,0,0:0:0:0:
448,192,78185,1,0,0:0:0:0:
320,192,78258,1,0,0:0:0:0:
64,192,78332,1,0,0:0:0:0:
320,192,78405,1,0,0:0:0:0:
192,192,78479,1,0,0:0:0:0:
320,192,78552,1,0,0:0:0:0:
448,192,78626,1,0,0:0:0:0:
192,192,78699,1,0,0:0:0:0:
320,192,78773,1,0,0:0:0:0:
448,192,78846,1,0,0:0:0:0:
192,192,78920,1,0,0:0:0:0:
448,192,78993,1,0,0:0:0:0:
192,192,79067,1,0,0:0:0:0:
448,192,79140,1,0,0:0:0:0:
64,192,79214,1,0,0:0:0:0:
192,192,79288,1,0,0:0:0:0:
448,192,79361,1,0,0:0:0:0:
64,192,79435,1,0,0:0:0:0:
192,192,79508,1,0,0:0:0:0:
448,192,79582,1,0,0:0:0:0:
192,192,79655,1,0,0:0:0:0:
320,192,79729,1,0,0:0:0:0:
448,192,79802,1,0,0:0:0:0:
192,192,79876,1,0,0:0:0:0:
320,192,79949,1,0,0:0:0:0:
448,192,80023,1,0,0:0:0:0:
64,192,80096,1,0,0:0:0:0:
448,192,80170,1,0,0:0:0:0:
320,192,80243,1,0,0:0:0:0:
192,192,80317,1,0,0:0:0:0:
64,192,80390,1,0,0:0:0:0:
320,192,80464,1,0,0:0:0:0:
192,0,80538,128,0,80832:0:0:0:0:
448,192,80832,1,0,0:0:0:0:
320,192,80905,1,0,0:0:0:0:
192,192,80979,1,0,0:0:0:0:
320,192,81052,1,0,0:0:0:0:
192,192,81126,1,0,0:0:0:0:
64,192,81199,1,0,0:0:0:0:
192,192,81273,1,0,0:0:0:0:
64,192,81346,1,0,0:0:0:0:
448,192,81420,1,0,0:0:0:0:
64,192,81493,1,0,0:0:0:0:
448,192,81567,1,0,0:0:0:0:
192,192,81641,1,0,0:0:0:0:
448,192,81714,1,0,0:0:0:0:
320,192,81788,1,0,0:0:0:0:
192,192,81861,1,0,0:0:0:0:
320,192,81935,1,0,0:0:0:0:
192,192,82008,1,0,0:0:0:0:
64,192,82082,1,0,0:0:0:0:
192,192,82155,1,0,0:0:0:0:
64,192,82229,1,0,0:0:0:0:
448,192,82302,1,0,0:0:0:0:
64,192,82376,1,0,0:0:0:0:
448,192,82449,1,0,0:0:0:0:
192,192,82523,1,0,0:0:0:0:
448,192,82596,1,0,0:0:0:0:
320,192,82670,1,0,0:0:0:0:
192,192,82743,1,0,0:0:0:0:
320,192,82817,1,0,0:0:0:0:
192,192,82891,1,0,0:0:0:0:
64,192,82964,1,0,0:0:0:0:
192,192,83038,1,0,0:0:0:0:
64,192,83111,1,0,0:0:0:0:
448,192,83185,1,0,0:0:0:0:
64,192,83258,1,0,0:0:0:0:
448,192,83332,1,0,0:0:0:0:
192,192,83405,1,0,0:0:0:0:
448,192,83479,1,0,0:0:0:0:
192,192,83552,1,0,0:0:0:0:
448,192,83626,1,0,0:0:0:0:
64,192,83699,1,0,0:0:0:0:
448,192,83773,1,0,0:0:0:0:
64,192,83846,1,0,0:0:0:0:
192,192,83920,1,0,0:0:0:0:
64,192,84067,1,0,0:0:0:0:
448,192,84214,1,0,0:0:0:0:
64,192,84361,1,0,0:0:0:0:
192,192,84435,1,0,0:0:0:0:
320,192,84508,1,0,0:0:0:0:
448,192,84582,1,0,0:0:0:0:
64,192,84655,1,0,0:0:0:0:
192,192,84753,1,0,0:0:0:0:
320,192,84851,1,0,0:0:0:0:
448,192,84949,1,0,0:0:0:0:
320,192,85023,1,0,0:0:0:0:
192,192,85096,1,0,0:0:0:0:
64,192,85170,1,0,0:0:0:0:
448,192,85243,1,0,0:0:0:0:
448,192,85538,1,0,0:0:0:0:
320,192,85611,1,0,0:0:0:0:
448,192,85685,1,0,0:0:0:0:
64,192,85758,1,0,0:0:0:0:
192,192,85832,1,0,0:0:0:0:
320,192,85905,1,0,0:0:0:0:
448,192,85979,1,0,0:0:0:0:
320,192,86052,1,0,0:0:0:0:
448,192,86126,1,0,0:0:0:0:
64,192,86199,1,0,0:0:0:0:
192,192,86273,1,0,0:0:0:0:
320,192,86346,1,0,0:0:0:0:
448,192,86420,1,0,0:0:0:0:
320,192,86493,1,0,0:0:0:0:
448,192,86567,1,0,0:0:0:0:
64,192,86641,1,0,0:0:0:0:
192,192,86714,1,0,0:0:0:0:
320,192,86788,1,0,0:0:0:0:
448,192,86861,1,0,0:0:0:0:
320,192,86935,1,0,0:0:0:0:
448,192,87008,1,0,0:0:0:0:
64,192,87082,1,0,0:0:0:0:
192,192,87155,1,0,0:0:0:0:
320,192,87229,1,0,0:0:0:0:
448,192,87302,1,0,0:0:0:0:
64,192,87376,1,0,0:0:0:0:
448,192,87449,1,0,0:0:0:0:
192,192,87523,1,0,0:0:0:0:
320,192,87596,1,0,0:0:0:0:
64,192,87670,1,0,0:0:0:0:
320,192,87743,1,0,0:0:0:0:
64,192,87817,1,0,0:0:0:0:
320,192,87891,1,0,0:0:0:0:
192,192,87964,1,0,0:0:0:0:
320,192,88038,1,0,0:0:0:0:
192,192,88111,1,0,0:0:0:0:
448,192,88185,1,0,0:0:0:0:
192,192,88258,1,0,0:0:0:0:
448,192,88332,1,0,0:0:0:0:
320,192,88405,1,0,0:0:0:0:
448,192,88479,1,0,0:0:0:0:
320,192,88552,1,0,0:0:0:0:
192,192,88626,1,0,0:0:0:0:
64,192,88699,1,0,0:0:0:0:
320,192,88773,1,0,0:0:0:0:
192,192,88846,1,0,0:0:0:0:
320,192,88920,1,0,0:0:0:0:
64,192,88994,1,0,0:0:0:0:
448,192,89067,1,0,0:0:0:0:
320,192,89141,1,0,0:0:0:0:
448,192,89214,1,0,0:0:0:0:
320,192,89288,1,0,0:0:0:0:
448,192,89361,1,0,0:0:0:0:
320,192,89435,1,0,0:0:0:0:
64,192,89508,1,0,0:0:0:0:
192,192,89582,1,0,0:0:0:0:
320,192,89655,1,0,0:0:0:0:
448,192,89729,1,0,0:0:0:0:
192,192,89802,1,0,0:0:0:0:
320,192,89876,1,0,0:0:0:0:
448,0,89949,128,0,90243:0:0:0:0:
320,192,90244,1,0,0:0:0:0:
64,192,90391,1,0,0:0:0:0:
320,0,90391,128,0,90538:0:0:0:0:
64,192,90685,1,0,0:0:0:0:
320,0,90685,128,0,90832:0:0:0:0:
448,0,90832,128,0,90979:0:0:0:0:
64,192,90979,1,0,0:0:0:0:
320,0,90979,128,0,91126:0:0:0:0:
64,192,91273,1,0,0:0:0:0:
320,0,91273,128,0,91420:0:0:0:0:
448,0,91420,128,0,91567:0:0:0:0:
64,192,91567,1,0,0:0:0:0:
320,0,91567,128,0,91714:0:0:0:0:
448,0,91714,128,0,91861:0:0:0:0:
320,192,91861,1,0,0:0:0:0:
192,0,91861,128,0,92008:0:0:0:0:
448,0,92008,128,0,92155:0:0:0:0:
64,192,92155,1,0,0:0:0:0:
320,0,92155,128,0,92302:0:0:0:0:
192,192,92302,1,0,0:0:0:0:
448,192,92376,1,0,0:0:0:0:
192,192,92449,1,0,0:0:0:0:
64,0,92449,128,0,92596:0:0:0:0:
320,0,92597,128,0,92670:0:0:0:0:
448,192,92744,1,0,0:0:0:0:
320,0,92744,128,0,92891:0:0:0:0:
192,192,93038,1,0,0:0:0:0:
320,0,93038,128,0,93185:0:0:0:0:
448,0,93185,128,0,93332:0:0:0:0:
64,192,93332,1,0,0:0:0:0:
192,0,93332,128,0,93479:0:0:0:0:
448,192,93479,1,0,0:0:0:0:
320,192,93552,1,0,0:0:0:0:
64,192,93626,1,0,0:0:0:0:
192,0,93626,128,0,93920:0:0:0:0:
64,192,93920,1,0,0:0:0:0:
448,192,93920,1,0,0:0:0:0:
192,192,93994,1,0,0:0:0:0:
320,192,94067,1,0,0:0:0:0:
64,192,94141,1,0,0:0:0:0:
448,192,94214,1,0,0:0:0:0:
192,192,94288,1,0,0:0:0:0:
320,192,94361,1,0,0:0:0:0:
192,192,94435,1,0,0:0:0:0:
448,192,94508,1,0,0:0:0:0:
64,192,94582,1,0,0:0:0:0:
320,192,94655,1,0,0:0:0:0:
192,192,94729,1,0,0:0:0:0:
448,192,94802,1,0,0:0:0:0:
64,192,94876,1,0,0:0:0:0:
448,192,94950,1,0,0:0:0:0:
320,192,95023,1,0,0:0:0:0:
192,192,95097,1,0,0:0:0:0:
448,192,95170,1,0,0:0:0:0:
320,192,95244,1,0,0:0:0:0:
192,192,95317,1,0,0:0:0:0:
448,192,95391,1,0,0:0:0:0:
320,192,95464,1,0,0:0:0:0:
192,192,95538,1,0,0:0:0:0:
448,192,95611,1,0,0:0:0:0:
320,192,95685,1,0,0:0:0:0:
192,192,95758,1,0,0:0:0:0:
320,192,95832,1,0,0:0:0:0:
64,192,95905,1,0,0:0:0:0:
320,192,95979,1,0,0:0:0:0:
64,192,96053,1,0,0:0:0:0:
320,192,96126,1,0,0:0:0:0:
64,192,96200,1,0,0:0:0:0:
320,192,96273,1,0,0:0:0:0:
64,192,96347,1,0,0:0:0:0:
192,192,96420,1,0,0:0:0:0:
64,192,96494,1,0,0:0:0:0:
192,192,96567,1,0,0:0:0:0:
64,192,96641,1,0,0:0:0:0:
448,192,96714,1,0,0:0:0:0:
64,192,96788,1,0,0:0:0:0:
448,192,96861,1,0,0:0:0:0:
64,192,96935,1,0,0:0:0:0:
192,192,97008,1,0,0:0:0:0:
64,192,97082,1,0,0:0:0:0:
192,192,97155,1,0,0:0:0:0:
64,192,97229,1,0,0:0:0:0:
320,192,97303,1,0,0:0:0:0:
192,192,97376,1,0,0:0:0:0:
448,192,97450,1,0,0:0:0:0:
192,192,97523,1,0,0:0:0:0:
320,192,97597,1,0,0:0:0:0:
192,192,97670,1,0,0:0:0:0:
448,192,97744,1,0,0:0:0:0:
192,192,97817,1,0,0:0:0:0:
320,0,97891,128,0,98332:0:0:0:0:
64,192,98332,1,0,0:0:0:0:
192,192,98406,1,0,0:0:0:0:
320,192,98479,1,0,0:0:0:0:
448,192,98553,1,0,0:0:0:0:
192,192,98626,1,0,0:0:0:0:
320,192,98700,1,0,0:0:0:0:
192,192,98773,1,0,0:0:0:0:
448,192,98847,1,0,0:0:0:0:
64,192,98920,1,0,0:0:0:0:
320,192,98994,1,0,0:0:0:0:
64,0,99067,128,0,99214:0:0:0:0:
448,0,99214,128,0,99361:0:0:0:0:
320,0,99361,128,0,99508:0:0:0:0:
192,0,99508,128,0,99655:0:0:0:0:
320,0,99656,128,0,99729:0:0:0:0:
320,0,99803,128,0,100097:0:0:0:0:
192,192,100097,1,0,0:0:0:0:
320,192,100170,1,0,0:0:0:0:
448,0,100244,128,0,100391:0:0:0:0:
320,0,100391,128,0,100538:0:0:0:0:
192,0,100538,128,0,100685:0:0:0:0:
320,192,100685,1,0,0:0:0:0:
192,192,100759,1,0,0:0:0:0:
320,0,100832,128,0,100905:0:0:0:0:
320,0,100979,128,0,101273:0:0:0:0:
192,192,101273,1,0,0:0:0:0:
320,192,101347,1,0,0:0:0:0:
448,0,101420,128,0,101567:0:0:0:0:
192,0,101567,128,0,101714:0:0:0:0:
320,0,101714,128,0,101861:0:0:0:0:
448,192,101861,1,0,0:0:0:0:
320,192,101935,1,0,0:0:0:0:
192,192,102009,1,0,0:0:0:0:
448,192,102082,1,0,0:0:0:0:
192,192,102156,1,0,0:0:0:0:
448,192,102229,1,0,0:0:0:0:
192,192,102303,1,0,0:0:0:0:
448,192,102376,1,0,0:0:0:0:
192,192,102450,1,0,0:0:0:0:
448,192,102523,1,0,0:0:0:0:
192,192,102597,1,0,0:0:0:0:
64,192,102670,1,0,0:0:0:0:
320,192,102744,1,0,0:0:0:0:
64,192,102817,1,0,0:0:0:0:
320,192,102891,1,0,0:0:0:0:
64,192,102964,1,0,0:0:0:0:
192,192,103038,1,0,0:0:0:0:
320,192,103112,1,0,0:0:0:0:
448,0,103185,128,0,103479:0:0:0:0:
192,0,103479,128,0,103773:0:0:0:0:
64,192,103773,1,0,0:0:0:0:
320,0,103773,128,0,104067:0:0:0:0:
192,192,103847,1,0,0:0:0:0:
448,192,103920,1,0,0:0:0:0:
192,192,103994,1,0,0:0:0:0:
64,0,103994,128,0,104214:0:0:0:0:
448,192,104067,1,0,0:0:0:0:
192,192,104141,1,0,0:0:0:0:
320,192,104214,1,0,0:0:0:0:
448,0,104214,128,0,104287:0:0:0:0:
192,192,104288,1,0,0:0:0:0:
448,192,104362,1,0,0:0:0:0:
64,0,104362,128,0,104950:0:0:0:0:
64,192,105391,1,0,0:0:0:0:
448,192,105391,1,0,0:0:0:0:
64,192,105685,1,0,0:0:0:0:
448,192,105685,1,0,0:0:0:0:
64,192,106420,1,0,0:0:0:0:
448,192,106420,1,0,0:0:0:0:
64,192,106715,1,0,0:0:0:0:
448,192,106715,1,0,0:0:0:0:
64,192,107744,1,0,0:0:0:0:
448,192,107744,1,0,0:0:0:0:
64,192,108038,1,0,0:0:0:0:
448,192,108038,1,0,0:0:0:0:
64,192,108773,1,0,0:0:0:0:
448,192,108773,1,0,0:0:0:0:
64,192,109068,1,0,0:0:0:0:
448,192,109068,1,0,0:0:0:0:
192,192,109215,1,0,0:0:0:0:
448,192,109362,1,0,0:0:0:0:
64,192,109509,1,0,0:0:0:0:
192,192,109656,1,0,0:0:0:0:
320,192,109803,1,0,0:0:0:0:
192,192,109950,1,0,0:0:0:0:
64,192,110097,1,0,0:0:0:0:
448,192,110097,1,0,0:0:0:0:
320,192,110244,1,0,0:0:0:0:
64,192,110391,1,0,0:0:0:0:
448,192,110391,1,0,0:0:0:0:
192,192,110538,1,0,0:0:0:0:
448,192,110685,1,0,0:0:0:0:
192,192,110832,1,0,0:0:0:0:
320,192,110979,1,0,0:0:0:0:
64,192,111126,1,0,0:0:0:0:
448,192,111126,1,0,0:0:0:0:
192,192,111273,1,0,0:0:0:0:
64,192,111421,1,0,0:0:0:0:
448,192,111421,1,0,0:0:0:0:
320,192,111568,1,0,0:0:0:0:
192,192,111715,1,0,0:0:0:0:
448,192,111862,1,0,0:0:0:0:
64,192,112009,1,0,0:0:0:0:
448,192,112156,1,0,0:0:0:0:
192,192,112303,1,0,0:0:0:0:
64,192,112450,1,0,0:0:0:0:
320,192,112450,1,0,0:0:0:0:
192,192,112744,1,0,0:0:0:0:
448,0,112744,128,0,113332:0:0:0:0:
64,192,113185,1,0,0:0:0:0:
320,192,113332,1,0,0:0:0:0:
192,192,113406,1,0,0:0:0:0:
320,192,113479,1,0,0:0:0:0:
192,192,113553,1,0,0:0:0:0:
320,192,113626,1,0,0:0:0:0:
192,192,113700,1,0,0:0:0:0:
64,192,113774,1,0,0:0:0:0:
320,192,113847,1,0,0:0:0:0:
64,192,113921,1,0,0:0:0:0:
320,192,113994,1,0,0:0:0:0:
64,192,114068,1,0,0:0:0:0:
320,192,114141,1,0,0:0:0:0:
192,192,114215,1,0,0:0:0:0:
320,192,114288,1,0,0:0:0:0:
192,192,114362,1,0,0:0:0:0:
448,192,114435,1,0,0:0:0:0:
192,192,114509,1,0,0:0:0:0:
448,192,114582,1,0,0:0:0:0:
320,192,114656,1,0,0:0:0:0:
192,192,114729,1,0,0:0:0:0:
448,192,114803,1,0,0:0:0:0:
192,192,114877,1,0,0:0:0:0:
320,192,114950,1,0,0:0:0:0:
64,192,115024,1,0,0:0:0:0:
320,192,115097,1,0,0:0:0:0:
192,192,115171,1,0,0:0:0:0:
448,192,115244,1,0,0:0:0:0:
64,192,115318,1,0,0:0:0:0:
192,192,115391,1,0,0:0:0:0:
64,192,115465,1,0,0:0:0:0:
448,192,115538,1,0,0:0:0:0:
192,192,115612,1,0,0:0:0:0:
448,192,115685,1,0,0:0:0:0:
64,192,115759,1,0,0:0:0:0:
320,192,115832,1,0,0:0:0:0:
64,192,115906,1,0,0:0:0:0:
192,192,115979,1,0,0:0:0:0:
320,192,116053,1,0,0:0:0:0:
192,192,116127,1,0,0:0:0:0:
64,192,116200,1,0,0:0:0:0:
320,192,116274,1,0,0:0:0:0:
64,192,116347,1,0,0:0:0:0:
448,192,116421,1,0,0:0:0:0:
320,192,116494,1,0,0:0:0:0:
448,192,116568,1,0,0:0:0:0:
64,192,116641,1,0,0:0:0:0:
448,192,116715,1,0,0:0:0:0:
64,192,116788,1,0,0:0:0:0:
320,192,116862,1,0,0:0:0:0:
192,192,116935,1,0,0:0:0:0:
320,192,117009,1,0,0:0:0:0:
64,192,117082,1,0,0:0:0:0:
192,192,117156,1,0,0:0:0:0:
64,192,117230,1,0,0:0:0:0:
448,192,117303,1,0,0:0:0:0:
320,192,117377,1,0,0:0:0:0:
192,192,117450,1,0,0:0:0:0:
64,192,117524,1,0,0:0:0:0:
320,192,117597,1,0,0:0:0:0:
192,192,117671,1,0,0:0:0:0:
448,192,117744,1,0,0:0:0:0:
192,192,117818,1,0,0:0:0:0:
320,192,117891,1,0,0:0:0:0:
64,192,117965,1,0,0:0:0:0:
192,192,118038,1,0,0:0:0:0:
320,192,118112,1,0,0:0:0:0:
448,192,118185,1,0,0:0:0:0:
64,192,118480,1,0,0:0:0:0:
448,192,118553,1,0,0:0:0:0:
64,192,118627,1,0,0:0:0:0:
192,192,118700,1,0,0:0:0:0:
320,192,118774,1,0,0:0:0:0:
64,192,118847,1,0,0:0:0:0:
192,192,118921,1,0,0:0:0:0:
320,192,118994,1,0,0:0:0:0:
64,192,119068,1,0,0:0:0:0:
192,192,119141,1,0,0:0:0:0:
320,192,119215,1,0,0:0:0:0:
64,192,119288,1,0,0:0:0:0:
192,192,119362,1,0,0:0:0:0:
320,192,119435,1,0,0:0:0:0:
192,192,119509,1,0,0:0:0:0:
320,192,119583,1,0,0:0:0:0:
448,192,119656,1,0,0:0:0:0:
192,192,119730,1,0,0:0:0:0:
448,192,119803,1,0,0:0:0:0:
320,192,119877,1,0,0:0:0:0:
448,192,119950,1,0,0:0:0:0:
192,192,120024,1,0,0:0:0:0:
448,192,120097,1,0,0:0:0:0:
64,192,120171,1,0,0:0:0:0:
448,192,120244,1,0,0:0:0:0:
192,192,120318,1,0,0:0:0:0:
320,192,120391,1,0,0:0:0:0:
64,192,120465,1,0,0:0:0:0:
192,192,120538,1,0,0:0:0:0:
320,192,120612,1,0,0:0:0:0:
192,192,120685,1,0,0:0:0:0:
320,192,120759,1,0,0:0:0:0:
64,192,120833,1,0,0:0:0:0:
192,192,120833,1,0,0:0:0:0:
64,192,122009,1,0,0:0:0:0:
320,192,122009,1,0,0:0:0:0:
192,192,122083,1,0,0:0:0:0:
320,192,122156,1,0,0:0:0:0:
192,192,122230,1,0,0:0:0:0:
448,192,122303,1,0,0:0:0:0:
192,192,122377,1,0,0:0:0:0:
320,192,122450,1,0,0:0:0:0:
192,192,122524,1,0,0:0:0:0:
448,192,122597,1,0,0:0:0:0:
64,192,122671,1,0,0:0:0:0:
448,192,122744,1,0,0:0:0:0:
320,0,122744,128,0,122891:0:0:0:0:
448,192,122891,1,0,0:0:0:0:
192,0,122891,128,0,123038:0:0:0:0:
448,192,123038,1,0,0:0:0:0:
320,0,123038,128,0,123185:0:0:0:0:
64,192,123333,1,0,0:0:0:0:
448,0,123333,128,0,123406:0:0:0:0:
448,0,123480,128,0,123553:0:0:0:0:
64,192,123627,1,0,0:0:0:0:
448,0,123627,128,0,123700:0:0:0:0:
448,0,123774,128,0,123847:0:0:0:0:
64,192,123921,1,0,0:0:0:0:
448,0,123921,128,0,124068:0:0:0:0:
192,0,124068,128,0,124215:0:0:0:0:
64,192,124215,1,0,0:0:0:0:
320,0,124215,128,0,124509:0:0:0:0:
64,192,124509,1,0,0:0:0:0:
192,0,124509,128,0,124656:0:0:0:0:
448,0,124656,128,0,124803:0:0:0:0:
64,192,124803,1,0,0:0:0:0:
192,0,124803,128,0,124950:0:0:0:0:
320,0,124950,128,0,125097:0:0:0:0:
64,192,125097,1,0,0:0:0:0:
448,0,125097,128,0,125244:0:0:0:0:
320,0,125244,128,0,125391:0:0:0:0:
64,192,125391,1,0,0:0:0:0:
448,0,125391,128,0,125685:0:0:0:0:
64,192,125686,1,0,0:0:0:0:
192,0,125686,128,0,125833:0:0:0:0:
320,0,125833,128,0,125980:0:0:0:0:
64,192,125980,1,0,0:0:0:0:
448,0,125980,128,0,126127:0:0:0:0:
320,0,126127,128,0,126274:0:0:0:0:
64,192,126274,1,0,0:0:0:0:
448,0,126274,128,0,126421:0:0:0:0:
320,0,126421,128,0,126568:0:0:0:0:
64,192,126568,1,0,0:0:0:0:
192,0,126568,128,0,126715:0:0:0:0:
320,0,126715,128,0,126862:0:0:0:0:
64,192,126862,1,0,0:0:0:0:
448,0,126862,128,0,127009:0:0:0:0:
320,0,127009,128,0,127156:0:0:0:0:
448,192,127156,1,0,0:0:0:0:
192,0,127156,128,0,127303:0:0:0:0:
64,0,127303,128,0,127450:0:0:0:0:
320,192,127450,1,0,0:0:0:0:
448,0,127450,128,0,127597:0:0:0:0:
448,192,127744,1,0,0:0:0:0:
192,0,127744,128,0,128038:0:0:0:0:
64,192,128039,1,0,0:0:0:0:
320,0,128039,128,0,128186:0:0:0:0:
64,192,128186,1,0,0:0:0:0:
192,192,128284,1,0,0:0:0:0:
320,192,128382,1,0,0:0:0:0:
64,192,128480,1,0,0:0:0:0:
192,192,128578,1,0,0:0:0:0:
320,192,128676,1,0,0:0:0:0:
192,192,128774,1,0,0:0:0:0:
320,192,128872,1,0,0:0:0:0:
448,192,128970,1,0,0:0:0:0:
192,192,129068,1,0,0:0:0:0:
320,192,129166,1,0,0:0:0:0:
448,192,129264,1,0,0:0:0:0:
64,192,129362,1,0,0:0:0:0:
448,192,129460,1,0,0:0:0:0:
64,192,129558,1,0,0:0:0:0:
448,192,129656,1,0,0:0:0:0:
64,192,129754,1,0,0:0:0:0:
448,192,129852,1,0,0:0:0:0:
64,192,129950,1,0,0:0:0:0:
448,192,130048,1,0,0:0:0:0:
64,192,130146,1,0,0:0:0:0:
448,192,130245,1,0,0:0:0:0:
64,192,130343,1,0,0:0:0:0:
448,192,130441,1,0,0:0:0:0:
64,192,130539,1,0,0:0:0:0:
448,192,130637,1,0,0:0:0:0:
64,192,130735,1,0,0:0:0:0:
448,192,130833,1,0,0:0:0:0:
64,192,130931,1,0,0:0:0:0:
448,192,131029,1,0,0:0:0:0:
320,0,131127,128,0,131274:0:0:0:0:
192,0,131274,128,0,131421:0:0:0:0:
64,0,131421,128,0,131568:0:0:0:0:
448,0,131568,128,0,131715:0:0:0:0:
320,0,131715,128,0,131862:0:0:0:0:
192,0,131862,128,0,132009:0:0:0:0:
64,0,132009,128,0,132156:0:0:0:0:
192,192,132156,1,0,0:0:0:0:
320,0,132156,128,0,132450:0:0:0:0:
192,192,132303,1,0,0:0:0:0:
192,192,132450,1,0,0:0:0:0:
448,0,132450,128,0,132670:0:0:0:0:
64,192,132745,1,0,0:0:0:0:
448,0,132745,128,0,132892:0:0:0:0:
320,0,132892,128,0,133039:0:0:0:0:
64,192,133039,1,0,0:0:0:0:
448,0,133039,128,0,133333:0:0:0:0:
64,192,133333,1,0,0:0:0:0:
192,0,133333,128,0,133480:0:0:0:0:
64,192,133627,1,0,0:0:0:0:
448,0,133627,128,0,133774:0:0:0:0:
320,0,133774,128,0,133921:0:0:0:0:
64,192,133921,1,0,0:0:0:0:
448,0,133921,128,0,134068:0:0:0:0:
64,192,134215,1,0,0:0:0:0:
192,0,134215,128,0,134509:0:0:0:0:
64,192,134509,1,0,0:0:0:0:
320,0,134509,128,0,134656:0:0:0:0:
192,0,134656,128,0,134803:0:0:0:0:
64,192,134803,1,0,0:0:0:0:
448,0,134803,128,0,135097:0:0:0:0:
64,192,135098,1,0,0:0:0:0:
192,0,135098,128,0,135392:0:0:0:0:
64,192,135392,1,0,0:0:0:0:
320,0,135392,128,0,135539:0:0:0:0:
64,192,135686,1,0,0:0:0:0:
448,0,135686,128,0,135833:0:0:0:0:
320,0,135833,128,0,135980:0:0:0:0:
64,192,135980,1,0,0:0:0:0:
448,0,135980,128,0,136127:0:0:0:0:
192,0,136127,128,0,136274:0:0:0:0:
320,192,136274,1,0,0:0:0:0:
448,0,136274,128,0,136421:0:0:0:0:
64,0,136421,128,0,136568:0:0:0:0:
192,192,136568,1,0,0:0:0:0:
448,0,136568,128,0,136715:0:0:0:0:
320,0,136715,128,0,136862:0:0:0:0:
64,192,136862,1,0,0:0:0:0:
448,0,136862,128,0,137009:0:0:0:0:
192,0,137009,128,0,137156:0:0:0:0:
448,0,137156,128,0,137303:0:0:0:0:
64,192,137304,1,0,0:0:0:0:
448,192,137402,1,0,0:0:0:0:
448,192,137500,1,0,0:0:0:0:
192,192,137598,1,0,0:0:0:0:
448,192,137696,1,0,0:0:0:0:
448,192,137794,1,0,0:0:0:0:
320,192,137892,1,0,0:0:0:0:
448,192,137990,1,0,0:0:0:0:
448,192,138088,1,0,0:0:0:0:
192,192,138186,1,0,0:0:0:0:
320,192,138284,1,0,0:0:0:0:
320,192,138382,1,0,0:0:0:0:
64,192,138480,1,0,0:0:0:0:
192,192,138578,1,0,0:0:0:0:
192,192,138676,1,0,0:0:0:0:
320,192,138774,1,0,0:0:0:0:
192,192,138872,1,0,0:0:0:0:
192,192,138970,1,0,0:0:0:0:
64,192,139068,1,0,0:0:0:0:
192,192,139166,1,0,0:0:0:0:
192,192,139264,1,0,0:0:0:0:
448,192,139363,1,0,0:0:0:0:
192,192,139461,1,0,0:0:0:0:
192,192,139559,1,0,0:0:0:0:
64,192,139657,1,0,0:0:0:0:
320,0,139657,128,0,140024:0:0:0:0:
64,192,140098,1,0,0:0:0:0:
320,0,140098,128,0,140465:0:0:0:0:
192,192,140392,1,0,0:0:0:0:
64,192,140539,1,0,0:0:0:0:
320,0,140539,128,0,140906:0:0:0:0:
64,192,140980,1,0,0:0:0:0:
320,0,140980,128,0,141347:0:0:0:0:
64,192,141127,1,0,0:0:0:0:
192,192,141201,1,0,0:0:0:0:
64,192,141274,1,0,0:0:0:0:
192,192,141348,1,0,0:0:0:0:
64,192,141421,1,0,0:0:0:0:
320,0,141421,128,0,141715:0:0:0:0:
192,192,141568,1,0,0:0:0:0:
192,192,141716,1,0,0:0:0:0:
64,0,141716,128,0,141936:0:0:0:0:
64,192,142010,1,0,0:0:0:0:
192,192,142010,1,0,0:0:0:0:
320,192,142010,1,0,0:0:0:0:
448,0,142010,128,0,143921:0:0:0:0:
64,192,142157,1,0,0:0:0:0:
192,192,142157,1,0,0:0:0:0:
320,192,142157,1,0,0:0:0:0:
64,192,142304,1,0,0:0:0:0:
192,192,142304,1,0,0:0:0:0:
320,192,142304,1,0,0:0:0:0:
64,192,142451,1,0,0:0:0:0:
192,192,142451,1,0,0:0:0:0:
320,192,142451,1,0,0:0:0:0:
64,192,142598,1,0,0:0:0:0:
192,192,142598,1,0,0:0:0:0:
320,192,142598,1,0,0:0:0:0:
64,192,142892,1,0,0:0:0:0:
192,192,142892,1,0,0:0:0:0:
320,192,142892,1,0,0:0:0:0:
64,192,143039,1,0,0:0:0:0:
192,192,143039,1,0,0:0:0:0:
320,192,143039,1,0,0:0:0:0:
64,192,143186,1,0,0:0:0:0:
192,192,143186,1,0,0:0:0:0:
320,192,143186,1,0,0:0:0:0:
64,192,143333,1,0,0:0:0:0:
192,192,143333,1,0,0:0:0:0:
320,192,143333,1,0,0:0:0:0:
64,192,143480,1,0,0:0:0:0:
192,192,143480,1,0,0:0:0:0:
320,192,143480,1,0,0:0:0:0:
64,192,143627,1,0,0:0:0:0:
192,192,143627,1,0,0:0:0:0:
320,192,143627,1,0,0:0:0:0:
64,192,143921,1,0,0:0:0:0:
320,192,143921,1,0,0:0:0:0:
64,192,144363,1,0,0:0:0:0:
320,192,144363,1,0,0:0:0:0:
448,192,144363,1,0,0:0:0:0:
64,192,144510,1,0,0:0:0:0:
320,192,144510,1,0,0:0:0:0:
448,192,144510,1,0,0:0:0:0:
64,192,144657,1,0,0:0:0:0:
320,192,144657,1,0,0:0:0:0:
448,192,144657,1,0,0:0:0:0:
64,192,144804,1,0,0:0:0:0:
320,192,144804,1,0,0:0:0:0:
448,192,144804,1,0,0:0:0:0:
64,192,144951,1,0,0:0:0:0:
320,192,144951,1,0,0:0:0:0:
448,192,144951,1,0,0:0:0:0:
64,192,145245,1,0,0:0:0:0:
320,192,145245,1,0,0:0:0:0:
448,192,145245,1,0,0:0:0:0:
64,192,145392,1,0,0:0:0:0:
320,192,145392,1,0,0:0:0:0:
448,192,145392,1,0,0:0:0:0:
64,192,145539,1,0,0:0:0:0:
320,192,145539,1,0,0:0:0:0:
448,192,145539,1,0,0:0:0:0:
64,192,145686,1,0,0:0:0:0:
320,192,145686,1,0,0:0:0:0:
448,192,145686,1,0,0:0:0:0:
64,192,145833,1,0,0:0:0:0:
320,192,145833,1,0,0:0:0:0:
448,192,145833,1,0,0:0:0:0:
64,192,145980,1,0,0:0:0:0:
320,192,145980,1,0,0:0:0:0:
192,192,146127,1,0,0:0:0:0:
320,192,146127,1,0,0:0:0:0:
192,192,146274,1,0,0:0:0:0:
448,192,146274,1,0,0:0:0:0:
448,192,146422,1,0,0:0:0:0:
320,192,146495,1,0,0:0:0:0:
192,192,146569,1,0,0:0:0:0:
64,192,146642,1,0,0:0:0:0:
448,192,146716,1,0,0:0:0:0:
320,192,146789,1,0,0:0:0:0:
448,192,146863,1,0,0:0:0:0:
192,192,146936,1,0,0:0:0:0:
320,192,147010,1,0,0:0:0:0:
192,192,147083,1,0,0:0:0:0:
320,192,147157,1,0,0:0:0:0:
64,192,147230,1,0,0:0:0:0:
192,192,147304,1,0,0:0:0:0:
320,192,147377,1,0,0:0:0:0:
448,192,147451,1,0,0:0:0:0:
320,192,147525,1,0,0:0:0:0:
448,192,147598,1,0,0:0:0:0:
192,192,147672,1,0,0:0:0:0:
320,192,147745,1,0,0:0:0:0:
192,192,147819,1,0,0:0:0:0:
448,192,147892,1,0,0:0:0:0:
64,192,147966,1,0,0:0:0:0:
192,192,148039,1,0,0:0:0:0:
64,192,148113,1,0,0:0:0:0:
320,192,148186,1,0,0:0:0:0:
192,192,148260,1,0,0:0:0:0:
448,192,148333,1,0,0:0:0:0:
192,192,148407,1,0,0:0:0:0:
320,192,148480,1,0,0:0:0:0:
64,192,148554,1,0,0:0:0:0:
192,192,148627,1,0,0:0:0:0:
64,192,148701,1,0,0:0:0:0:
448,192,148775,1,0,0:0:0:0:
320,192,148848,1,0,0:0:0:0:
448,192,148922,1,0,0:0:0:0:
64,192,148995,1,0,0:0:0:0:
448,192,149069,1,0,0:0:0:0:
192,0,149069,128,0,149216:0:0:0:0:
448,192,149216,1,0,0:0:0:0:
64,0,149216,128,0,149363:0:0:0:0:
448,192,149363,1,0,0:0:0:0:
192,0,149363,128,0,149510:0:0:0:0:
448,192,149510,1,0,0:0:0:0:
320,0,149510,128,0,149951:0:0:0:0:
448,192,149657,1,0,0:0:0:0:
64,192,149951,1,0,0:0:0:0:
448,0,149951,128,0,150098:0:0:0:0:
64,192,150098,1,0,0:0:0:0:
192,0,150098,128,0,150245:0:0:0:0:
64,192,150245,1,0,0:0:0:0:
320,0,150245,128,0,150392:0:0:0:0:
64,192,150392,1,0,0:0:0:0:
448,0,150392,128,0,150833:0:0:0:0:
64,192,150539,1,0,0:0:0:0:
64,192,150686,1,0,0:0:0:0:
64,192,150833,1,0,0:0:0:0:
192,0,150833,128,0,150906:0:0:0:0:
320,192,150907,1,0,0:0:0:0:
192,192,150980,1,0,0:0:0:0:
64,0,150980,128,0,151347:0:0:0:0:
320,192,151054,1,0,0:0:0:0:
192,192,151128,1,0,0:0:0:0:
448,192,151201,1,0,0:0:0:0:
192,192,151275,1,0,0:0:0:0:
448,192,151348,1,0,0:0:0:0:
64,192,151422,1,0,0:0:0:0:
192,0,151422,128,0,151569:0:0:0:0:
320,0,151569,128,0,151716:0:0:0:0:
64,192,151716,1,0,0:0:0:0:
192,0,151716,128,0,151863:0:0:0:0:
448,0,151863,128,0,152230:0:0:0:0:
64,192,152010,1,0,0:0:0:0:
64,192,152304,1,0,0:0:0:0:
448,0,152304,128,0,152451:0:0:0:0:
320,0,152451,128,0,152598:0:0:0:0:
64,192,152598,1,0,0:0:0:0:
192,0,152598,128,0,153186:0:0:0:0:
64,192,152892,1,0,0:0:0:0:
64,192,153186,1,0,0:0:0:0:
320,0,153186,128,0,153774:0:0:0:0:
64,192,153481,1,0,0:0:0:0:
64,192,153775,1,0,0:0:0:0:
192,0,153775,128,0,153922:0:0:0:0:
448,0,153922,128,0,154069:0:0:0:0:
64,192,154069,1,0,0:0:0:0:
192,0,154069,128,0,154216:0:0:0:0:
320,0,154216,128,0,154363:0:0:0:0:
64,192,154363,1,0,0:0:0:0:
64,192,154657,1,0,0:0:0:0:
320,0,154657,128,0,154804:0:0:0:0:
448,0,154804,128,0,154951:0:0:0:0:
64,192,154951,1,0,0:0:0:0:
320,0,154951,128,0,155539:0:0:0:0:
64,192,155245,1,0,0:0:0:0:
64,192,155539,1,0,0:0:0:0:
448,192,155539,1,0,0:0:0:0:
192,192,155613,1,0,0:0:0:0:
320,192,155686,1,0,0:0:0:0:
64,192,155760,1,0,0:0:0:0:
192,192,155834,1,0,0:0:0:0:
64,192,155907,1,0,0:0:0:0:
448,192,155981,1,0,0:0:0:0:
192,192,156054,1,0,0:0:0:0:
448,192,156128,1,0,0:0:0:0:
320,0,156128,128,0,157010:0:0:0:0:
448,192,156422,1,0,0:0:0:0:
448,192,156716,1,0,0:0:0:0:
448,192,157010,1,0,0:0:0:0:
192,0,157010,128,0,157157:0:0:0:0:
320,0,157157,128,0,157304:0:0:0:0:
448,192,157304,1,0,0:0:0:0:
192,0,157304,128,0,157892:0:0:0:0:
448,192,157598,1,0,0:0:0:0:
448,192,157892,1,0,0:0:0:0:
64,0,157892,128,0,158186:0:0:0:0:
448,192,158187,1,0,0:0:0:0:
320,0,158187,128,0,158334:0:0:0:0:
448,192,158481,1,0,0:0:0:0:
192,0,158481,128,0,158628:0:0:0:0:
64,0,158628,128,0,158775:0:0:0:0:
448,192,158775,1,0,0:0:0:0:
192,0,158775,128,0,158922:0:0:0:0:
320,0,158922,128,0,159216:0:0:0:0:
448,192,159069,1,0,0:0:0:0:
64,192,159363,1,0,0:0:0:0:
192,0,159363,128,0,159510:0:0:0:0:
448,0,159510,128,0,159657:0:0:0:0:
320,0,159657,128,0,160245:0:0:0:0:
64,192,159804,1,0,0:0:0:0:
64,192,159951,1,0,0:0:0:0:
64,192,160098,1,0,0:0:0:0:
64,192,160245,1,0,0:0:0:0:
448,0,160245,128,0,160833:0:0:0:0:
192,192,160343,1,0,0:0:0:0:
64,192,160441,1,0,0:0:0:0:
192,192,160539,1,0,0:0:0:0:
64,192,160637,1,0,0:0:0:0:
192,192,160736,1,0,0:0:0:0:
64,0,160834,128,0,162304:0:0:0:0:
448,192,162157,1,0,0:0:0:0:
320,192,162231,1,0,0:0:0:0:
448,192,162304,1,0,0:0:0:0:
192,0,162304,128,0,162377:0:0:0:0:
448,192,162451,1,0,0:0:0:0:
320,0,162451,128,0,162524:0:0:0:0:
192,192,162525,1,0,0:0:0:0:
448,0,162598,128,0,162671:0:0:0:0:
64,192,162745,1,0,0:0:0:0:
320,0,162745,128,0,162818:0:0:0:0:
192,0,162892,128,0,162965:0:0:0:0:
448,192,163039,1,0,0:0:0:0:
64,0,163039,128,0,163112:0:0:0:0:
320,192,163187,1,0,0:0:0:0:
192,0,163187,128,0,163260:0:0:0:0:
320,192,163334,1,0,0:0:0:0:
192,0,163334,128,0,163407:0:0:0:0:
320,192,163628,1,0,0:0:0:0:
192,0,163628,128,0,163701:0:0:0:0:
448,192,163775,1,0,0:0:0:0:
320,0,163775,128,0,163848:0:0:0:0:
320,192,163922,1,0,0:0:0:0:
192,0,163922,128,0,163995:0:0:0:0:
192,192,164069,1,0,0:0:0:0:
64,0,164069,128,0,164142:0:0:0:0:
192,192,164363,1,0,0:0:0:0:
192,192,164510,1,0,0:0:0:0:
64,192,164584,1,0,0:0:0:0:
192,192,164657,1,0,0:0:0:0:
192,192,164804,1,0,0:0:0:0:
64,192,164878,1,0,0:0:0:0:
192,192,164951,1,0,0:0:0:0:
192,192,165098,1,0,0:0:0:0:
64,192,165172,1,0,0:0:0:0:
192,192,165245,1,0,0:0:0:0:
192,192,165392,1,0,0:0:0:0:
64,192,165466,1,0,0:0:0:0:
448,0,165540,128,0,165687:0:0:0:0:
64,192,165687,1,0,0:0:0:0:
320,0,165687,128,0,165834:0:0:0:0:
192,0,165834,128,0,165981:0:0:0:0:
64,192,165981,1,0,0:0:0:0:
320,0,165981,128,0,166128:0:0:0:0:
448,0,166128,128,0,166275:0:0:0:0:
64,192,166275,1,0,0:0:0:0:
320,0,166275,128,0,166422:0:0:0:0:
448,0,166422,128,0,166569:0:0:0:0:
64,192,166569,1,0,0:0:0:0:
192,0,166569,128,0,166716:0:0:0:0:
320,0,166716,128,0,166863:0:0:0:0:
64,192,166863,1,0,0:0:0:0:
192,0,166863,128,0,167010:0:0:0:0:
448,0,167010,128,0,167157:0:0:0:0:
64,192,167157,1,0,0:0:0:0:
192,0,167157,128,0,167304:0:0:0:0:
320,0,167304,128,0,167451:0:0:0:0:
64,192,167451,1,0,0:0:0:0:
192,0,167451,128,0,167598:0:0:0:0:
64,192,167745,1,0,0:0:0:0:
192,0,167745,128,0,167892:0:0:0:0:
320,0,167893,128,0,168040:0:0:0:0:
64,192,168040,1,0,0:0:0:0:
192,0,168040,128,0,168187:0:0:0:0:
448,0,168187,128,0,168334:0:0:0:0:
64,192,168334,1,0,0:0:0:0:
192,0,168334,128,0,168481:0:0:0:0:
320,0,168481,128,0,168628:0:0:0:0:
64,192,168628,1,0,0:0:0:0:
192,0,168628,128,0,168775:0:0:0:0:
64,192,168922,1,0,0:0:0:0:
192,0,168922,128,0,169069:0:0:0:0:
448,0,169069,128,0,169216:0:0:0:0:
64,192,169216,1,0,0:0:0:0:
320,0,169216,128,0,169363:0:0:0:0:
192,0,169363,128,0,169510:0:0:0:0:
64,192,169510,1,0,0:0:0:0:
320,0,169510,128,0,169657:0:0:0:0:
448,0,169657,128,0,169804:0:0:0:0:
320,192,169804,1,0,0:0:0:0:
192,0,169804,128,0,169951:0:0:0:0:
64,192,169951,1,0,0:0:0:0:
192,192,170025,1,0,0:0:0:0:
320,192,170098,1,0,0:0:0:0:
448,192,170172,1,0,0:0:0:0:
64,0,170246,128,0,171422:0:0:0:0:
448,192,170393,1,0,0:0:0:0:
448,192,170687,1,0,0:0:0:0:
448,192,170981,1,0,0:0:0:0:
448,192,171275,1,0,0:0:0:0:
192,0,171422,128,0,171716:0:0:0:0:
448,192,171569,1,0,0:0:0:0:
64,0,171716,128,0,171863:0:0:0:0:
448,192,171863,1,0,0:0:0:0:
320,0,171863,128,0,172157:0:0:0:0:
448,192,172157,1,0,0:0:0:0:
192,0,172157,128,0,172304:0:0:0:0:
320,0,172304,128,0,172451:0:0:0:0:
448,192,172451,1,0,0:0:0:0:
192,0,172451,128,0,172598:0:0:0:0:
64,0,172599,128,0,173187:0:0:0:0:
448,192,172746,1,0,0:0:0:0:
448,192,173040,1,0,0:0:0:0:
192,0,173187,128,0,173260:0:0:0:0:
448,192,173334,1,0,0:0:0:0:
192,0,173334,128,0,173775:0:0:0:0:
448,192,173628,1,0,0:0:0:0:
64,0,173775,128,0,174363:0:0:0:0:
448,192,173922,1,0,0:0:0:0:
320,192,173996,1,0,0:0:0:0:
448,192,174069,1,0,0:0:0:0:
448,192,174216,1,0,0:0:0:0:
320,192,174290,1,0,0:0:0:0:
448,192,174363,1,0,0:0:0:0:
192,0,174363,128,0,174804:0:0:0:0:
64,192,174510,1,0,0:0:0:0:
64,192,174657,1,0,0:0:0:0:
64,192,174804,1,0,0:0:0:0:
320,192,174804,1,0,0:0:0:0:
192,192,174878,1,0,0:0:0:0:
448,192,174952,1,0,0:0:0:0:
320,192,175025,1,0,0:0:0:0:
192,192,175099,1,0,0:0:0:0:
64,192,175172,1,0,0:0:0:0:
192,192,175246,1,0,0:0:0:0:
448,192,175319,1,0,0:0:0:0:
320,192,175393,1,0,0:0:0:0:
192,192,175466,1,0,0:0:0:0:
64,192,175540,1,0,0:0:0:0:
192,192,175613,1,0,0:0:0:0:
448,192,175687,1,0,0:0:0:0:
320,192,175760,1,0,0:0:0:0:
192,192,175834,1,0,0:0:0:0:
64,192,175907,1,0,0:0:0:0:
192,192,175981,1,0,0:0:0:0:
448,192,176055,1,0,0:0:0:0:
320,192,176128,1,0,0:0:0:0:
192,192,176202,1,0,0:0:0:0:
64,192,176275,1,0,0:0:0:0:
192,192,176349,1,0,0:0:0:0:
448,192,176422,1,0,0:0:0:0:
320,192,176496,1,0,0:0:0:0:
192,192,176569,1,0,0:0:0:0:
64,192,176643,1,0,0:0:0:0:
192,192,176716,1,0,0:0:0:0:
64,192,176790,1,0,0:0:0:0:
448,192,176863,1,0,0:0:0:0:
320,192,176937,1,0,0:0:0:0:
448,192,177010,1,0,0:0:0:0:
64,192,177084,1,0,0:0:0:0:
192,192,177157,1,0,0:0:0:0:
320,192,177231,1,0,0:0:0:0:
448,0,177305,128,0,178334:0:0:0:0:
192,192,177452,1,0,0:0:0:0:
192,192,177746,1,0,0:0:0:0:
192,192,178040,1,0,0:0:0:0:
192,192,178334,1,0,0:0:0:0:
320,192,178334,1,0,0:0:0:0:
64,192,178481,1,0,0:0:0:0:
192,192,178555,1,0,0:0:0:0:
64,192,178628,1,0,0:0:0:0:
192,192,178702,1,0,0:0:0:0:
64,192,178775,1,0,0:0:0:0:
192,192,178849,1,0,0:0:0:0:
320,192,178922,1,0,0:0:0:0:
192,192,178996,1,0,0:0:0:0:
320,192,179069,1,0,0:0:0:0:
192,192,179143,1,0,0:0:0:0:
320,192,179216,1,0,0:0:0:0:
448,192,179290,1,0,0:0:0:0:
192,192,179363,1,0,0:0:0:0:
448,192,179437,1,0,0:0:0:0:
192,192,179510,1,0,0:0:0:0:
320,192,179584,1,0,0:0:0:0:
64,0,179658,128,0,180834:0:0:0:0:
448,192,179805,1,0,0:0:0:0:
448,192,180099,1,0,0:0:0:0:
448,192,180393,1,0,0:0:0:0:
448,192,180687,1,0,0:0:0:0:
320,192,180834,1,0,0:0:0:0:
448,192,180908,1,0,0:0:0:0:
320,192,180981,1,0,0:0:0:0:
64,192,181055,1,0,0:0:0:0:
320,192,181128,1,0,0:0:0:0:
448,192,181202,1,0,0:0:0:0:
320,192,181275,1,0,0:0:0:0:
64,192,181349,1,0,0:0:0:0:
192,192,181422,1,0,0:0:0:0:
320,192,181496,1,0,0:0:0:0:
448,192,181569,1,0,0:0:0:0:
192,192,181643,1,0,0:0:0:0:
320,192,181716,1,0,0:0:0:0:
448,192,181790,1,0,0:0:0:0:
320,192,181863,1,0,0:0:0:0:
192,192,181937,1,0,0:0:0:0:
448,0,182011,128,0,182599:0:0:0:0:
64,192,182158,1,0,0:0:0:0:
64,192,182452,1,0,0:0:0:0:
320,0,182599,128,0,183187:0:0:0:0:
64,192,182746,1,0,0:0:0:0:
64,192,183040,1,0,0:0:0:0:
448,192,183114,1,0,0:0:0:0:
64,192,183187,1,0,0:0:0:0:
192,0,183187,128,0,183775:0:0:0:0:
64,192,183334,1,0,0:0:0:0:
448,192,183408,1,0,0:0:0:0:
64,192,183481,1,0,0:0:0:0:
64,192,183628,1,0,0:0:0:0:
448,192,183702,1,0,0:0:0:0:
64,192,183775,1,0,0:0:0:0:
320,0,183775,128,0,184363:0:0:0:0:
64,192,183922,1,0,0:0:0:0:
64,192,184069,1,0,0:0:0:0:
64,192,184216,1,0,0:0:0:0:
448,0,184364,128,0,185834:0:0:0:0:
64,192,184511,1,0,0:0:0:0:
64,192,184805,1,0,0:0:0:0:
64,192,185099,1,0,0:0:0:0:
64,192,185393,1,0,0:0:0:0:
64,192,185687,1,0,0:0:0:0:
192,0,185834,128,0,185981:0:0:0:0:
64,192,185981,1,0,0:0:0:0:
320,0,185981,128,0,186128:0:0:0:0:
448,0,186128,128,0,186422:0:0:0:0:
64,192,186275,1,0,0:0:0:0:
192,0,186422,128,0,186569:0:0:0:0:
64,192,186569,1,0,0:0:0:0:
448,0,186569,128,0,188995:0:0:0:0:
64,192,186864,1,0,0:0:0:0:
64,192,187158,1,0,0:0:0:0:
64,192,187452,1,0,0:0:0:0:
64,192,187746,1,0,0:0:0:0:
64,192,188040,1,0,0:0:0:0:
64,192,188334,1,0,0:0:0:0:
64,192,188628,1,0,0:0:0:0:
320,192,188775,1,0,0:0:0:0:
192,192,188849,1,0,0:0:0:0:
320,192,188922,1,0,0:0:0:0:
192,192,188996,1,0,0:0:0:0:
64,0,189070,128,0,189364:0:0:0:0:
192,0,189364,128,0,189952:0:0:0:0:
320,0,189952,128,0,190246:0:0:0:0:
448,0,190246,128,0,190687:0:0:0:0:
320,192,190834,1,0,0:0:0:0:
192,192,190908,1,0,0:0:0:0:
320,192,190981,1,0,0:0:0:0:
192,192,191055,1,0,0:0:0:0:
320,192,191128,1,0,0:0:0:0:
192,192,191202,1,0,0:0:0:0:
320,192,191275,1,0,0:0:0:0:
192,192,191349,1,0,0:0:0:0:
448,192,191423,1,0,0:0:0:0:
320,192,191472,1,0,0:0:0:0:
192,192,191521,1,0,0:0:0:0:
64,192,191570,1,0,0:0:0:0:
320,192,191643,1,0,0:0:0:0:
64,192,191717,1,0,0:0:0:0:
192,192,191766,1,0,0:0:0:0:
320,192,191815,1,0,0:0:0:0:
448,192,191864,1,0,0:0:0:0:
192,192,191937,1,0,0:0:0:0:
448,192,192011,1,0,0:0:0:0:
320,192,192060,1,0,0:0:0:0:
192,192,192109,1,0,0:0:0:0:
64,192,192158,1,0,0:0:0:0:
320,192,192232,1,0,0:0:0:0:
64,192,192305,1,0,0:0:0:0:
192,192,192354,1,0,0:0:0:0:
320,192,192403,1,0,0:0:0:0:
448,192,192452,1,0,0:0:0:0:
192,192,192526,1,0,0:0:0:0:
448,192,192599,1,0,0:0:0:0:
320,192,192648,1,0,0:0:0:0:
192,192,192697,1,0,0:0:0:0:
64,192,192746,1,0,0:0:0:0:
448,192,192820,1,0,0:0:0:0:
64,192,192893,1,0,0:0:0:0:
320,192,192943,1,0,0:0:0:0:
192,192,192992,1,0,0:0:0:0:
448,192,193041,1,0,0:0:0:0:
64,192,193114,1,0,0:0:0:0:
192,192,193188,1,0,0:0:0:0:
320,192,193237,1,0,0:0:0:0:
448,192,193286,1,0,0:0:0:0:
64,192,193335,1,0,0:0:0:0:
448,192,193408,1,0,0:0:0:0:
192,192,193482,1,0,0:0:0:0:
320,192,193555,1,0,0:0:0:0:
192,192,193629,1,0,0:0:0:0:
320,192,193702,1,0,0:0:0:0:
64,0,193776,128,0,194070:0:0:0:0:
448,192,193923,1,0,0:0:0:0:
192,0,194070,128,0,194217:0:0:0:0:
448,192,194217,1,0,0:0:0:0:
320,0,194217,128,0,194511:0:0:0:0:
448,192,194511,1,0,0:0:0:0:
192,0,194511,128,0,194658:0:0:0:0:
64,0,194658,128,0,195540:0:0:0:0:
448,192,194805,1,0,0:0:0:0:
448,192,195100,1,0,0:0:0:0:
448,192,195394,1,0,0:0:0:0:
192,0,195541,128,0,195835:0:0:0:0:
64,192,195688,1,0,0:0:0:0:
320,0,195835,128,0,196129:0:0:0:0:
64,192,195982,1,0,0:0:0:0:
448,0,196129,128,0,196276:0:0:0:0:
64,192,196276,1,0,0:0:0:0:
320,0,196423,128,0,196570:0:0:0:0:
64,192,196570,1,0,0:0:0:0:
192,0,196570,128,0,196864:0:0:0:0:
64,192,196864,1,0,0:0:0:0:
320,0,196864,128,0,197011:0:0:0:0:
448,0,197011,128,0,197819:0:0:0:0:
64,192,197158,1,0,0:0:0:0:
64,192,197453,1,0,0:0:0:0:
64,192,197747,1,0,0:0:0:0:
448,0,197894,128,0,198188:0:0:0:0:
64,192,198041,1,0,0:0:0:0:
192,192,198188,1,0,0:0:0:0:
320,0,198188,128,0,198482:0:0:0:0:
64,192,198335,1,0,0:0:0:0:
448,0,198482,128,0,198776:0:0:0:0:
64,192,198629,1,0,0:0:0:0:
192,0,198776,128,0,198923:0:0:0:0:
64,192,198923,1,0,0:0:0:0:
320,0,198923,128,0,199070:0:0:0:0:
448,0,199070,128,0,199217:0:0:0:0:
64,192,199217,1,0,0:0:0:0:
320,0,199217,128,0,199364:0:0:0:0:
192,0,199364,128,0,199511:0:0:0:0:
64,192,199511,1,0,0:0:0:0:
448,0,199511,128,0,199658:0:0:0:0:
64,192,199806,1,0,0:0:0:0:
448,0,199806,128,0,199953:0:0:0:0:
64,192,200100,1,0,0:0:0:0:
320,0,200100,128,0,200247:0:0:0:0:
448,0,200247,128,0,200541:0:0:0:0:
64,192,200394,1,0,0:0:0:0:
320,0,200541,128,0,200835:0:0:0:0:
64,192,200688,1,0,0:0:0:0:
192,0,200835,128,0,201717:0:0:0:0:
64,192,200982,1,0,0:0:0:0:
64,192,201276,1,0,0:0:0:0:
64,192,201570,1,0,0:0:0:0:
320,0,201717,128,0,201864:0:0:0:0:
64,192,201864,1,0,0:0:0:0:
448,0,201864,128,0,201937:0:0:0:0:
448,0,202012,128,0,202085:0:0:0:0:
64,192,202159,1,0,0:0:0:0:
448,0,202159,128,0,202232:0:0:0:0:
64,192,202306,1,0,0:0:0:0:
448,0,202306,128,0,202379:0:0:0:0:
64,192,202453,1,0,0:0:0:0:
448,0,202453,128,0,202526:0:0:0:0:
64,192,202600,1,0,0:0:0:0:
448,0,202600,128,0,202894:0:0:0:0:
64,192,202894,1,0,0:0:0:0:
192,0,202894,128,0,202967:0:0:0:0:
320,192,202967,1,0,0:0:0:0:
64,192,203041,1,0,0:0:0:0:
192,0,203041,128,0,203114:0:0:0:0:
320,192,203115,1,0,0:0:0:0:
448,192,203188,1,0,0:0:0:0:
64,0,203188,128,0,203776:0:0:0:0:
448,192,203482,1,0,0:0:0:0:
448,192,203776,1,0,0:0:0:0:
192,0,203776,128,0,204364:0:0:0:0:
448,192,204070,1,0,0:0:0:0:
448,192,204365,1,0,0:0:0:0:
320,0,204365,128,0,204953:0:0:0:0:
448,192,204659,1,0,0:0:0:0:
448,192,204953,1,0,0:0:0:0:
192,0,204953,128,0,205541:0:0:0:0:
320,192,205247,1,0,0:0:0:0:
448,192,205345,1,0,0:0:0:0:
320,192,205443,1,0,0:0:0:0:
64,192,205541,1,0,0:0:0:0:
448,0,205541,128,0,207452:0:0:0:0:
64,192,205688,1,0,0:0:0:0:
64,192,205982,1,0,0:0:0:0:
64,192,206276,1,0,0:0:0:0:
64,192,206571,1,0,0:0:0:0:
64,192,206865,1,0,0:0:0:0:
64,192,207159,1,0,0:0:0:0:
64,192,207453,1,0,0:0:0:0:
192,192,207600,1,0,0:0:0:0:
320,192,207698,1,0,0:0:0:0:
448,192,207796,1,0,0:0:0:0:
64,192,207894,1,0,0:0:0:0:
192,192,207992,1,0,0:0:0:0:
320,192,208090,1,0,0:0:0:0:
64,192,208188,1,0,0:0:0:0:
192,192,208286,1,0,0:0:0:0:
320,192,208384,1,0,0:0:0:0:
192,192,208482,1,0,0:0:0:0:
320,192,208580,1,0,0:0:0:0:
448,192,208678,1,0,0:0:0:0:
192,192,208776,1,0,0:0:0:0:
320,192,208874,1,0,0:0:0:0:
448,192,208972,1,0,0:0:0:0:
192,192,209071,1,0,0:0:0:0:
320,192,209144,1,0,0:0:0:0:
448,192,209218,1,0,0:0:0:0:
192,192,209291,1,0,0:0:0:0:
320,192,209365,1,0,0:0:0:0:
448,192,209438,1,0,0:0:0:0:
320,192,209512,1,0,0:0:0:0:
192,192,209585,1,0,0:0:0:0:
64,192,209659,1,0,0:0:0:0:
320,192,209732,1,0,0:0:0:0:
192,192,209806,1,0,0:0:0:0:
64,192,209879,1,0,0:0:0:0:
320,192,209953,1,0,0:0:0:0:
192,192,210026,1,0,0:0:0:0:
64,192,210100,1,0,0:0:0:0:
320,192,210174,1,0,0:0:0:0:
64,0,210247,128,0,212305:0:0:0:0:
448,192,210394,1,0,0:0:0:0:
448,192,210688,1,0,0:0:0:0:
448,192,210982,1,0,0:0:0:0:
448,192,211276,1,0,0:0:0:0:
448,192,211571,1,0,0:0:0:0:
448,192,211865,1,0,0:0:0:0:
448,192,212159,1,0,0:0:0:0:
320,0,212306,128,0,212600:0:0:0:0:
448,192,212453,1,0,0:0:0:0:
192,0,212600,128,0,212894:0:0:0:0:
448,192,212747,1,0,0:0:0:0:
448,192,213041,1,0,0:0:0:0:
320,0,213041,128,0,213482:0:0:0:0:
448,192,213335,1,0,0:0:0:0:
192,0,213482,128,0,213629:0:0:0:0:
448,192,213629,1,0,0:0:0:0:
320,0,213629,128,0,213776:0:0:0:0:
448,192,213924,1,0,0:0:0:0:
320,0,213924,128,0,214071:0:0:0:0:
448,192,214218,1,0,0:0:0:0:
320,0,214218,128,0,214365:0:0:0:0:
192,0,214365,128,0,214512:0:0:0:0:
448,192,214512,1,0,0:0:0:0:
320,0,214512,128,0,214659:0:0:0:0:
192,0,214659,128,0,214806:0:0:0:0:
448,192,214806,1,0,0:0:0:0:
64,0,214806,128,0,214953:0:0:0:0:
192,0,214953,128,0,215394:0:0:0:0:
448,192,215100,1,0,0:0:0:0:
448,192,215394,1,0,0:0:0:0:
320,0,215394,128,0,215835:0:0:0:0:
448,192,215688,1,0,0:0:0:0:
192,0,215835,128,0,215982:0:0:0:0:
448,192,215982,1,0,0:0:0:0:
320,0,215982,128,0,216129:0:0:0:0:
448,192,216277,1,0,0:0:0:0:
320,0,216277,128,0,216424:0:0:0:0:
448,192,216571,1,0,0:0:0:0:
320,0,216571,128,0,216718:0:0:0:0:
192,0,216718,128,0,216865:0:0:0:0:
448,192,216865,1,0,0:0:0:0:
320,0,216865,128,0,217012:0:0:0:0:
192,0,217012,128,0,217159:0:0:0:0:
448,192,217159,1,0,0:0:0:0:
64,0,217306,128,0,217747:0:0:0:0:
448,192,217453,1,0,0:0:0:0:
448,192,217747,1,0,0:0:0:0:
320,0,217747,128,0,218188:0:0:0:0:
448,192,218041,1,0,0:0:0:0:
192,0,218188,128,0,218335:0:0:0:0:
448,192,218335,1,0,0:0:0:0:
320,0,218335,128,0,218482:0:0:0:0:
448,192,218630,1,0,0:0:0:0:
320,0,218630,128,0,218777:0:0:0:0:
448,192,218924,1,0,0:0:0:0:
320,0,218924,128,0,219071:0:0:0:0:
192,0,219071,128,0,219218:0:0:0:0:
448,192,219218,1,0,0:0:0:0:
64,0,219218,128,0,219365:0:0:0:0:
320,0,219365,128,0,219512:0:0:0:0:
448,192,219512,1,0,0:0:0:0:
320,0,219659,128,0,219732:0:0:0:0:
448,192,219806,1,0,0:0:0:0:
320,0,219806,128,0,219879:0:0:0:0:
448,192,220100,1,0,0:0:0:0:
320,0,220100,128,0,220247:0:0:0:0:
192,0,220247,128,0,220394:0:0:0:0:
448,192,220394,1,0,0:0:0:0:
320,0,220394,128,0,220541:0:0:0:0:
64,0,220541,128,0,220835:0:0:0:0:
448,192,220836,1,0,0:0:0:0:
320,192,220885,1,0,0:0:0:0:
192,192,220934,1,0,0:0:0:0:
64,192,220983,1,0,0:0:0:0:
448,192,221056,1,0,0:0:0:0:
192,192,221130,1,0,0:0:0:0:
320,192,221203,1,0,0:0:0:0:
64,192,221277,1,0,0:0:0:0:
192,192,221326,1,0,0:0:0:0:
320,192,221375,1,0,0:0:0:0:
448,192,221424,1,0,0:0:0:0:
64,192,221497,1,0,0:0:0:0:
448,192,221571,1,0,0:0:0:0:
192,192,221645,1,0,0:0:0:0:
448,192,221718,1,0,0:0:0:0:
320,0,221718,128,0,221865:0:0:0:0:
192,0,221865,128,0,222012:0:0:0:0:
64,0,222012,128,0,222453:0:0:0:0:
448,192,222159,1,0,0:0:0:0:
448,192,222453,1,0,0:0:0:0:
320,0,222453,128,0,222894:0:0:0:0:
448,192,222748,1,0,0:0:0:0:
192,0,222895,128,0,223042:0:0:0:0:
448,192,223042,1,0,0:0:0:0:
320,0,223042,128,0,223189:0:0:0:0:
448,192,223336,1,0,0:0:0:0:
320,0,223336,128,0,223483:0:0:0:0:
448,192,223630,1,0,0:0:0:0:
320,0,223630,128,0,223777:0:0:0:0:
192,0,223777,128,0,223924:0:0:0:0:
448,192,223924,1,0,0:0:0:0:
320,0,223924,128,0,224071:0:0:0:0:
192,0,224071,128,0,224218:0:0:0:0:
448,192,224218,1,0,0:0:0:0:
64,0,224218,128,0,224365:0:0:0:0:
192,0,224365,128,0,224806:0:0:0:0:
448,192,224512,1,0,0:0:0:0:
448,192,224806,1,0,0:0:0:0:
320,0,224806,128,0,225247:0:0:0:0:
448,192,225101,1,0,0:0:0:0:
192,0,225248,128,0,225395:0:0:0:0:
448,192,225395,1,0,0:0:0:0:
320,0,225395,128,0,225542:0:0:0:0:
448,192,225689,1,0,0:0:0:0:
320,0,225689,128,0,225836:0:0:0:0:
448,192,225983,1,0,0:0:0:0:
320,0,225983,128,0,226130:0:0:0:0:
192,0,226130,128,0,226277:0:0:0:0:
448,192,226277,1,0,0:0:0:0:
320,0,226277,128,0,226424:0:0:0:0:
192,0,226424,128,0,226571:0:0:0:0:
448,192,226571,1,0,0:0:0:0:
64,0,226718,128,0,227159:0:0:0:0:
448,192,226865,1,0,0:0:0:0:
448,192,227159,1,0,0:0:0:0:
320,0,227159,128,0,227600:0:0:0:0:
448,192,227454,1,0,0:0:0:0:
192,0,227601,128,0,227748:0:0:0:0:
448,192,227748,1,0,0:0:0:0:
320,0,227748,128,0,227895:0:0:0:0:
448,192,228042,1,0,0:0:0:0:
320,0,228042,128,0,228189:0:0:0:0:
448,192,228336,1,0,0:0:0:0:
320,0,228336,128,0,228483:0:0:0:0:
192,0,228483,128,0,228630:0:0:0:0:
448,192,228630,1,0,0:0:0:0:
64,0,228630,128,0,228777:0:0:0:0:
320,0,228777,128,0,228924:0:0:0:0:
448,192,228924,1,0,0:0:0:0:
320,0,229071,128,0,229144:0:0:0:0:
448,192,229218,1,0,0:0:0:0:
320,0,229218,128,0,229291:0:0:0:0:
448,192,229512,1,0,0:0:0:0:
320,0,229512,128,0,229659:0:0:0:0:
192,0,229660,128,0,229807:0:0:0:0:
448,192,229807,1,0,0:0:0:0:
320,0,229807,128,0,229954:0:0:0:0:
64,192,229954,1,0,0:0:0:0:
192,0,229954,128,0,230248:0:0:0:0:
64,192,230248,1,0,0:0:0:0:
320,0,230248,128,0,230468:0:0:0:0:
320,0,230542,128,0,230762:0:0:0:0:
320,0,230836,128,0,231032:0:0:0:0:
448,0,231032,128,0,231228:0:0:0:0:
64,0,231228,128,0,231424:0:0:0:0:
448,192,231425,1,0,0:0:0:0:
320,192,231498,1,0,0:0:0:0:
192,192,231572,1,0,0:0:0:0:
64,192,231645,1,0,0:0:0:0:
448,192,231719,1,0,0:0:0:0:
320,192,231792,1,0,0:0:0:0:
192,192,231866,1,0,0:0:0:0:
320,192,231939,1,0,0:0:0:0:
448,192,232013,1,0,0:0:0:0:
192,192,232086,1,0,0:0:0:0:
320,192,232160,1,0,0:0:0:0:
64,192,232233,1,0,0:0:0:0:
448,192,232307,1,0,0:0:0:0:
192,192,232380,1,0,0:0:0:0:
320,192,232454,1,0,0:0:0:0:
192,192,232528,1,0,0:0:0:0:
448,192,232601,1,0,0:0:0:0:
192,192,232675,1,0,0:0:0:0:
320,192,232748,1,0,0:0:0:0:
192,192,232822,1,0,0:0:0:0:
448,192,232895,1,0,0:0:0:0:
320,192,232969,1,0,0:0:0:0:
192,192,233042,1,0,0:0:0:0:
320,192,233116,1,0,0:0:0:0:
448,192,233189,1,0,0:0:0:0:
320,192,233263,1,0,0:0:0:0:
192,192,233336,1,0,0:0:0:0:
320,192,233410,1,0,0:0:0:0:
448,192,233483,1,0,0:0:0:0:
64,192,233557,1,0,0:0:0:0:
320,192,233630,1,0,0:0:0:0:
64,192,233704,1,0,0:0:0:0:
448,192,233778,1,0,0:0:0:0:
64,192,233851,1,0,0:0:0:0:
320,192,233925,1,0,0:0:0:0:
64,192,233998,1,0,0:0:0:0:
192,192,234072,1,0,0:0:0:0:
320,192,234145,1,0,0:0:0:0:
448,192,234219,1,0,0:0:0:0:
320,192,234292,1,0,0:0:0:0:
192,192,234366,1,0,0:0:0:0:
320,192,234439,1,0,0:0:0:0:
448,192,234513,1,0,0:0:0:0:
320,192,234586,1,0,0:0:0:0:
64,192,234660,1,0,0:0:0:0:
320,192,234733,1,0,0:0:0:0:
192,192,234807,1,0,0:0:0:0:
320,192,234881,1,0,0:0:0:0:
64,192,234954,1,0,0:0:0:0:
320,192,235028,1,0,0:0:0:0:
192,192,235101,1,0,0:0:0:0:
320,192,235175,1,0,0:0:0:0:
192,192,235248,1,0,0:0:0:0:
448,192,235322,1,0,0:0:0:0:
320,192,235395,1,0,0:0:0:0:
448,192,235469,1,0,0:0:0:0:
192,192,235542,1,0,0:0:0:0:
448,192,235616,1,0,0:0:0:0:
320,192,235689,1,0,0:0:0:0:
448,192,235763,1,0,0:0:0:0:
64,192,235836,1,0,0:0:0:0:
192,192,235910,1,0,0:0:0:0:
320,192,235983,1,0,0:0:0:0:
192,192,236057,1,0,0:0:0:0:
64,192,236131,1,0,0:0:0:0:
192,192,236204,1,0,0:0:0:0:
320,192,236278,1,0,0:0:0:0:
192,192,236351,1,0,0:0:0:0:
64,192,236425,1,0,0:0:0:0:
448,192,236498,1,0,0:0:0:0:
320,192,236572,1,0,0:0:0:0:
448,192,236645,1,0,0:0:0:0:
64,192,236719,1,0,0:0:0:0:
448,192,236792,1,0,0:0:0:0:
320,192,236866,1,0,0:0:0:0:
448,192,236939,1,0,0:0:0:0:
192,192,237013,1,0,0:0:0:0:
320,192,237086,1,0,0:0:0:0:
192,192,237160,1,0,0:0:0:0:
448,192,237234,1,0,0:0:0:0:
192,192,237307,1,0,0:0:0:0:
320,192,237381,1,0,0:0:0:0:
192,192,237454,1,0,0:0:0:0:
448,192,237528,1,0,0:0:0:0:
320,192,237601,1,0,0:0:0:0:
192,192,237675,1,0,0:0:0:0:
320,192,237748,1,0,0:0:0:0:
448,192,237822,1,0,0:0:0:0:
320,192,237895,1,0,0:0:0:0:
192,192,237969,1,0,0:0:0:0:
320,192,238042,1,0,0:0:0:0:
448,192,238116,1,0,0:0:0:0:
64,192,238189,1,0,0:0:0:0:
448,192,238263,1,0,0:0:0:0:
192,192,238336,1,0,0:0:0:0:
448,192,238410,1,0,0:0:0:0:
64,192,238484,1,0,0:0:0:0:
448,192,238557,1,0,0:0:0:0:
192,192,238631,1,0,0:0:0:0:
448,192,238704,1,0,0:0:0:0:
192,192,238778,1,0,0:0:0:0:
320,192,238851,1,0,0:0:0:0:
192,192,238925,1,0,0:0:0:0:
448,192,238998,1,0,0:0:0:0:
192,192,239072,1,0,0:0:0:0:
320,192,239145,1,0,0:0:0:0:
192,192,239219,1,0,0:0:0:0:
448,192,239292,1,0,0:0:0:0:
64,192,239366,1,0,0:0:0:0:
192,192,239439,1,0,0:0:0:0:
320,192,239513,1,0,0:0:0:0:
192,192,239587,1,0,0:0:0:0:
64,192,239660,1,0,0:0:0:0:
192,192,239709,1,0,0:0:0:0:
320,192,239758,1,0,0:0:0:0:
448,192,239807,1,0,0:0:0:0:
192,192,239881,1,0,0:0:0:0:
448,192,239954,1,0,0:0:0:0:
192,192,240028,1,0,0:0:0:0:
448,192,240101,1,0,0:0:0:0:
320,192,240150,1,0,0:0:0:0:
192,192,240199,1,0,0:0:0:0:
64,192,240248,1,0,0:0:0:0:
320,192,240322,1,0,0:0:0:0:
64,192,240396,1,0,0:0:0:0:
320,192,240469,1,0,0:0:0:0:
192,192,240543,1,0,0:0:0:0:
64,192,240837,1,0,0:0:0:0:
320,192,240837,1,0,0:0:0:0:
448,192,240837,1,0,0:0:0:0:
64,192,240984,1,0,0:0:0:0:
320,192,240984,1,0,0:0:0:0:
448,192,240984,1,0,0:0:0:0:
64,192,241131,1,0,0:0:0:0:
64,192,241278,1,0,0:0:0:0:
320,192,241278,1,0,0:0:0:0:
448,192,241278,1,0,0:0:0:0:
64,192,241425,1,0,0:0:0:0:
320,192,241425,1,0,0:0:0:0:
448,192,241425,1,0,0:0:0:0:
64,192,241572,1,0,0:0:0:0:
64,192,241719,1,0,0:0:0:0:
320,192,241719,1,0,0:0:0:0:
448,192,241719,1,0,0:0:0:0:
64,192,241866,1,0,0:0:0:0:
320,192,241866,1,0,0:0:0:0:
448,192,241866,1,0,0:0:0:0:
64,192,242013,1,0,0:0:0:0:
64,192,242160,1,0,0:0:0:0:
320,192,242160,1,0,0:0:0:0:
448,192,242160,1,0,0:0:0:0:
64,192,242307,1,0,0:0:0:0:
320,192,242307,1,0,0:0:0:0:
448,192,242307,1,0,0:0:0:0:
64,192,242454,1,0,0:0:0:0:
64,192,242602,1,0,0:0:0:0:
320,192,242602,1,0,0:0:0:0:
448,192,242602,1,0,0:0:0:0:
64,192,242749,1,0,0:0:0:0:
64,192,242896,1,0,0:0:0:0:
320,192,242896,1,0,0:0:0:0:
448,192,242896,1,0,0:0:0:0:
64,192,243043,1,0,0:0:0:0:
192,192,243190,1,0,0:0:0:0:
320,192,243190,1,0,0:0:0:0:
448,192,243190,1,0,0:0:0:0:
192,192,243337,1,0,0:0:0:0:
320,192,243337,1,0,0:0:0:0:
448,192,243337,1,0,0:0:0:0:
192,192,243484,1,0,0:0:0:0:
192,192,243631,1,0,0:0:0:0:
320,192,243631,1,0,0:0:0:0:
448,192,243631,1,0,0:0:0:0:
192,192,243778,1,0,0:0:0:0:
320,192,243778,1,0,0:0:0:0:
448,192,243778,1,0,0:0:0:0:
192,192,243925,1,0,0:0:0:0:
192,192,244072,1,0,0:0:0:0:
320,192,244072,1,0,0:0:0:0:
448,192,244072,1,0,0:0:0:0:
192,192,244219,1,0,0:0:0:0:
320,192,244219,1,0,0:0:0:0:
448,192,244219,1,0,0:0:0:0:
192,192,244366,1,0,0:0:0:0:
192,192,244513,1,0,0:0:0:0:
320,192,244513,1,0,0:0:0:0:
448,192,244513,1,0,0:0:0:0:
192,192,244660,1,0,0:0:0:0:
320,192,244660,1,0,0:0:0:0:
448,192,244660,1,0,0:0:0:0:
192,192,244807,1,0,0:0:0:0:
192,192,244955,1,0,0:0:0:0:
320,192,244955,1,0,0:0:0:0:
448,192,244955,1,0,0:0:0:0:
192,192,245102,1,0,0:0:0:0:
192,192,245249,1,0,0:0:0:0:
320,192,245249,1,0,0:0:0:0:
448,0,245249,128,0,245469:0:0:0:0:
192,192,245396,1,0,0:0:0:0:
64,192,245543,1,0,0:0:0:0:
192,192,245543,1,0,0:0:0:0:
448,192,245543,1,0,0:0:0:0:
64,192,245690,1,0,0:0:0:0:
192,192,245690,1,0,0:0:0:0:
448,192,245690,1,0,0:0:0:0:
448,192,245837,1,0,0:0:0:0:
64,192,245984,1,0,0:0:0:0:
192,192,245984,1,0,0:0:0:0:
448,192,245984,1,0,0:0:0:0:
64,192,246131,1,0,0:0:0:0:
192,192,246131,1,0,0:0:0:0:
448,192,246131,1,0,0:0:0:0:
448,192,246278,1,0,0:0:0:0:
64,192,246425,1,0,0:0:0:0:
192,192,246425,1,0,0:0:0:0:
448,192,246425,1,0,0:0:0:0:
64,192,246572,1,0,0:0:0:0:
192,192,246572,1,0,0:0:0:0:
448,192,246572,1,0,0:0:0:0:
448,192,246719,1,0,0:0:0:0:
64,192,246866,1,0,0:0:0:0:
192,192,246866,1,0,0:0:0:0:
448,192,246866,1,0,0:0:0:0:
64,192,247013,1,0,0:0:0:0:
192,192,247013,1,0,0:0:0:0:
448,192,247013,1,0,0:0:0:0:
448,192,247160,1,0,0:0:0:0:
64,192,247308,1,0,0:0:0:0:
192,192,247308,1,0,0:0:0:0:
448,192,247308,1,0,0:0:0:0:
448,192,247455,1,0,0:0:0:0:
64,192,247602,1,0,0:0:0:0:
192,192,247602,1,0,0:0:0:0:
448,192,247602,1,0,0:0:0:0:
448,192,247749,1,0,0:0:0:0:
64,192,247896,1,0,0:0:0:0:
448,192,247896,1,0,0:0:0:0:
192,192,247969,1,0,0:0:0:0:
448,192,248043,1,0,0:0:0:0:
192,192,248116,1,0,0:0:0:0:
448,192,248190,1,0,0:0:0:0:
192,192,248263,1,0,0:0:0:0:
448,192,248337,1,0,0:0:0:0:
192,192,248411,1,0,0:0:0:0:
448,192,248484,1,0,0:0:0:0:
192,192,248558,1,0,0:0:0:0:
448,192,248631,1,0,0:0:0:0:
192,192,248705,1,0,0:0:0:0:
448,192,248778,1,0,0:0:0:0:
320,192,248852,1,0,0:0:0:0:
192,192,248925,1,0,0:0:0:0:
64,192,248999,1,0,0:0:0:0:
320,0,249072,128,0,250248:0:0:0:0:
448,192,250249,1,0,0:0:0:0:
320,192,250298,1,0,0:0:0:0:
192,192,250347,1,0,0:0:0:0:
64,192,250396,1,0,0:0:0:0:
320,192,250469,1,0,0:0:0:0:
64,192,250543,1,0,0:0:0:0:
192,192,250592,1,0,0:0:0:0:
320,192,250641,1,0,0:0:0:0:
448,192,250690,1,0,0:0:0:0:
192,192,250764,1,0,0:0:0:0:
448,192,250837,1,0,0:0:0:0:
320,192,250886,1,0,0:0:0:0:
192,192,250935,1,0,0:0:0:0:
64,192,250984,1,0,0:0:0:0:
320,192,251058,1,0,0:0:0:0:
64,192,251131,1,0,0:0:0:0:
192,192,251180,1,0,0:0:0:0:
320,192,251229,1,0,0:0:0:0:
448,192,251278,1,0,0:0:0:0:
192,192,251352,1,0,0:0:0:0:
448,192,251426,1,0,0:0:0:0:
320,192,251475,1,0,0:0:0:0:
192,192,251524,1,0,0:0:0:0:
64,192,251573,1,0,0:0:0:0:
448,192,251646,1,0,0:0:0:0:
64,192,251720,1,0,0:0:0:0:
320,192,251769,1,0,0:0:0:0:
192,192,251818,1,0,0:0:0:0:
448,192,251867,1,0,0:0:0:0:
64,192,251940,1,0,0:0:0:0:
192,192,252014,1,0,0:0:0:0:
320,192,252112,1,0,0:0:0:0:
448,192,252210,1,0,0:0:0:0:
64,192,252308,1,0,0:0:0:0:
320,192,252406,1,0,0:0:0:0:
192,192,252504,1,0,0:0:0:0:
64,192,252602,1,0,0:0:0:0:
448,192,252602,1,0,0:0:0:0:
64,192,252749,1,0,0:0:0:0:
448,192,252749,1,0,0:0:0:0:
320,192,252896,1,0,0:0:0:0:
192,192,253043,1,0,0:0:0:0:
320,192,253043,1,0,0:0:0:0:
64,192,253191,1,0,0:0:0:0:
448,192,253191,1,0,0:0:0:0:
192,192,253338,1,0,0:0:0:0:
320,192,253338,1,0,0:0:0:0:
192,192,253485,1,0,0:0:0:0:
320,192,253632,1,0,0:0:0:0:
448,192,253632,1,0,0:0:0:0:
64,192,253779,1,0,0:0:0:0:
192,192,253779,1,0,0:0:0:0:
192,192,253926,1,0,0:0:0:0:
320,192,253926,1,0,0:0:0:0:
64,192,254073,1,0,0:0:0:0:
192,192,254073,1,0,0:0:0:0:
192,192,254220,1,0,0:0:0:0:
320,192,254220,1,0,0:0:0:0:
64,192,254367,1,0,0:0:0:0:
448,192,254367,1,0,0:0:0:0:
192,192,254514,1,0,0:0:0:0:
448,192,254514,1,0,0:0:0:0:
320,0,254661,128,0,256719:0:0:0:0:
448,0,254661,128,0,256719:0:0:0:0:
