osu file format v14

[General]
AudioFilename: AKB songs compilation.mp3
AudioLeadIn: 0
PreviewTime: 743331
Countdown: 0
SampleSet: Soft
StackLeniency: 0.7
Mode: 0
LetterboxInBreaks: 1
EpilepsyWarning: 1
WidescreenStoryboard: 1

[Editor]
DistanceSpacing: 1
BeatDivisor: 4
GridSize: 8
TimelineZoom: 1

[Metadata]
Title:Songs Compilation
TitleUnicode:Songs Compilation
Artist:AKB48
ArtistUnicode:AKB48
Creator:P A N
Version:Marathon
Source:
Tags:会いたかった Aitakatta BINGO! AKB参上! AKB Sanjou! 10年桜 10nen zakura 涙サプライズ! Namida Surprise! 言い訳Maybe Iiwake Maybe ポニーテールとシュシュ Ponytail to Shushu 大声ダイヤモンド Oogoe Diamond RIVER Everyday, カチューシャ Everyday, Kachuusha Relax! ヘビーローテーション Heavy Rotation Beginner 恋するフォーチュンクッキー Koi suru Fortune Cookie フライングゲット Flying Get Akihabara
BeatmapID:1212686
BeatmapSetID:572304

[Difficulty]
HPDrainRate:4.5
CircleSize:4.2
OverallDifficulty:8.7
ApproachRate:9
SliderMultiplier:1.9
SliderTickRate:1

[Events]
//Background and Video events
0,0,"gvr.jpg",0,0
//Break Periods
2,88037,91627
2,146027,149816
2,192616,200493
2,251465,260962
2,314987,323755
2,408811,414644
2,512142,518546
2,585533,591895
2,648751,655164
2,733964,742816
2,793082,801692
2,858742,864292
2,947904,953186
2,1015818,1020348
//Storyboard Layer 0 (Background)
//Storyboard Layer 1 (Fail)
//Storyboard Layer 2 (Pass)
//Storyboard Layer 3 (Foreground)
//Storyboard Sound Samples

[TimingPoints]
5806,312.5,4,2,1,40,1,0
30806,-100,4,2,1,40,0,0
92227,400,4,2,2,30,1,0
150416,375,4,2,1,45,1,0
201093,344.827586206897,4,2,1,20,1,0
201782,-100,4,2,1,30,0,0
202472,-100,4,2,1,40,0,0
205575,-133.333333333333,4,2,1,40,0,0
205920,-80,4,2,1,40,0,0
207127,-100,4,2,1,40,0,0
211437,-80,4,2,1,40,0,0
212127,-100,4,2,1,40,0,0
216610,-133.333333333333,4,2,1,40,0,0
216955,-80,4,2,1,40,0,0
217644,-100,4,2,1,40,0,0
219024,-133.333333333333,4,2,1,40,0,0
220403,-100,4,2,1,40,0,0
221782,-200,4,2,1,40,0,0
222127,-133.333333333333,4,2,1,40,0,0
222472,-100,4,2,1,40,0,0
222817,-80,4,2,1,40,0,0
223161,-66.6666666666667,4,2,1,40,0,0
223679,-100,4,2,1,40,0,0
243851,-80,4,2,1,40,0,0
246610,-100,4,2,1,40,0,0
261562,483.870967741935,4,2,11,55,1,0
268820,483.870967741935,4,2,11,55,1,0
282852,-133.333333333333,4,2,11,55,0,0
284303,-100,4,2,11,55,0,0
324355,346.020761245675,4,2,1,40,1,0
338195,-133.333333333333,4,2,1,40,0,0
347884,-100,4,2,1,40,0,0
354804,-133.333333333333,4,2,1,40,0,0
363109,-100,4,2,1,40,0,0
399181,-100,4,2,1,5,0,0
399268,-100,4,2,1,40,0,0
399355,-100,4,2,1,5,0,0
399441,-100,4,2,1,40,0,0
399528,-100,4,2,1,5,0,0
399614,-100,4,2,1,40,0,0
399701,-100,4,2,1,5,0,0
399787,-100,4,2,1,40,0,0
399874,-100,4,2,1,5,0,0
399960,-100,4,2,1,40,0,0
400047,-100,4,2,1,5,0,0
400133,-100,4,2,1,40,0,0
415244,438.56443242453,4,2,5,45,1,0
418528,438.56443242453,4,2,5,45,1,0
430807,-133.333333333333,4,2,5,45,0,0
431246,-66.6666666666667,4,2,5,45,0,0
431684,-133.333333333333,4,2,5,45,0,0
432123,-66.6666666666667,4,2,5,45,0,0
432562,-133.333333333333,4,2,5,45,0,0
432781,-66.6666666666667,4,2,5,45,0,0
433000,-133.333333333333,4,2,5,45,0,0
433219,-66.6666666666667,4,2,5,45,0,0
433439,-133.333333333333,4,2,5,45,0,0
433658,-66.6666666666667,4,2,5,45,0,0
433877,-133.333333333333,4,2,5,45,0,0
434097,-66.6666666666667,4,2,5,45,0,0
434316,-100,4,2,5,45,0,0
442210,-66.6666666666667,4,2,5,45,0,0
443087,-100,4,2,5,45,0,0
456244,-66.6666666666667,4,2,5,45,0,0
457121,-100,4,2,5,45,0,0
464138,-66.6666666666667,4,2,5,45,0,0
468743,-100,4,2,5,45,0,0
472909,-66.6666666666667,4,2,5,45,0,0
476637,-100,4,2,5,45,0,0
484312,-66.6666666666667,4,2,5,45,0,0
485189,-100,4,2,5,45,0,0
488259,-66.6666666666667,4,2,5,45,0,0
488698,-100,4,2,5,45,0,0
498346,-66.6666666666667,4,2,5,45,0,0
499223,-100,4,2,5,45,0,0
502293,-66.6666666666667,4,2,5,45,0,0
502732,-100,4,2,5,45,0,0
511174,-66.6666666666667,4,2,5,45,0,0
519146,375,4,2,5,55,1,0
519146,-133.333333333333,4,2,5,55,0,0
526458,-133.333333333333,4,2,99,55,0,0
526646,-133.333333333333,4,2,5,55,0,0
527958,-100,4,2,5,55,0,0
528333,375,4,2,5,55,1,0
542770,-133.333333333333,4,2,5,55,0,0
543145,-100,4,2,5,55,0,0
544270,-133.333333333333,4,2,5,55,0,0
544645,-100,4,2,5,55,0,0
552333,-66.6666666666667,4,2,5,55,0,0
553833,-100,4,2,5,55,0,0
554770,-133.333333333333,4,2,5,55,0,0
555145,-100,4,2,5,55,0,0
556270,-133.333333333333,4,2,5,55,0,0
556645,-100,4,2,5,55,0,0
582333,-100,4,2,5,5,0,0
592495,563.380281690141,4,2,2,60,1,0
592495,-133.333333333333,4,2,2,60,0,0
593058,-100,4,2,2,60,0,0
610523,-133.333333333333,4,2,2,60,0,0
611649,-100,4,2,2,60,0,0
612213,-133.333333333333,4,2,2,60,0,0
612776,-100,4,2,2,60,0,0
644325,-133.333333333333,4,2,2,60,0,0
655764,375,4,2,2,60,1,0
667764,-66.6666666666667,4,2,2,60,0,0
672264,-133.333333333333,4,2,2,60,0,0
678264,-100,4,2,2,60,0,0
715951,-100,4,2,2,40,0,0
717264,-133.333333333333,4,2,2,60,0,0
721201,-100,4,2,2,60,0,0
733764,-100,4,2,2,5,0,0
743416,337.078651685393,4,2,13,55,1,0
744090,337.078651685393,4,2,13,55,1,0
744764,-133.333333333333,4,2,13,55,0,0
746112,-100,4,2,13,55,0,0
747460,-133.333333333333,4,2,13,55,0,0
748809,-100,4,2,13,55,0,0
749820,-133.333333333333,4,2,13,55,0,0
751505,-100,4,2,13,55,0,0
764651,-100,4,2,13,40,0,0
765663,-100,4,2,13,55,0,0
766337,-133.333333333333,4,2,13,55,0,0
767685,-100,4,2,13,55,0,0
769033,-133.333333333333,4,2,13,55,0,0
770382,-100,4,2,13,55,0,0
771730,-133.333333333333,4,2,13,55,0,0
773078,-100,4,2,13,55,0,0
789932,-200,4,2,13,55,0,0
790691,-200,4,2,13,5,0,0
790775,-200,4,2,13,55,0,0
791281,-200,4,2,13,5,0,0
791365,-133.333333333333,4,2,13,55,0,0
791702,-200,4,2,13,5,0,0
791786,-166.666666666667,4,2,13,55,0,0
792039,-200,4,2,13,5,0,0
792123,-200,4,2,13,55,0,0
792376,-200,4,2,13,5,0,0
792460,-200,4,2,13,55,0,0
792797,-200,4,2,13,5,0,0
792882,-200,4,2,13,55,0,0
802292,375,4,2,13,70,1,0
807542,-133.333333333333,4,2,13,70,0,0
808292,-100,4,2,13,70,0,0
810542,-133.333333333333,4,2,13,70,0,0
811104,-100,4,2,13,70,0,0
821604,-66.6666666666667,4,2,13,70,0,0
822354,-100,4,2,13,70,0,0
827042,-133.333333333333,4,2,13,70,0,0
827792,-80,4,2,13,70,0,0
829292,-100,4,2,13,70,0,0
830229,-200,4,2,13,70,0,0
830979,-100,4,2,13,70,0,0
836229,-200,4,2,13,70,0,0
836604,-100,4,2,13,70,0,0
841292,-66.6666666666667,4,2,13,70,0,0
841667,-100,4,2,13,70,0,0
847479,-100,4,2,13,40,0,0
850292,-200,4,2,13,70,0,0
858542,-200,4,2,13,5,0,0
864892,347.957201264244,4,2,10,75,1,0
874634,-133.333333333333,4,2,10,75,0,0
874982,-80,4,2,10,75,0,0
875330,-100,4,2,10,75,0,0
875678,-133.333333333333,4,2,10,75,0,0
876026,-100,4,2,10,75,0,0
884725,-80,4,2,10,75,0,0
885421,-100,4,2,10,75,0,0
896556,-133.333333333333,4,2,10,75,0,0
897252,-80,4,2,10,75,0,0
897599,-100,4,2,10,75,0,0
897947,-133.333333333333,4,2,10,75,0,0
898295,-100,4,2,10,75,0,0
906994,-80,4,2,10,75,0,0
907342,-100,4,2,10,75,0,0
911518,-100,4,2,10,75,0,0
912214,-100,4,2,10,75,0,0
934483,-80,4,2,10,75,0,0
939006,-100,4,2,10,75,0,0
940050,-80,4,2,10,75,0,0
944574,-100,4,2,10,75,0,0
946835,-133.333333333333,4,2,10,75,0,0
947705,-133.333333333333,4,2,10,5,0,0
953786,458.015267175573,4,2,14,70,1,0
969129,-100,4,2,14,50,0,0
969816,-100,4,2,14,70,0,0
971419,-80,4,2,14,70,0,0
977946,-80,4,2,14,60,0,0
978747,-66.6666666666667,4,2,14,70,0,0
979091,-57.1428571428571,4,2,14,70,0,0
979434,-80,4,2,14,70,0,0
984244,-80,4,2,14,60,0,0
984931,-80,4,2,14,70,0,0
986076,-66.6666666666667,4,2,14,70,0,0
988595,-66.6666666666667,4,2,14,40,0,0
989740,-57.1428571428571,4,2,14,70,0,0
990427,-100,4,2,14,70,0,0
993633,-133.333333333333,4,2,14,70,0,0
994091,-100,4,2,14,70,0,0
1011037,-50,4,2,14,70,0,0
1013556,-80,4,2,14,70,0,0
1020948,491.803278688525,4,2,15,40,1,0
1024882,-83.3333333333333,4,2,15,40,0,0
1026849,-71.4285714285714,4,2,15,40,0,0
1028816,-100,4,2,15,40,0,0
1035948,-100,4,2,15,25,0,0
1036439,-100,4,2,15,40,0,0
1039882,-100,4,2,15,25,0,0
1040374,-100,4,2,15,40,0,0
1059554,-100,4,2,15,25,0,0
1060046,-100,4,2,15,40,0,0
1081439,-80,4,2,15,40,0,0

[Colours]
Combo1 : 239,255,128
Combo2 : 235,235,235
Combo3 : 0,53,236

[HitObjects]
101,49,5806,5,6,0:0:0:0:
411,49,6118,1,4,0:0:0:0:
428,145,6274,1,2,0:0:0:0:
449,239,6431,1,4,0:0:0:0:
63,239,6743,1,4,0:0:0:0:
449,239,7056,5,2,0:0:0:0:
63,239,7368,1,4,0:0:0:0:
449,239,7681,1,0,0:0:0:0:
428,145,7837,1,2,0:0:0:0:
411,49,7993,1,4,0:0:0:0:
101,49,8306,5,2,0:0:0:0:
411,49,8618,1,4,0:0:0:0:
101,49,8931,1,2,0:0:0:0:
84,145,9087,1,2,0:0:0:0:
63,239,9243,1,4,0:0:0:0:
449,239,9556,6,0,L|354:241,1,95,4|0,0:0|0:0,0:0:0:0:
307,132,9868,2,0,L|402:130,1,95,4|0,0:0|0:0,0:0:0:0:
406,324,10181,2,0,L|311:326,1,95,4|0,0:0|0:0,0:0:0:0:
344,47,10493,2,0,L|439:45,1,95,4|0,0:0|0:0,0:0:0:0:
307,132,10806,6,0,P|259:98|244:60,1,95,4|0,0:0|0:0,0:0:0:0:
393,129,11118,2,0,B|399:164|399:164|391:228,1,95,8|0,0:0|0:0,0:0:0:0:
331,317,11431,2,0,P|281:319|236:299,1,95,2|0,0:0|0:0,0:0:0:0:
161,220,11743,2,0,P|114:224|73:249,1,95,8|0,0:0|0:0,0:0:0:0:
3,336,12056,6,0,B|-6:190|-6:190|14:140,1,190,2|8,0:0|0:0,0:0:0:0:
69,49,12524,1,0,0:0:0:0:
168,107,12681,2,0,P|134:145|81:163,1,95,2|0,0:0|0:0,0:0:0:0:
168,107,12993,2,0,L|264:112,1,95,8|0,0:0|0:0,0:0:0:0:
368,162,13306,6,0,P|380:109|373:68,1,95,2|0,0:0|0:0,0:0:0:0:
283,220,13618,2,0,P|276:266|288:312,1,95,8|0,0:0|0:0,0:0:0:0:
386,369,13931,2,0,B|453:371|453:371|482:354,1,95,2|0,0:0|0:0,0:0:0:0:
458,246,14243,2,0,B|391:244|391:244|362:261,1,95,8|0,0:0|0:0,0:0:0:0:
277,354,14556,6,0,P|186:360|117:284,1,190,2|8,0:0|0:0,0:0:0:0:
94,172,15024,2,0,B|60:164|60:164|-13:171,1,95,2|0,0:0|0:0,0:0:0:0:
96,275,15337,1,2,0:0:0:0:
193,175,15493,2,0,B|227:167|227:167|300:174,1,95,8|0,0:0|0:0,0:0:0:0:
422,224,15806,6,0,P|436:170|425:118,1,95,2|0,0:0|0:0,0:0:0:0:
350,53,16118,2,0,L|253:56,1,95,8|0,0:0|0:0,0:0:0:0:
150,103,16431,2,0,P|117:78|100:27,1,95,2|0,0:0|0:0,0:0:0:0:
226,171,16743,2,0,B|231:219|231:219|223:267,1,95,8|0,0:0|0:0,0:0:0:0:
123,322,17056,6,0,P|196:301|301:353,1,190,2|8,0:0|0:0,0:0:0:0:
403,312,17524,1,0,0:0:0:0:
398,197,17681,2,0,P|357:206|317:243,1,95,2|0,0:0|0:0,0:0:0:0:
226,171,17993,2,0,P|217:121|228:73,1,95,8|0,0:0|0:0,0:0:0:0:
328,20,18306,6,0,L|433:23,1,95,2|0,0:0|0:0,0:0:0:0:
225,78,18618,2,0,L|130:75,1,95,8|0,0:0|0:0,0:0:0:0:
48,159,18931,2,0,B|49:214|30:249|30:249|19:300|48:351,1,190,2|8,0:0|0:0,0:0:0:0:
144,284,19399,1,0,0:0:0:0:
353,357,19556,6,0,L|452:354,1,95,6|0,0:0|0:0,0:0:0:0:
502,251,19868,1,2,0:0:0:0:
225,78,20024,2,0,P|172:72|129:84,1,95,4|0,0:0|0:0,0:0:0:0:
48,159,20337,1,2,0:0:0:0:
275,325,20493,2,0,L|374:322,1,95,6|0,0:0|0:0,0:0:0:0:
486,127,20806,6,0,P|472:78|442:44,1,95,6|0,0:0|0:0,0:0:0:0:
338,86,21118,2,0,B|329:123|329:123|339:181,1,95,8|0,0:0|0:0,0:0:0:0:
338,86,21431,2,0,B|299:91|299:91|230:78,1,95,2|0,0:0|0:0,0:0:0:0:
148,17,21743,2,0,B|109:12|109:12|40:25,1,95,8|0,0:0|0:0,0:0:0:0:
11,128,22056,6,0,B|30:151|55:158|55:158|118:135|202:164,1,190,2|8,0:0|0:0,0:0:0:0:
197,279,22524,1,0,0:0:0:0:
95,328,22681,2,0,P|86:279|96:230,1,95,2|0,0:0|0:0,0:0:0:0:
297,231,22993,2,0,P|306:280|296:329,1,95,8|0,0:0|0:0,0:0:0:0:
188,159,23306,6,0,P|179:110|189:61,1,95,2|0,0:0|0:0,0:0:0:0:
291,21,23618,2,0,B|337:16|337:16|391:27,1,95,8|0,0:0|0:0,0:0:0:0:
465,107,23931,2,0,L|461:207,1,95,2|0,0:0|0:0,0:0:0:0:
373,277,24243,2,0,L|381:377,1,95,8|0,0:0|0:0,0:0:0:0:
276,327,24556,6,0,P|263:277|273:222,1,95,2|0,0:0|0:0,0:0:0:0:
336,145,24868,2,0,B|289:139|289:139|239:147,1,95,8|0,0:0|0:0,0:0:0:0:
130,170,25181,1,2,0:0:0:0:
130,170,25337,1,2,0:0:0:0:
291,21,25493,2,0,B|244:32|244:32|201:57,1,95,8|0,0:0|0:0,0:0:0:0:
132,144,25806,6,0,L|139:243,1,95,2|0,0:0|0:0,0:0:0:0:
194,338,26118,2,0,P|147:352|93:343,1,95,8|0,0:0|0:0,0:0:0:0:
235,242,26431,2,0,P|281:236|326:250,1,95,2|0,0:0|0:0,0:0:0:0:
395,341,26743,2,0,B|444:330|444:330|483:301,1,95,8|0,0:0|0:0,0:0:0:0:
494,186,27056,6,0,B|443:172|418:136|418:136|384:94|328:91,1,190,2|8,0:0|0:0,0:0:0:0:
221,69,27524,1,0,0:0:0:0:
132,144,27681,2,0,P|126:192|137:242,1,95,2|0,0:0|0:0,0:0:0:0:
267,347,27993,2,0,P|228:317|179:302,1,95,8|0,0:0|0:0,0:0:0:0:
22,363,28306,6,0,P|66:344|104:309,1,95,2|0,0:0|0:0,0:0:0:0:
212,232,28618,2,0,B|249:224|249:224|316:230,1,95,8|0,0:0|0:0,0:0:0:0:
434,279,28931,2,0,P|441:230|431:175,1,95,2|0,0:0|0:0,0:0:0:0:
364,96,29243,1,8,0:0:0:0:
497,29,29399,1,0,0:0:0:0:
328,116,29556,6,0,L|228:112,1,95,6|0,0:0|0:0,0:0:0:0:
143,38,29868,1,2,0:0:0:0:
104,286,30024,2,0,P|133:329|184:349,1,95,6|0,0:0|0:0,0:0:0:0:
318,300,30337,1,2,0:0:0:0:
209,251,30493,1,8,0:0:0:0:
260,377,30649,1,2,0:0:0:0:
343,267,30806,6,0,P|350:219|340:169,1,95,12|2,0:0|0:0,0:0:0:0:
128,104,31118,2,0,P|121:152|131:202,1,95,8|2,0:0|0:0,0:0:0:0:
363,274,31431,2,0,P|370:226|360:176,1,95,8|2,0:0|0:0,0:0:0:0:
106,97,31743,2,0,P|99:145|109:195,1,95,8|2,0:0|0:0,0:0:0:0:
263,331,32056,5,8,0:0:0:0:
263,331,32212,1,2,0:0:0:0:
74,330,32368,1,8,0:0:0:0:
74,330,32524,1,2,0:0:0:0:
229,243,32681,2,0,P|271:243|325:267,1,95,8|2,0:0|0:0,0:0:0:0:
475,170,32993,2,0,P|494:217|492:267,1,95,8|2,0:0|0:0,0:0:0:0:
330,347,33306,6,0,L|232:343,1,95,8|2,0:0|0:0,0:0:0:0:
224,157,33618,2,0,L|322:161,1,95,8|2,0:0|0:0,0:0:0:0:
325,365,33931,2,0,L|227:361,1,95,8|2,0:0|0:0,0:0:0:0:
214,133,34243,2,0,L|312:137,1,95,8|2,0:0|0:0,0:0:0:0:
493,260,34556,5,8,0:0:0:0:
493,260,34712,1,2,0:0:0:0:
395,73,34868,1,8,0:0:0:0:
395,73,35024,1,2,0:0:0:0:
341,221,35181,1,8,0:0:0:0:
341,221,35337,1,2,0:0:0:0:
454,153,35493,1,8,0:0:0:0:
454,153,35649,1,2,0:0:0:0:
287,306,35806,6,0,P|243:320|190:313,1,95,12|2,0:0|0:0,0:0:0:0:
175,130,36118,2,0,P|219:116|272:123,1,95,8|2,0:0|0:0,0:0:0:0:
289,336,36431,2,0,P|245:350|192:343,1,95,8|2,0:0|0:0,0:0:0:0:
167,100,36743,2,0,P|211:86|264:93,1,95,8|2,0:0|0:0,0:0:0:0:
399,222,37056,5,8,0:0:0:0:
399,222,37212,1,2,0:0:0:0:
350,44,37368,1,8,0:0:0:0:
350,44,37524,1,2,0:0:0:0:
224,180,37681,2,0,B|217:218|217:218|226:289,1,95,8|2,0:0|0:0,0:0:0:0:
74,372,37993,2,0,P|50:324|51:271,1,95,8|2,0:0|0:0,0:0:0:0:
167,100,38306,6,0,B|201:89|201:89|262:93,1,95,8|2,0:0|0:0,0:0:0:0:
317,266,38618,2,0,B|283:277|283:277|222:273,1,95,8|2,0:0|0:0,0:0:0:0:
89,150,38931,2,0,P|80:103|89:54,1,95,8|2,0:0|0:0,0:0:0:0:
211,27,39243,1,8,0:0:0:0:
64,24,39399,1,2,0:0:0:0:
260,92,39556,6,0,P|306:96|352:80,1,95,12|2,0:0|0:0,0:0:0:0:
446,15,39868,1,2,0:0:0:0:
459,263,40024,2,0,P|456:318|420:363,1,95,12|0,0:0|0:0,0:0:0:0:
276,307,40337,1,2,0:0:0:0:
244,297,40415,1,2,0:0:0:0:
212,286,40493,1,8,0:0:0:0:
369,202,40649,1,2,0:0:0:0:
193,135,40806,6,0,P|142:128|86:153,1,95,12|2,0:0|0:0,0:0:0:0:
120,292,41118,2,0,P|171:299|227:274,1,95,8|2,0:0|0:0,0:0:0:0:
189,104,41431,2,0,P|138:97|82:122,1,95,8|2,0:0|0:0,0:0:0:0:
120,326,41743,2,0,P|171:333|227:308,1,95,8|2,0:0|0:0,0:0:0:0:
288,174,42056,5,8,0:0:0:0:
288,174,42212,1,2,0:0:0:0:
359,323,42368,1,8,0:0:0:0:
359,323,42524,1,2,0:0:0:0:
436,177,42681,2,0,P|444:128|436:83,1,95,8|2,0:0|0:0,0:0:0:0:
282,22,42993,2,0,B|246:14|246:14|176:20,1,95,8|2,0:0|0:0,0:0:0:0:
64,130,43306,6,0,L|70:231,1,95,8|2,0:0|0:0,0:0:0:0:
263,237,43618,2,0,L|257:136,1,95,8|2,0:0|0:0,0:0:0:0:
28,127,43931,2,0,L|34:228,1,95,8|2,0:0|0:0,0:0:0:0:
295,241,44243,2,0,L|289:140,1,95,8|2,0:0|0:0,0:0:0:0:
144,35,44556,5,8,0:0:0:0:
144,35,44712,1,2,0:0:0:0:
163,212,44868,1,8,0:0:0:0:
163,212,45024,1,2,0:0:0:0:
251,63,45181,1,8,0:0:0:0:
251,63,45337,1,2,0:0:0:0:
150,126,45493,1,8,0:0:0:0:
150,126,45649,1,2,0:0:0:0:
295,241,45806,6,0,P|340:251|389:241,1,95,12|2,0:0|0:0,0:0:0:0:
421,86,46118,2,0,P|376:76|327:86,1,95,8|2,0:0|0:0,0:0:0:0:
309,274,46431,2,0,P|354:284|403:274,1,95,8|2,0:0|0:0,0:0:0:0:
439,61,46743,2,0,P|394:51|345:61,1,95,8|2,0:0|0:0,0:0:0:0:
245,174,47056,5,8,0:0:0:0:
245,174,47212,1,2,0:0:0:0:
187,33,47368,1,8,0:0:0:0:
187,33,47524,1,2,0:0:0:0:
87,149,47681,2,0,B|78:181|78:181|85:246,1,95,8|2,0:0|0:0,0:0:0:0:
171,353,47993,2,0,P|222:359|266:350,1,95,8|2,0:0|0:0,0:0:0:0:
364,244,48306,6,0,L|360:145,1,95,8|2,0:0|0:0,0:0:0:0:
200,140,48618,2,0,L|204:239,1,95,8|2,0:0|0:0,0:0:0:0:
398,229,48931,2,0,L|394:130,1,95,8|2,0:0|0:0,0:0:0:0:
169,120,49243,1,8,0:0:0:0:
71,187,49399,1,2,0:0:0:0:
286,334,49556,6,0,P|332:342|386:330,1,95,12|2,0:0|0:0,0:0:0:0:
482,280,49868,1,2,0:0:0:0:
263,34,50024,2,0,P|218:25|161:38,1,95,12|0,0:0|0:0,0:0:0:0:
86,138,50337,1,2,0:0:0:0:
86,138,50415,1,2,0:0:0:0:
86,138,50493,1,8,0:0:0:0:
218,139,50649,1,2,0:0:0:0:
117,247,50806,6,0,P|69:252|21:232,1,95,12|2,0:0|0:0,0:0:0:0:
254,282,51118,2,0,P|282:321|289:372,1,95,8|2,0:0|0:0,0:0:0:0:
218,139,51431,2,0,P|237:94|278:63,1,95,8|2,0:0|0:0,0:0:0:0:
450,115,51743,1,8,0:0:0:0:
353,24,51899,1,2,0:0:0:0:
467,130,52056,6,0,L|459:224,1,95,8|2,0:0|0:0,0:0:0:0:
369,372,52368,2,0,L|360:273,1,95,8|2,0:0|0:0,0:0:0:0:
341,121,52681,2,0,B|306:113|306:113|247:117,1,95,8|2,0:0|0:0,0:0:0:0:
168,256,52993,1,8,0:0:0:0:
82,149,53149,1,2,0:0:0:0:
194,279,53306,6,0,B|231:277|231:277|256:260|298:261,1,95,8|2,0:0|0:0,0:0:0:0:
399,112,53618,2,0,B|382:145|382:145|384:175|362:211,1,95,8|2,0:0|0:0,0:0:0:0:
439,369,53931,2,0,B|418:337|418:337|391:324|371:287,1,95,8|2,0:0|0:0,0:0:0:0:
292,181,54243,1,8,0:0:0:0:
433,235,54399,1,0,0:0:0:0:
271,160,54556,6,0,P|262:113|273:60,1,95,12|2,0:0|0:0,0:0:0:0:
369,11,54868,1,2,0:0:0:0:
172,98,55024,2,0,L|66:94,1,95,12|0,0:0|0:0,0:0:0:0:
155,177,55337,1,2,0:0:0:0:
131,14,55493,1,8,0:0:0:0:
0,115,55649,1,2,0:0:0:0:
101,249,55806,6,0,P|143:263|193:258,1,95,8|2,0:0|0:0,0:0:0:0:
352,367,56118,2,0,P|341:320|313:282,1,95,8|2,0:0|0:0,0:0:0:0:
324,86,56431,2,0,P|289:117|270:160,1,95,8|2,0:0|0:0,0:0:0:0:
247,312,56743,1,8,0:0:0:0:
384,257,56899,1,2,0:0:0:0:
222,288,57056,6,0,L|128:284,1,95,8|2,0:0|0:0,0:0:0:0:
323,85,57368,2,0,L|418:82,1,95,8|2,0:0|0:0,0:0:0:0:
160,95,57681,2,0,B|110:90|110:90|69:65,1,95,8|2,0:0|0:0,0:0:0:0:
160,175,57993,1,8,0:0:0:0:
215,40,58149,1,2,0:0:0:0:
152,205,58306,6,0,L|159:299,1,95,8|2,0:0|0:0,0:0:0:0:
11,308,58618,2,0,P|45:347|99:358,1,95,8|2,0:0|0:0,0:0:0:0:
235,355,58931,2,0,P|281:340|314:300,1,95,8|2,0:0|0:0,0:0:0:0:
378,193,59243,1,8,0:0:0:0:
429,337,59399,1,2,0:0:0:0:
219,253,59556,6,0,P|211:206|220:157,1,95,12|2,0:0|0:0,0:0:0:0:
297,62,59868,1,2,0:0:0:0:
509,250,60024,2,0,L|505:353,1,95,12|0,0:0|0:0,0:0:0:0:
472,171,60337,1,2,0:0:0:0:
396,274,60493,2,0,P|359:301|304:304,1,95,8|0,0:0|0:0,0:0:0:0:
142,249,60806,6,0,B|105:246|105:246|79:251|79:251|35:246,1,95,12|2,0:0|0:0,0:0:0:0:
144,109,61118,2,0,B|135:72|135:72|122:49|122:49|113:6,1,95,8|2,0:0|0:0,0:0:0:0:
286,66,61431,2,0,B|317:46|317:46|335:27|335:27|374:5,1,95,8|2,0:0|0:0,0:0:0:0:
380,184,61743,2,0,B|408:208|408:208|432:219|432:219|464:249,1,95,8|2,0:0|0:0,0:0:0:0:
290,293,62056,6,0,B|275:327|275:327|272:353|272:353|254:393,1,95,8|2,0:0|0:0,0:0:0:0:
252,180,62368,1,8,0:0:0:0:
498,71,62681,2,0,L|508:177,1,95,8|2,0:0|0:0,0:0:0:0:
425,352,62993,2,0,L|430:248,1,95,8|2,0:0|0:0,0:0:0:0:
363,81,63306,6,0,P|326:49|279:41,1,95,8|2,0:0|0:0,0:0:0:0:
131,17,63618,2,0,P|89:42|67:84,1,95,8|2,0:0|0:0,0:0:0:0:
26,227,63931,2,0,P|37:274|70:308,1,95,8|2,0:0|0:0,0:0:0:0:
205,374,64243,2,0,P|253:378|296:356,1,95,8|2,0:0|0:0,0:0:0:0:
429,280,64556,6,0,P|448:234|441:187,1,95,8|2,0:0|0:0,0:0:0:0:
280,102,64868,2,0,L|181:107,1,95,8|2,0:0|0:0,0:0:0:0:
47,116,65181,1,0,0:0:0:0:
47,116,65337,1,2,0:0:0:0:
217,221,65493,2,0,P|173:226|115:203,1,95,8|2,0:0|0:0,0:0:0:0:
113,52,65806,6,0,B|158:44|158:44|220:51,1,95,8|2,0:0|0:0,0:0:0:0:
344,12,66118,2,0,B|366:53|366:53|378:114,1,95,8|2,0:0|0:0,0:0:0:0:
453,221,66431,2,0,B|422:254|422:254|368:284,1,95,8|2,0:0|0:0,0:0:0:0:
284,376,66743,2,0,B|242:356|242:356|206:322,1,95,8|2,0:0|0:0,0:0:0:0:
78,284,67056,6,0,B|84:239|84:239|110:182,1,95,8|2,0:0|0:0,0:0:0:0:
255,190,67368,1,8,0:0:0:0:
483,369,67681,2,0,L|386:365,1,95,8|2,0:0|0:0,0:0:0:0:
193,309,67993,2,0,L|293:297,1,95,8|2,0:0|0:0,0:0:0:0:
453,221,68306,6,0,P|462:172|454:120,1,95,8|2,0:0|0:0,0:0:0:0:
347,43,68618,2,0,B|307:35|307:35|246:40,1,95,8|2,0:0|0:0,0:0:0:0:
160,186,68931,2,0,B|200:194|200:194|261:189,1,95,8|2,0:0|0:0,0:0:0:0:
374,135,69243,1,8,0:0:0:0:
328,262,69399,1,2,0:0:0:0:
390,91,69556,6,0,L|487:94,1,95,12|2,0:0|0:0,0:0:0:0:
368,13,69868,1,2,0:0:0:0:
249,218,70024,2,0,P|241:272|255:320,1,95,12|0,0:0|0:0,0:0:0:0:
391,345,70337,1,2,0:0:0:0:
423,339,70415,1,2,0:0:0:0:
455,333,70493,1,8,0:0:0:0:
341,176,70649,1,2,0:0:0:0:
225,329,70806,6,0,P|174:330|133:304,1,95,6|0,0:0|0:0,0:0:0:0:
27,216,71118,1,8,0:0:0:0:
27,216,71274,2,0,L|33:311,1,95
15,117,71587,1,2,0:0:0:0:
126,203,71743,2,0,B|157:220|157:220|228:214,1,95,8|0,0:0|0:0,0:0:0:0:
386,275,72056,6,0,P|371:225|381:171,1,95,2|0,0:0|0:0,0:0:0:0:
511,93,72368,1,8,0:0:0:0:
511,93,72524,2,0,L|408:88,1,95
325,16,72837,1,2,0:0:0:0:
244,90,72993,2,0,P|202:93|156:71,1,95,8|0,0:0|0:0,0:0:0:0:
7,238,73306,6,0,P|64:234|98:207,1,95,2|0,0:0|0:0,0:0:0:0:
270,172,73618,1,8,0:0:0:0:
270,172,73774,2,0,L|170:169,1,95
331,90,74087,1,2,0:0:0:0:
395,192,74243,2,0,P|405:241|395:294,1,95,8|0,0:0|0:0,0:0:0:0:
200,360,74556,5,0,0:0:0:0:
425,18,74868,1,6,0:0:0:0:
60,174,75181,1,6,0:0:0:0:
393,373,75493,1,6,0:0:0:0:
467,106,75806,6,0,P|412:113|365:92,1,95,6|0,0:0|0:0,0:0:0:0:
266,32,76118,1,8,0:0:0:0:
266,32,76274,2,0,B|226:26|226:26|163:32,1,95
37,70,76587,1,2,0:0:0:0:
157,145,76743,2,0,P|202:154|252:139,1,95,8|0,0:0|0:0,0:0:0:0:
379,32,77056,6,0,L|383:130,1,95,2|0,0:0|0:0,0:0:0:0:
512,228,77368,1,8,0:0:0:0:
512,228,77524,2,0,P|460:237|413:223,1,95
318,173,77837,1,2,0:0:0:0:
273,281,77993,2,0,P|266:328|276:375,1,95,8|0,0:0|0:0,0:0:0:0:
318,173,78306,6,0,P|264:163|223:175,1,95,2|0,0:0|0:0,0:0:0:0:
151,329,78618,1,8,0:0:0:0:
151,329,78774,2,0,L|145:234,1,95
64,150,79087,1,2,0:0:0:0:
137,62,79243,2,0,B|178:50|178:50|242:57,1,95,8|0,0:0|0:0,0:0:0:0:
403,153,79556,5,0,0:0:0:0:
37,301,79868,1,6,0:0:0:0:
291,18,80181,1,6,0:0:0:0:
435,366,80493,1,6,0:0:0:0:
64,150,80806,5,2,0:0:0:0:
390,232,81118,2,0,P|450:230|400:155,1,190,6|0,0:0|0:0,0:0:0:0:
302,239,81587,1,2,0:0:0:0:
206,148,81743,2,0,P|197:102|209:49,1,95,8|0,0:0|0:0,0:0:0:0:
306,132,82056,5,0,0:0:0:0:
212,235,82212,2,0,L|114:228,1,95,0|8,0:0|0:0,0:0:0:0:
233,345,82524,2,0,L|332:339,1,95
432,256,82837,2,0,P|440:207|430:155,1,95,2|8,0:0|0:0,0:0:0:0:
375,42,83149,1,0,0:0:0:0:
244,73,83306,5,2,0:0:0:0:
244,73,83618,2,0,L|251:168,1,95,6|0,0:0|0:0,0:0:0:0:
229,321,83931,1,2,0:0:0:0:
337,212,84087,1,2,0:0:0:0:
181,238,84243,1,8,0:0:0:0:
323,306,84399,1,8,0:0:0:0:
181,238,84556,5,0,0:0:0:0:
337,212,84712,2,0,P|377:225|415:269,1,95,0|8,0:0|0:0,0:0:0:0:
237,167,85024,2,0,L|243:73,1,95,0|8,0:0|0:0,0:0:0:0:
115,49,85337,1,0,0:0:0:0:
82,53,85415,1,0,0:0:0:0:
49,57,85493,1,8,0:0:0:0:
137,169,85649,1,2,0:0:0:0:
207,41,85806,5,0,0:0:0:0:
256,192,85884,12,6,87837,0:0:0:0:
196,298,92227,5,4,0:0:0:0:
184,271,92627,1,4,0:0:0:0:
120,125,93027,5,2,0:0:0:0:
197,38,93227,1,0,0:0:0:0:
228,28,93327,1,8,0:3:0:0:
261,24,93427,1,8,0:3:0:0:
293,28,93527,1,8,0:3:0:0:
323,39,93627,1,2,0:0:0:0:
450,184,93827,6,0,L|446:283,1,95,6|0,0:0|0:0,0:0:0:0:
483,103,94227,1,8,0:0:0:0:
344,207,94427,2,0,P|305:228|251:227,1,95,0|2,0:0|0:0,0:0:0:0:
104,150,94827,2,0,P|66:120|48:73,1,95,2|8,0:0|0:0,0:0:0:0:
197,7,95227,1,0,0:0:0:0:
281,145,95427,6,0,L|277:305,1,142.5,2|0,0:0|0:0,0:0:0:0:
276,365,95827,1,8,0:0:0:0:
139,259,96027,1,0,0:0:0:0:
106,249,96127,1,8,0:0:0:0:
72,246,96227,1,2,0:0:0:0:
38,249,96327,1,8,0:0:0:0:
6,258,96427,1,2,0:0:0:0:
120,341,96627,2,0,P|174:337|227:271,1,142.5,8|0,0:0|0:0,0:0:0:0:
255,198,97027,6,0,B|261:164|261:164|256:104,1,95,2|0,0:0|0:0,0:0:0:0:
113,12,97427,1,8,0:0:0:0:
16,156,97627,1,0,0:0:0:0:
2,186,97727,1,8,0:0:0:0:
0,219,97827,1,2,0:0:0:0:
3,252,97927,1,8,0:0:0:0:
15,282,98027,1,2,0:0:0:0:
182,347,98227,2,0,B|239:342|239:342|263:352|263:352|332:347,1,142.5,8|0,0:0|0:0,0:0:0:0:
384,283,98627,6,0,P|432:283|474:305,1,95,2|2,0:0|0:0,0:0:0:0:
260,232,99027,2,0,P|277:189|321:158,1,95,8|0,0:0|0:0,0:0:0:0:
495,172,99427,1,2,0:0:0:0:
503,204,99527,1,0,0:0:0:0:
510,236,99627,1,2,0:0:0:0:
391,114,99827,1,8,0:0:0:0:
512,9,100027,1,0,0:0:0:0:
396,201,100227,6,0,P|344:187|311:154,1,95,6|0,0:0|0:0,0:0:0:0:
234,24,100627,1,8,0:0:0:0:
157,192,100827,2,0,P|111:203|62:194,1,95,0|2,0:0|0:0,0:0:0:0:
63,21,101227,2,0,P|109:10|158:19,1,95,2|8,0:0|0:0,0:0:0:0:
238,155,101627,1,0,0:0:0:0:
130,276,101827,6,0,B|137:326|137:326|166:373,1,95,2|2,0:0|0:0,0:0:0:0:
294,255,102227,1,8,0:0:0:0:
131,186,102427,1,0,0:0:0:0:
97,189,102527,1,8,0:0:0:0:
69,207,102627,1,2,0:0:0:0:
49,233,102727,1,8,0:0:0:0:
40,265,102827,1,2,0:0:0:0:
160,363,103027,2,0,B|204:352|204:352|308:360,1,142.5,8|0,0:0|0:0,0:0:0:0:
382,369,103427,6,2,P|425:347|451:305,1,95
512,167,103827,1,8,0:0:0:0:
374,73,104027,1,0,0:0:0:0:
341,77,104127,1,8,0:0:0:0:
308,81,104227,1,2,0:0:0:0:
275,85,104327,1,8,0:0:0:0:
242,89,104427,1,2,0:0:0:0:
163,229,104627,2,0,P|96:233|29:183,1,142.5,8|0,0:0|0:0,0:0:0:0:
6,119,105027,5,2,0:0:0:0:
186,40,105227,1,2,0:0:0:0:
0,85,105427,1,8,0:0:0:0:
185,154,105627,1,0,0:0:0:0:
215,167,105727,1,8,0:0:0:0:
247,171,105827,2,0,P|276:170|306:158,1,47.5,0|8,0:0|0:0,0:0:0:0:
351,103,106027,1,2,0:0:0:0:
384,102,106127,1,8,0:0:0:0:
417,104,106227,1,8,0:0:0:0:
449,112,106327,1,2,0:0:0:0:
479,126,106427,1,8,0:3:0:0:
377,291,106627,6,0,P|329:295|287:275,1,95,6|0,0:0|0:0,0:0:0:0:
214,126,107027,1,8,0:0:0:0:
131,272,107227,2,0,L|137:374,1,95,0|2,0:0|0:0,0:0:0:0:
0,250,107627,2,0,L|8:148,1,95,2|8,0:0|0:0,0:0:0:0:
89,9,108027,1,0,0:0:0:0:
216,124,108227,6,0,P|263:142|310:137,1,95,2|2,0:0|0:0,0:0:0:0:
399,9,108627,1,8,0:0:0:0:
503,143,108827,1,0,0:0:0:0:
511,175,108927,1,8,0:0:0:0:
512,208,109027,1,2,0:0:0:0:
507,240,109127,1,8,0:0:0:0:
494,270,109227,1,2,0:0:0:0:
346,345,109427,2,0,B|316:369|280:374|280:374|242:370|197:341,1,142.5,8|0,0:0|0:0,0:0:0:0:
157,286,109827,6,0,L|161:192,1,95,2|0,0:0|0:0,0:0:0:0:
171,22,110227,1,8,0:0:0:0:
16,80,110427,1,0,0:0:0:0:
3,110,110527,1,8,0:0:0:0:
0,143,110627,1,2,0:0:0:0:
4,175,110727,1,8,0:0:0:0:
15,206,110827,1,2,0:0:0:0:
157,286,111027,2,0,B|192:291|192:291|306:271,1,142.5,8|0,0:0|0:0,0:0:0:0:
374,301,111427,6,0,P|419:312|456:349,1,95,2|2,0:0|0:0,0:0:0:0:
366,216,111827,2,0,L|372:118,1,95,8|0,0:0|0:0,0:0:0:0:
448,53,112227,1,2,0:0:0:0:
328,38,112427,1,2,0:0:0:0:
448,175,112627,1,8,0:0:0:0:
512,5,112827,1,0,0:0:0:0:
288,144,113027,6,0,P|240:143|195:109,1,95,6|0,0:0|0:0,0:0:0:0:
42,58,113427,2,0,P|34:118|44:155,1,95,8|0,0:0|0:0,0:0:0:0:
180,245,113827,1,2,0:0:0:0:
35,230,114027,1,2,0:0:0:0:
201,117,114227,1,8,0:0:0:0:
52,247,114427,1,0,0:0:0:0:
207,370,114627,6,0,P|255:378|305:368,1,95,2|2,0:0|0:0,0:0:0:0:
414,244,115027,1,8,0:0:0:0:
293,126,115227,1,0,0:0:0:0:
259,130,115327,1,8,0:0:0:0:
227,134,115427,1,2,0:0:0:0:
193,137,115527,1,8,0:0:0:0:
159,140,115627,1,2,0:0:0:0:
259,33,115827,1,8,0:0:0:0:
264,225,116027,1,0,0:0:0:0:
408,130,116227,6,0,P|441:95|454:48,1,95,2|0,0:0|0:0,0:0:0:0:
292,127,116627,1,8,0:0:0:0:
450,219,116827,1,0,0:0:0:0:
462,250,116927,1,8,0:0:0:0:
466,282,117027,1,2,0:0:0:0:
462,315,117127,1,8,0:0:0:0:
449,345,117227,2,0,B|403:353|403:353|352:345,1,95,2|8,0:0|0:0,0:0:0:0:
255,201,117627,1,0,0:0:0:0:
32,274,117827,6,0,P|38:333|60:363,1,95,6|0,0:0|0:0,0:0:0:0:
175,226,118227,1,2,0:0:0:0:
48,105,118427,1,0,0:0:0:0:
72,83,118527,1,2,0:0:0:0:
103,72,118627,1,2,0:0:0:0:
135,64,118727,1,2,0:0:0:0:
168,61,118827,1,2,0:0:0:0:
201,62,118927,1,0,0:0:0:0:
233,69,119027,1,2,0:0:0:0:
264,83,119127,1,2,0:0:0:0:
291,101,119227,1,2,0:0:0:0:
315,123,119327,1,2,0:0:0:0:
338,145,119427,6,0,B|356:194|356:194|348:343,1,190,6|8,0:0|0:0,0:0:0:0:
75,341,120227,2,0,P|33:324|-1:285,2,95,2|2|8,0:0|0:0|0:0,0:0:0:0:
187,220,120827,1,0,0:0:0:0:
299,342,121027,6,0,P|358:357|471:296,1,190,2|8,0:0|0:0,0:0:0:0:
484,139,121627,1,0,0:0:0:0:
451,130,121727,1,8,0:0:0:0:
417,128,121827,1,2,0:0:0:0:
384,132,121927,1,8,0:0:0:0:
352,141,122027,1,2,0:0:0:0:
258,265,122227,2,0,L|263:367,1,95,8|0,0:0|0:0,0:0:0:0:
125,246,122627,6,0,L|139:50,1,190,2|8,0:0|0:0,0:0:0:0:
434,31,123427,2,0,P|480:46|514:85,2,95,2|2|8,0:0|0:0|0:0,0:0:0:0:
276,13,124027,1,0,0:0:0:0:
246,169,124227,6,0,P|239:212|252:269,1,95,2|2,0:0|0:0,0:0:0:0:
410,273,124627,1,8,0:0:0:0:
279,362,124827,1,0,0:0:0:0:
247,372,124927,1,8,0:0:0:0:
214,377,125027,1,2,0:0:0:0:
181,372,125127,1,8,0:0:0:0:
150,359,125227,1,2,0:0:0:0:
20,255,125427,2,0,L|25:158,1,95,8|0,0:0|0:0,0:0:0:0:
199,23,125827,6,0,B|236:35|262:88|262:88|289:147|354:146,1,190,6|8,0:0|0:0,0:0:0:0:
488,95,126427,1,0,0:0:0:0:
493,62,126527,1,0,0:0:0:0:
498,29,126627,2,0,P|451:16|399:25,1,95,2|2,0:0|0:0,0:0:0:0:
276,112,127027,1,8,0:0:0:0:
412,205,127227,1,0,0:0:0:0:
276,290,127427,6,0,B|229:297|229:297|176:291,1,95,2|2,0:0|0:0,0:0:0:0:
134,138,127827,1,8,0:0:0:0:
27,256,128027,1,0,0:0:0:0:
29,289,128127,1,8,0:0:0:0:
39,320,128227,1,2,0:0:0:0:
60,345,128327,1,8,0:0:0:0:
86,364,128427,1,2,0:0:0:0:
217,174,128627,2,0,P|221:122|204:79,1,95,8|0,0:0|0:0,0:0:0:0:
121,264,129027,6,0,L|314:258,1,190,2|8,0:0|0:0,0:0:0:0:
421,380,129627,1,0,0:0:0:0:
453,372,129727,1,0,0:0:0:0:
478,350,129827,2,0,P|501:311|506:256,1,95,2|2,0:0|0:0,0:0:0:0:
512,98,130227,1,8,0:0:0:0:
372,14,130427,1,0,0:0:0:0:
332,168,130627,5,2,0:0:0:0:
298,165,130727,1,8,0:0:0:0:
264,162,130827,1,2,0:0:0:0:
138,265,131027,1,6,0:0:0:0:
80,112,131227,2,0,P|69:63|82:13,1,95,8|0,0:0|0:0,0:0:0:0:
190,139,131627,1,2,0:0:0:0:
38,194,131827,1,4,0:3:0:0:
200,102,132027,1,2,0:0:0:0:
0,176,132227,6,0,P|1:249|90:333,1,190,6|8,0:0|0:0,0:0:0:0:
368,328,133027,2,0,L|464:332,2,95,2|2|8,0:0|0:0|0:0,0:0:0:0:
215,384,133627,1,0,0:0:0:0:
165,229,133827,6,0,P|155:181|166:132,1,95,2|2,0:0|0:0,0:0:0:0:
299,43,134227,1,8,0:0:0:0:
355,191,134427,1,0,0:0:0:0:
386,201,134527,1,8,0:0:0:0:
419,203,134627,1,2,0:0:0:0:
452,199,134727,1,8,0:0:0:0:
482,186,134827,1,2,0:0:0:0:
393,40,135027,2,0,L|291:43,1,95,8|0,0:0|0:0,0:0:0:0:
209,185,135427,6,0,B|203:263|203:263|211:289|211:289|204:380,1,190,2|8,0:0|0:0,0:0:0:0:
4,99,136227,2,0,P|-6:54|2:4,2,95,2|2|8,0:0|0:0|0:0,0:0:0:0:
42,252,136827,1,0,0:0:0:0:
206,239,137027,5,2,0:0:0:0:
114,101,137227,1,2,0:0:0:0:
42,252,137427,2,0,P|39:311|63:357,1,95,8|0,0:0|0:0,0:0:0:0:
249,347,137827,1,2,0:0:0:0:
125,237,138027,1,2,0:0:0:0:
238,122,138227,2,0,P|287:113|338:125,1,95,8|0,0:0|0:0,0:0:0:0:
430,364,138627,6,0,P|398:278|425:182,1,190,6|8,0:0|0:0,0:0:0:0:
124,168,139427,1,2,0:0:0:0:
0,95,139627,1,8,0:0:0:0:
124,33,139827,1,2,0:0:0:0:
157,35,139927,1,2,0:0:0:0:
190,37,140027,1,2,0:0:0:0:
223,39,140127,1,2,0:0:0:0:
256,41,140227,5,6,0:0:0:0:
422,285,140527,1,6,0:0:0:0:
89,285,140827,1,6,0:0:0:0:
253,247,141027,5,6,0:0:0:0:
101,5,141327,1,6,0:0:0:0:
410,5,141627,1,6,0:0:0:0:
254,73,141827,5,6,0:0:0:0:
451,366,142127,1,6,0:0:0:0:
60,366,142427,1,6,0:0:0:0:
253,316,142627,5,6,0:0:0:0:
111,194,142827,1,2,0:0:0:0:
78,192,142927,1,2,0:0:0:0:
46,201,143027,1,2,0:0:0:0:
19,221,143127,1,2,0:0:0:0:
3,250,143227,1,6,0:0:0:0:
256,192,143327,12,0,145827,0:0:0:0:
208,32,150416,5,0,3:0:0:0:
174,137,150603,1,0,3:0:0:0:
261,207,150791,1,8,0:0:0:0:
356,149,150978,1,0,3:0:0:0:
222,30,151166,5,0,0:0:0:0:
218,140,151353,1,0,0:0:0:0:
321,184,151541,1,8,0:0:0:0:
392,101,151728,1,8,0:0:0:0:
413,75,151822,1,8,0:0:0:0:
434,49,151916,5,12,0:0:0:0:
512,140,152103,1,2,0:0:0:0:
512,140,152291,1,2,0:0:0:0:
234,53,152478,1,12,0:0:0:0:
163,141,152666,1,2,0:0:0:0:
163,141,152853,1,2,0:0:0:0:
472,288,153041,1,12,0:0:0:0:
474,176,153228,1,2,0:0:0:0:
318,277,153416,5,6,0:0:0:0:
357,163,153603,1,2,0:0:0:0:
390,324,153791,1,2,0:0:0:0:
228,268,153978,1,2,0:0:0:0:
399,238,154166,1,4,0:3:0:0:
284,112,154353,1,2,0:0:0:0:
318,277,154541,1,2,0:0:0:0:
444,163,154728,1,2,0:0:0:0:
224,220,154916,6,0,P|174:206|144:170,1,95,6|0,0:0|0:0,0:0:0:0:
57,44,155291,1,8,0:0:0:0:
22,191,155478,1,0,0:0:0:0:
22,191,155572,1,8,0:0:0:0:
22,191,155666,2,0,B|30:298|30:298|53:336,1,142.5
105,383,156041,1,8,0:0:0:0:
175,255,156228,1,0,0:0:0:0:
276,358,156416,6,0,P|324:358|368:333,1,95,2|0,0:0|0:0,0:0:0:0:
389,314,156697,1,0,0:0:0:0:
398,282,156791,1,8,0:0:0:0:
299,170,156978,1,0,0:0:0:0:
265,172,157072,1,0,0:0:0:0:
231,175,157166,1,2,0:0:0:0:
431,158,157353,1,0,0:0:0:0:
302,272,157541,1,8,0:0:0:0:
431,158,157728,1,0,0:0:0:0:
268,302,157916,6,0,P|222:312|170:302,1,95,6|0,0:0|0:0,0:0:0:0:
104,170,158291,1,8,0:0:0:0:
204,65,158478,1,0,0:0:0:0:
204,65,158572,1,8,0:0:0:0:
204,65,158666,2,0,B|248:49|248:49|305:65|355:46,1,142.5,2|0,0:0|0:0,0:0:0:0:
419,22,159041,1,8,0:0:0:0:
508,137,159228,1,0,0:0:0:0:
425,251,159416,6,0,P|373:258|333:242,1,95,2|0,0:0|0:0,0:0:0:0:
308,222,159697,1,0,0:0:0:0:
292,192,159791,1,8,0:0:0:0:
204,65,159978,1,0,0:0:0:0:
170,68,160072,1,0,0:0:0:0:
136,71,160166,1,2,0:0:0:0:
6,28,160353,1,0,0:0:0:0:
73,168,160541,1,8,0:0:0:0:
6,28,160728,1,2,0:0:0:0:
94,201,160916,6,0,P|96:248|76:293,1,95,6|0,0:0|0:0,0:0:0:0:
190,365,161291,2,0,P|240:345|286:348,1,95,8|0,0:0|0:0,0:0:0:0:
313,352,161572,1,8,0:0:0:0:
339,372,161666,1,2,0:0:0:0:
499,321,161853,2,0,B|508:282|508:282|503:216,1,95,0|8,0:0|0:0,0:0:0:0:
294,130,162228,6,0,L|191:134,1,95,6|2,0:0|0:0,0:0:0:0:
306,250,162603,1,0,0:0:0:0:
401,128,162791,1,8,0:0:0:0:
295,11,162978,1,6,0:0:0:0:
199,133,163166,1,2,0:0:0:0:
203,165,163259,1,0,0:0:0:0:
207,198,163353,1,0,0:0:0:0:
183,5,163541,1,8,0:0:0:0:
83,104,163728,1,8,0:0:0:0:
61,129,163822,1,8,0:0:0:0:
40,154,163916,5,6,0:0:0:0:
57,348,164103,1,0,0:0:0:0:
166,219,164291,1,8,0:0:0:0:
0,259,164478,1,0,0:0:0:0:
160,322,164666,1,6,0:0:0:0:
69,179,164853,1,0,0:0:0:0:
0,319,165041,1,8,0:0:0:0:
160,322,165228,1,0,0:0:0:0:
193,320,165322,1,0,0:0:0:0:
226,319,165416,6,0,L|334:314,1,95,6|0,0:0|0:0,0:0:0:0:
463,269,165791,1,8,0:0:0:0:
337,185,165978,2,0,P|282:188|246:210,1,95,0|2,0:0|0:0,0:0:0:0:
100,111,166353,5,8,0:0:0:0:
258,250,166541,1,8,0:0:0:0:
64,334,166728,1,8,0:0:0:0:
100,111,166916,6,0,P|105:67|91:19,1,95,6|0,0:0|0:0,0:0:0:0:
0,124,167291,1,8,0:0:0:0:
133,209,167478,1,0,0:0:0:0:
133,209,167572,1,8,0:0:0:0:
133,209,167666,2,0,P|199:225|285:200,1,142.5,2|0,0:0|0:0,0:0:0:0:
334,158,168041,1,8,0:0:0:0:
423,26,168228,1,0,0:0:0:0:
483,184,168416,6,0,P|492:231|482:282,1,95,2|0,0:0|0:0,0:0:0:0:
470,307,168697,1,0,0:0:0:0:
443,327,168791,1,8,0:0:0:0:
277,344,168978,1,0,0:0:0:0:
243,344,169072,1,0,0:0:0:0:
209,344,169166,1,2,0:0:0:0:
66,378,169353,1,0,0:0:0:0:
163,240,169541,1,8,0:0:0:0:
66,378,169728,1,0,0:0:0:0:
189,198,169916,6,0,P|196:153|185:100,1,95,6|0,0:0|0:0,0:0:0:0:
19,76,170291,1,8,0:0:0:0:
175,25,170478,1,0,0:0:0:0:
175,25,170572,1,8,0:0:0:0:
175,25,170666,2,0,B|216:33|216:33|325:27,1,142.5,2|0,0:0|0:0,0:0:0:0:
397,21,171041,1,8,0:0:0:0:
510,119,171228,1,0,0:0:0:0:
401,228,171416,6,0,P|355:238|301:228,1,95,2|0,0:0|0:0,0:0:0:0:
277,216,171697,1,0,0:0:0:0:
257,188,171791,1,8,0:0:0:0:
132,102,171978,1,0,0:0:0:0:
98,104,172072,1,8,0:0:0:0:
64,106,172166,1,2,0:0:0:0:
0,226,172353,1,8,0:0:0:0:
34,224,172447,1,8,0:0:0:0:
68,222,172541,1,8,0:0:0:0:
133,104,172728,1,2,0:0:0:0:
277,216,172916,6,0,P|285:262|276:315,1,95,6|0,0:0|0:0,0:0:0:0:
132,305,173291,1,8,0:0:0:0:
129,164,173478,1,0,0:0:0:0:
258,106,173666,2,0,P|301:109|347:139,1,95,2|0,0:0|0:0,0:0:0:0:
366,161,173947,1,0,0:0:0:0:
371,193,174041,1,8,0:0:0:0:
371,334,174228,6,0,P|420:328|464:293,1,95,6|0,0:0|0:0,0:0:0:0:
499,166,174603,1,0,0:0:0:0:
425,37,174791,1,8,0:0:0:0:
283,27,174978,1,6,0:0:0:0:
250,32,175072,1,8,0:0:0:0:
217,37,175166,1,8,0:0:0:0:
111,163,175353,1,0,0:0:0:0:
134,10,175541,1,8,0:0:0:0:
192,157,175728,1,8,0:0:0:0:
187,190,175822,1,8,0:0:0:0:
171,219,175916,6,0,P|128:242|80:239,1,95,6|0,0:0|0:0,0:0:0:0:
19,108,176291,1,8,0:0:0:0:
155,46,176478,1,0,0:0:0:0:
289,119,176666,1,4,0:3:0:0:
303,148,176759,1,4,0:3:0:0:
311,180,176853,1,4,0:3:0:0:
312,213,176947,1,4,0:3:0:0:
308,246,177041,1,4,0:3:0:0:
297,277,177134,1,4,0:3:0:0:
280,306,177228,1,4,0:3:0:0:
255,328,177322,1,4,0:3:0:0:
225,342,177416,5,6,0:0:0:0:
288,98,177603,1,6,0:0:0:0:
418,316,177791,1,6,0:0:0:0:
153,266,177978,1,6,0:0:0:0:
412,191,178166,1,6,0:0:0:0:
225,342,178353,1,6,0:0:0:0:
170,96,178541,1,6,0:0:0:0:
412,191,178728,1,6,0:0:0:0:
225,342,178916,1,6,0:0:0:0:
132,198,179853,5,2,0:0:0:0:
54,360,180041,1,8,0:0:0:0:
54,360,180416,5,6,0:0:0:0:
256,73,180697,1,6,0:0:0:0:
458,360,180978,1,6,0:0:0:0:
132,198,181259,1,6,0:0:0:0:
469,90,181541,1,6,0:0:0:0:
336,251,181728,1,6,0:0:0:0:
256,73,181916,5,6,0:0:0:0:
458,360,182197,1,6,0:0:0:0:
118,298,182478,1,6,0:0:0:0:
118,298,182853,1,2,0:0:0:0:
30,184,183041,2,0,P|22:134|35:81,1,95,8|0,0:0|0:0,0:0:0:0:
256,18,183416,5,6,0:0:0:0:
357,332,183697,1,6,0:0:0:0:
91,138,183978,1,6,0:0:0:0:
420,138,184259,1,6,0:0:0:0:
154,332,184541,1,6,0:0:0:0:
255,164,184728,1,6,0:0:0:0:
357,332,184916,5,6,0:0:0:0:
91,138,185197,1,6,0:0:0:0:
420,138,185478,1,6,0:0:0:0:
154,332,185759,1,8,0:0:0:0:
120,334,185853,1,8,0:0:0:0:
87,327,185947,1,8,0:0:0:0:
57,310,186041,1,8,0:0:0:0:
34,285,186134,1,8,0:0:0:0:
256,18,186416,5,6,0:0:0:0:
357,332,186697,1,6,0:0:0:0:
91,138,186978,1,6,0:0:0:0:
420,138,187259,1,6,0:0:0:0:
154,332,187541,1,6,0:0:0:0:
298,181,187728,1,6,0:0:0:0:
91,138,187916,5,6,0:0:0:0:
357,332,188197,1,6,0:0:0:0:
256,18,188478,1,6,0:0:0:0:
256,18,188853,1,0,0:0:0:0:
383,134,189041,2,0,P|392:183|381:238,1,95,8|0,0:0|0:0,0:0:0:0:
256,365,189416,5,6,0:0:0:0:
357,51,189697,1,6,0:0:0:0:
91,245,189978,1,6,0:0:0:0:
420,245,190259,1,6,0:0:0:0:
154,51,190541,1,6,0:0:0:0:
256,209,190728,1,6,0:0:0:0:
357,51,190916,5,0,0:0:0:0:
390,54,191009,1,8,0:3:0:0:
419,69,191103,1,8,0:3:0:0:
440,94,191197,1,8,0:3:0:0:
447,126,191291,1,8,0:3:0:0:
441,158,191384,1,4,0:3:0:0:
419,183,191478,1,4,0:3:0:0:
389,198,191572,1,4,0:3:0:0:
355,195,191666,1,4,0:3:0:0:
325,179,191759,1,4,0:3:0:0:
298,158,191853,1,4,0:3:0:0:
265,149,191947,1,4,0:3:0:0:
231,149,192041,1,4,0:3:0:0:
198,156,192134,1,4,0:3:0:0:
169,173,192228,1,4,0:3:0:0:
148,199,192322,1,4,0:3:0:0:
138,230,192416,5,4,0:0:0:0:
238,192,201093,5,8,0:0:0:0:
284,213,201265,1,8,0:0:0:0:
214,233,201437,1,8,0:0:0:0:
274,135,201610,1,8,0:0:0:0:
152,217,201782,5,8,0:0:0:0:
318,253,201955,1,8,0:0:0:0:
232,80,202127,1,8,0:0:0:0:
221,334,202299,1,8,0:0:0:0:
399,105,202472,6,0,P|435:85|408:142,1,142.5,6|0,0:0|0:0,0:0:0:0:
354,170,202817,1,8,0:0:0:0:
270,18,202989,2,0,P|225:9|175:30,1,95,0|2,0:0|0:0,0:0:0:0:
33,109,203334,1,0,0:0:0:0:
179,198,203506,1,8,0:0:0:0:
0,193,203679,1,0,0:0:0:0:
144,283,203851,6,0,B|181:296|181:296|234:276|288:300,1,142.5,6|0,0:0|0:0,0:0:0:0:
353,325,204196,1,8,0:0:0:0:
437,154,204368,2,0,L|431:253,1,95,0|2,0:0|0:0,0:0:0:0:
331,148,204713,1,0,0:0:0:0:
512,192,204886,1,8,0:0:0:0:
318,231,205058,1,0,0:0:0:0:
507,276,205230,6,0,L|501:375,1,95,6|0,0:0|0:0,0:0:0:0:
415,329,205575,6,0,L|406:258,1,71.2500027179719,8|0,0:0|0:0,0:0:0:0:
230,137,205920,6,0,L|222:264,1,118.75,6|0,0:0|0:0,0:0:0:0:
57,377,206265,2,0,L|42:245,1,118.75,8|0,0:0|0:0,0:0:0:0:
153,34,206610,5,6,0:0:0:0:
106,167,206782,1,0,0:0:0:0:
11,62,206955,1,8,0:0:0:0:
230,137,207127,2,0,B|293:146|334:110|334:110|354:148|341:204,1,190,6|2,0:0|0:0,0:0:0:0:
257,352,207644,1,8,0:0:0:0:
508,53,207989,6,0,P|522:118|504:203,1,142.5,6|0,0:0|0:0,0:0:0:0:
477,262,208334,1,8,0:0:0:0:
367,144,208506,2,0,B|338:130|338:130|266:136,1,95,0|2,0:0|0:0,0:0:0:0:
146,199,208851,1,0,0:0:0:0:
234,49,209024,1,8,0:0:0:0:
299,210,209196,1,0,0:0:0:0:
133,283,209368,6,0,P|79:249|71:163,1,142.5,6|0,0:0|0:0,0:0:0:0:
88,102,209713,1,8,0:0:0:0:
236,190,209886,2,0,L|232:297,1,95,0|2,0:0|0:0,0:0:0:0:
339,143,210230,1,0,0:0:0:0:
146,199,210403,1,8,0:0:0:0:
336,234,210575,1,0,0:0:0:0:
133,283,210748,6,0,L|39:273,1,95,6|2,0:0|0:0,0:0:0:0:
205,361,211093,2,0,L|299:351,1,95,8|0,0:0|0:0,0:0:0:0:
136,146,211437,6,0,L|4:132,1,118.75,4|0,0:0|0:0,0:0:0:0:
336,234,211782,2,0,L|454:221,1,118.75,8|0,0:0|0:0,0:0:0:0:
221,318,212127,6,0,P|189:230|228:138,1,190,6|8,0:0|0:0,0:0:0:0:
445,50,212644,1,6,0:0:0:0:
315,158,212817,1,2,0:0:0:0:
491,145,212989,1,2,0:0:0:0:
336,59,213161,2,0,P|290:39|236:45,1,95,8|0,0:0|0:0,0:0:0:0:
99,200,213506,6,0,B|111:318|111:318|129:292,1,142.5,6|0,0:0|0:0,0:0:0:0:
178,242,213851,1,8,0:0:0:0:
64,114,214024,2,0,P|25:140|7:186,1,95,0|2,0:0|0:0,0:0:0:0:
34,358,214368,1,0,0:0:0:0:
99,200,214541,1,8,0:0:0:0:
130,380,214713,1,0,0:0:0:0:
198,218,214886,6,0,B|215:183|243:169|243:169|278:151|286:111,1,142.5,6|0,0:0|0:0,0:0:0:0:
210,99,215230,1,8,0:0:0:0:
277,249,215403,2,0,P|325:262|375:253,1,95
512,202,215748,1,0,0:0:0:0:
367,163,215920,1,8,0:0:0:0:
464,290,216093,1,0,0:0:0:0:
454,129,216265,6,0,L|447:34,1,95,6|0,0:0|0:0,0:0:0:0:
352,12,216610,6,0,L|344:86,1,71.2500027179719,8|0,0:0|0:0,0:0:0:0:
205,224,216955,6,0,L|187:101,1,118.75,6|0,0:0|0:0,0:0:0:0:
24,15,217299,2,0,L|9:137,1,118.75,8|0,0:0|0:0,0:0:0:0:
150,284,217644,6,0,B|187:315|252:311|277:260|277:260|338:275,1,190,6|8,0:0|0:0,0:0:0:0:
59,376,218161,2,0,P|27:300|60:189,1,190,6|0,0:0|0:0,0:0:0:0:
193,127,218679,2,0,L|292:133,1,95,8|0,0:0|0:0,0:0:0:0:
469,304,219024,6,0,P|472:264|458:223,1,71.2500027179719,6|0,0:0|0:0,0:0:0:0:
309,355,219368,2,0,L|389:351,1,71.2500027179719,8|0,0:0|0:0,0:0:0:0:
222,287,219713,2,0,L|142:291,1,71.2500027179719,2|0,0:0|0:0,0:0:0:0:
50,174,220058,2,0,P|53:216|70:246,1,71.2500027179719,8|0,0:0|0:0,0:0:0:0:
256,130,220403,6,0,P|251:78|222:35,1,95,6|0,0:0|0:0,0:0:0:0:
217,203,220748,2,0,P|265:210|319:188,1,95,8|0,0:0|0:0,0:0:0:0:
432,102,221093,2,0,B|443:71|443:71|437:4,1,95,2|0,0:0|0:0,0:0:0:0:
512,194,221437,2,0,B|501:225|501:225|507:292,1,95,8|0,0:0|0:0,0:0:0:0:
289,353,221782,6,0,P|316:361|351:360,1,47.5,6|0,0:0|0:0,0:0:0:0:
303,236,222127,6,0,P|337:227|376:199,1,71.2500027179719,8|0,0:0|0:0,0:0:0:0:
236,146,222472,6,0,P|264:106|271:40,1,95,2|0,0:0|0:0,0:0:0:0:
122,125,222817,6,0,P|113:70|62:15,1,118.75,8|0,0:0|0:0,0:0:0:0:
25,232,223161,6,0,P|21:301|55:231,1,213.750008153916,6|0,0:0|0:0,0:0:0:0:
20,157,223506,1,8,0:0:0:0:
1,372,223679,6,0,P|62:377|155:285,1,190,6|0,0:0|0:0,0:0:0:0:
122,125,224196,1,8,0:0:0:0:
122,125,224368,1,0,0:0:0:0:
234,238,224541,6,0,L|338:233,1,95,6|0,0:0|0:0,0:0:0:0:
471,346,224886,2,0,P|485:280|465:208,1,142.5,8|0,0:0|0:0,0:0:0:0:
418,144,225230,1,2,0:0:0:0:
378,296,225403,1,2,0:0:0:0:
287,164,225575,2,0,P|280:118|321:161,1,142.5,8|0,0:0|0:0,0:0:0:0:
328,233,225920,5,2,0:0:0:0:
194,138,226093,1,0,0:0:0:0:
308,25,226265,1,8,0:0:0:0:
418,144,226437,2,0,L|408:298,1,142.5,2|0,0:0|0:0,0:0:0:0:
440,363,226782,1,2,0:0:0:0:
289,300,226955,2,0,P|241:288|186:302,1,95,8|0,0:0|0:0,0:0:0:0:
51,365,227299,5,6,0:0:0:0:
176,57,227644,1,8,0:0:0:0:
8,157,227817,1,0,0:0:0:0:
182,147,227989,1,2,0:0:0:0:
0,66,228161,1,2,0:0:0:0:
12,248,228334,1,8,0:0:0:0:
93,100,228506,1,0,0:0:0:0:
188,239,228679,5,2,0:0:0:0:
8,157,228851,1,0,0:0:0:0:
182,147,229024,1,8,0:0:0:0:
101,296,229196,2,0,P|152:333|228:331,1,142.5,2|0,0:0|0:0,0:0:0:0:
286,273,229541,1,2,0:0:0:0:
413,358,229713,1,8,0:0:0:0:
153,58,230058,5,6,0:0:0:0:
498,172,230403,1,8,0:0:0:0:
438,30,230575,1,0,0:0:0:0:
353,159,230748,2,0,B|341:196|341:196|349:304,1,142.5,2|0,0:0|0:0,0:0:0:0:
351,378,231093,1,8,0:0:0:0:
434,253,231265,1,0,0:0:0:0:
249,250,231437,5,2,0:0:0:0:
437,163,231610,1,0,0:0:0:0:
248,163,231782,1,8,0:0:0:0:
405,88,231955,2,0,P|475:91|506:204,1,190,2|2,0:0|0:0,0:0:0:0:
433,344,232472,1,8,0:0:0:0:
207,24,232817,5,6,0:0:0:0:
27,344,233161,1,8,0:0:0:0:
156,246,233334,2,0,P|204:241|254:260,1,95,0|2,0:0|0:0,0:0:0:0:
102,172,233679,1,0,0:0:0:0:
136,345,233851,1,8,0:0:0:0:
270,234,234024,1,0,0:0:0:0:
102,172,234196,6,0,B|68:160|68:160|-14:164,1,95
27,344,234541,1,8,0:0:0:0:
194,317,234713,2,0,B|227:306|227:306|297:312,1,95
428,216,235058,1,2,0:0:0:0:
409,377,235230,1,8,0:0:0:0:
457,27,235575,5,6,0:0:0:0:
156,246,235920,1,8,0:0:0:0:
74,131,236093,2,0,P|64:90|76:33,1,95,0|2,0:0|0:0,0:0:0:0:
194,161,236437,1,0,0:0:0:0:
251,11,236610,1,8,0:0:0:0:
155,86,236782,1,0,0:0:0:0:
260,222,236955,6,0,P|313:229|358:216,1,95,2|0,0:0|0:0,0:0:0:0:
454,94,237299,1,8,0:0:0:0:
461,255,237472,2,0,L|469:357,1,95,2|2,0:0|0:0,0:0:0:0:
456,174,237817,1,2,0:0:0:0:
349,301,237989,1,8,0:0:0:0:
56,38,238334,5,6,0:0:0:0:
454,94,238679,1,8,0:0:0:0:
323,182,238851,2,0,P|276:190|231:175,1,95,0|2,0:0|0:0,0:0:0:0:
143,36,239196,1,0,0:0:0:0:
142,199,239368,1,8,0:0:0:0:
230,65,239541,1,0,0:0:0:0:
67,153,239713,6,0,P|58:197|71:249,1,95,2|0,0:0|0:0,0:0:0:0:
199,348,240058,1,8,0:0:0:0:
321,242,240230,2,0,P|330:198|317:146,1,95,2|2,0:0|0:0,0:0:0:0:
188,247,240575,1,2,0:0:0:0:
310,353,240748,2,0,L|412:347,1,95,8|0,0:0|0:0,0:0:0:0:
497,222,241093,6,0,P|457:197|438:153,1,95,6|0,0:0|0:0,0:0:0:0:
393,20,241437,1,8,0:0:0:0:
15,222,241782,2,0,P|55:197|74:153,1,95,2|2,0:0|0:0,0:0:0:0:
119,20,242127,1,8,0:0:0:0:
256,324,242472,6,0,L|255:212,1,95,6|0,0:0|0:0,0:0:0:0:
175,90,242817,1,8,0:0:0:0:
337,90,242989,1,2,0:0:0:0:
337,90,243334,1,2,0:0:0:0:
175,90,243506,1,8,0:0:0:0:
371,329,243851,6,0,B|312:318|257:352|257:352|202:319|135:330,1,237.5,6|8,0:0|0:0,0:0:0:0:
143,55,244368,2,0,B|202:65|257:32|257:32|312:66|371:55,1,237.5,6|0,0:0|0:0,0:0:0:0:
473,332,244886,2,0,B|446:301|446:301|430:263|394:250|394:250|380:212|380:212|385:174|385:174|388:142|374:113,1,237.5,6|2,0:0|0:0,0:0:0:0:
130,131,245403,2,0,B|124:142|127:174|127:174|132:212|132:212|118:250|118:250|82:263|66:301|66:301|39:332,1,237.5,6|2,0:0|0:0,0:0:0:0:
276,337,245920,2,0,P|331:352|391:334,1,118.75,6|0,0:0|0:0,0:0:0:0:
243,130,246265,2,0,P|188:115|128:133,1,118.75,6|0,0:0|0:0,0:0:0:0:
389,336,246610,6,0,L|485:330,1,95,6|0,0:0|0:0,0:0:0:0:
401,244,246955,2,0,P|404:291|388:337,1,95,8|0,0:0|0:0,0:0:0:0:
226,335,247299,2,0,P|210:290|213:243,1,95,2|2,0:0|0:0,0:0:0:0:
305,109,247644,2,0,L|415:116,1,95,8|0,0:0|0:0,0:0:0:0:
240,31,247989,6,0,B|200:27|200:27|135:35,1,95,2|0,0:0|0:0,0:0:0:0:
43,153,248334,1,8,0:0:0:0:
43,153,248506,2,0,L|35:59,1,95,2|2,0:0|0:0,0:0:0:0:
168,144,248851,1,2,0:0:0:0:
50,245,249024,1,8,0:0:0:0:
431,341,249368,6,0,P|462:320|489:257,1,95,2|0,0:0|0:0,0:0:0:0:
263,235,249713,2,0,P|265:272|306:327,1,95,8|0,0:0|0:0,0:0:0:0:
432,138,250058,1,2,0:0:0:0:
244,137,250230,1,2,0:0:0:0:
432,138,250403,1,8,0:0:0:0:
295,17,250575,1,0,0:0:0:0:
347,252,250748,5,6,0:0:0:0:
388,12,250920,1,6,0:0:0:0:
190,193,251093,1,6,0:0:0:0:
447,225,251265,1,6,0:0:0:0:
228,91,261562,5,8,0:0:0:0:
305,136,262529,1,8,0:0:0:0:
384,179,263497,1,8,0:0:0:0:
466,219,264465,1,8,0:0:0:0:
384,179,264949,5,0,0:0:0:0:
304,263,265191,1,8,0:3:0:0:
280,286,265312,1,0,0:0:0:0:
256,309,265432,1,8,0:0:0:0:
151,262,265674,1,8,0:3:0:0:
151,262,266158,1,8,0:3:0:0:
128,237,266279,1,0,0:0:0:0:
105,212,266400,1,8,0:0:0:0:
120,96,266642,1,8,0:3:0:0:
10,126,266884,5,2,0:0:0:0:
0,239,267126,1,8,0:3:0:0:
0,239,267610,1,8,0:3:0:0:
83,319,267852,1,8,0:0:0:0:
167,242,268094,1,2,0:0:0:0:
240,330,268336,1,2,0:0:0:0:
273,332,268457,1,2,0:0:0:0:
306,334,268578,1,2,0:0:0:0:
468,191,268820,5,12,0:0:0:0:
412,321,269061,1,8,0:3:0:0:
316,216,269303,1,8,0:0:0:0:
249,168,269424,2,0,P|201:161|141:183,1,95
92,222,269787,1,2,0:0:0:0:
45,117,270029,1,8,0:3:0:0:
17,264,270271,1,8,0:0:0:0:
165,297,270513,2,0,P|213:304|273:282,1,95,8|2,0:3|0:0,0:0:0:0:
373,175,270997,5,8,0:3:0:0:
350,335,271239,1,8,0:0:0:0:
275,193,271481,1,8,0:3:0:0:
416,265,271723,2,0,P|464:254|504:221,1,95,2|0,0:0|0:3,0:0:0:0:
496,66,272207,2,0,P|458:37|412:27,1,95,8|8,0:0|0:3,0:0:0:0:
334,144,272690,5,2,0:0:0:0:
300,9,272932,1,8,0:3:0:0:
421,116,273174,1,8,0:0:0:0:
407,196,273295,2,0,P|362:227|317:232,1,95
254,189,273658,1,2,0:0:0:0:
201,338,273900,1,8,0:3:0:0:
160,191,274142,1,8,0:0:0:0:
278,281,274384,1,8,0:3:0:0:
127,277,274626,6,0,P|73:275|38:248,1,95,2|8,0:0|0:3,0:0:0:0:
21,59,275110,2,0,L|27:164,1,95,8|8,0:0|0:3,0:0:0:0:
127,277,275594,2,0,P|172:263|207:222,1,95,2|8,0:0|0:3,0:0:0:0:
235,73,276078,1,8,0:0:0:0:
103,128,276320,1,8,0:3:0:0:
317,190,276561,5,6,0:0:0:0:
303,32,276803,1,8,0:3:0:0:
410,149,277045,1,8,0:0:0:0:
421,180,277166,1,0,0:0:0:0:
423,213,277287,1,8,0:3:0:0:
415,245,277408,2,0,P|388:280|341:301,1,95
259,314,277771,1,8,0:3:0:0:
419,349,278013,1,8,0:0:0:0:
326,209,278255,1,8,0:3:0:0:
168,349,278497,6,0,P|178:300|164:240,1,95,2|8,0:0|0:3,0:0:0:0:
11,163,278981,1,8,0:0:0:0:
77,296,279223,1,8,0:3:0:0:
177,183,279465,2,0,L|282:190,1,95,2|8,0:0|0:3,0:0:0:0:
305,190,279828,1,0,0:0:0:0:
338,191,279949,1,8,0:0:0:0:
495,135,280190,1,8,0:3:0:0:
345,80,280432,5,2,0:0:0:0:
501,55,280674,1,8,0:3:0:0:
441,199,280916,1,8,0:0:0:0:
482,270,281037,2,0,P|435:279|388:264,1,95
336,205,281400,1,2,0:0:0:0:
288,343,281642,1,8,0:3:0:0:
203,226,281884,1,8,0:0:0:0:
148,361,282126,1,8,0:3:0:0:
27,202,282368,5,6,0:0:0:0:
298,48,282852,2,0,L|378:51,1,71.2500027179719
200,45,283336,1,8,0:0:0:0:
320,172,283578,1,8,0:0:0:0:
454,54,283820,1,8,0:0:0:0:
470,85,283940,1,0,0:0:0:0:
477,119,284061,1,2,0:0:0:0:
472,154,284182,1,0,0:0:0:0:
456,186,284303,6,0,P|448:234|463:296,1,95,6|0,0:0|0:0,0:0:0:0:
389,120,284787,2,0,L|238:129,1,142.5,8|0,0:0|0:0,0:0:0:0:
166,134,285271,2,0,P|181:91|244:137,1,142.5,2|0,0:0|0:0,0:0:0:0:
218,215,285755,5,8,0:0:0:0:
64,157,285997,1,2,0:3:0:0:
142,303,286239,1,2,0:0:0:0:
64,157,286481,1,2,0:3:0:0:
25,315,286723,1,8,0:0:0:0:
64,157,286965,1,2,0:3:0:0:
142,303,287207,2,0,P|193:331|279:318,1,142.5,2|0,0:0|0:0,0:0:0:0:
343,266,287690,6,0,L|335:121,1,142.5,12|0,0:0|0:0,0:0:0:0:
378,51,288174,2,0,P|403:88|329:118,1,142.5,6|0,0:0|0:0,0:0:0:0:
243,81,288658,6,0,L|251:226,1,142.5,8|0,0:0|0:0,0:0:0:0:
208,296,289142,2,0,P|183:259|257:229,1,142.5,2|0,0:0|0:0,0:0:0:0:
310,281,289626,5,8,0:0:0:0:
334,120,289868,1,2,0:3:0:0:
206,18,290110,1,2,0:0:0:0:
334,120,290352,1,2,0:3:0:0:
487,64,290594,1,8,0:0:0:0:
448,136,290715,2,0,P|442:187|456:232,1,95
507,288,291078,2,0,P|438:270|366:303,1,142.5,2|0,0:0|0:0,0:0:0:0:
314,353,291561,6,0,L|168:345,1,142.5,12|0,0:0|0:0,0:0:0:0:
80,314,292045,2,0,P|96:362|174:338,1,142.5,6|0,0:0|0:0,0:0:0:0:
209,260,292529,6,0,L|355:268,1,142.5,8|0,0:0|0:0,0:0:0:0:
443,299,293013,2,0,P|427:251|349:275,1,142.5,2|0,0:0|0:0,0:0:0:0:
304,341,293497,5,8,0:0:0:0:
260,185,293739,1,2,0:3:0:0:
190,331,293981,1,2,0:0:0:0:
260,185,294223,1,2,0:3:0:0:
110,249,294465,1,8,0:0:0:0:
260,185,294707,1,2,0:3:0:0:
106,129,294949,2,0,P|54:141|34:225,1,142.5,2|0,0:0|0:0,0:0:0:0:
110,249,295432,6,0,L|255:239,1,142.5,12|0,0:0|0:0,0:0:0:0:
319,305,295916,2,0,P|260:308|262:229,1,142.5,6|0,0:0|0:0,0:0:0:0:
291,153,296400,6,0,L|146:163,1,142.5,8|0,0:0|0:0,0:0:0:0:
81,96,296884,2,0,P|140:93|138:172,1,142.5,2|0,0:0|0:0,0:0:0:0:
100,227,297368,6,0,P|99:277|125:323,1,95,8|2,0:0|0:3,0:0:0:0:
143,338,297731,1,0,0:0:0:0:
174,348,297852,1,2,0:0:0:0:
256,228,298094,1,2,0:3:0:0:
338,348,298336,1,8,0:0:0:0:
414,320,298457,2,0,P|434:277|432:230,1,95
431,149,298819,5,8,0:0:0:0:
211,196,299061,1,8,0:0:0:0:
356,34,299303,1,8,0:0:0:0:
336,252,299545,1,8,0:0:0:0:
223,60,299787,5,6,0:0:0:0:
80,162,300029,1,2,0:3:0:0:
223,60,300271,1,8,0:0:0:0:
80,162,300513,2,0,L|-14:156,1,95,2|0,0:3|0:0,0:0:0:0:
164,283,300997,5,2,0:3:0:0:
0,247,301239,1,8,0:0:0:0:
164,283,301481,2,0,P|214:288|259:271,1,95,2|2,0:3|0:0,0:0:0:0:
333,113,301965,5,2,0:3:0:0:
357,289,302207,1,8,0:0:0:0:
333,113,302449,1,2,0:3:0:0:
435,263,302690,2,0,P|433:324|356:371,1,142.5,2|0,0:0|0:0,0:0:0:0:
290,362,303174,1,8,0:0:0:0:
290,362,303416,1,10,0:3:0:0:
270,167,303658,5,6,0:0:0:0:
111,240,303900,1,2,0:3:0:0:
270,167,304142,1,8,0:0:0:0:
111,240,304384,2,0,L|9:233,1,95,2|2,0:3|0:0,0:0:0:0:
159,73,304868,5,2,0:3:0:0:
1,136,305110,1,8,0:0:0:0:
159,73,305352,2,0,P|208:72|253:93,1,95,2|2,0:3|0:0,0:0:0:0:
365,234,305836,5,2,0:3:0:0:
370,53,306078,1,8,0:0:0:0:
365,234,306319,1,2,0:3:0:0:
370,53,306561,5,2,0:0:0:0:
142,331,307045,1,8,0:0:0:0:
370,53,307529,5,6,0:0:0:0:
218,138,307771,1,2,0:3:0:0:
370,53,308013,1,8,0:0:0:0:
218,138,308255,2,0,L|121:133,1,95,2|2,0:3|0:0,0:0:0:0:
261,227,308739,5,2,0:3:0:0:
276,64,308981,1,8,0:0:0:0:
261,227,309223,2,0,L|254:345,1,95,2|2,0:3|0:0,0:0:0:0:
172,181,309707,5,2,0:3:0:0:
344,185,309949,1,8,0:0:0:0:
172,181,310190,1,2,0:3:0:0:
348,272,310432,2,0,P|400:254|428:165,1,142.5,2|0,0:0|0:0,0:0:0:0:
396,103,310916,1,8,0:0:0:0:
272,29,311158,1,10,0:3:0:0:
244,188,311400,5,6,0:0:0:0:
396,103,311642,1,2,0:3:0:0:
244,188,311884,1,8,0:0:0:0:
396,103,312126,2,0,L|496:109,1,95,2|2,0:3|0:0,0:0:0:0:
349,239,312610,5,2,0:3:0:0:
311,78,312852,1,8,0:0:0:0:
349,239,313094,2,0,L|371:334,1,95,2|2,0:3|0:0,0:0:0:0:
417,190,313578,5,2,0:3:0:0:
244,188,313819,1,8,0:0:0:0:
417,190,314061,1,2,0:3:0:0:
266,93,314303,1,2,0:0:0:0:
258,268,314545,1,2,0:3:0:0:
258,268,314666,1,2,0:0:0:0:
258,268,314787,1,8,0:0:0:0:
108,110,324355,6,0,L|117:209,1,95,6|8,0:0|0:0,0:0:0:0:
119,237,324614,1,0,0:0:0:0:
122,269,324701,1,8,0:0:0:0:
250,349,324874,2,0,P|328:353|416:279,1,190,6|8,0:0|0:0,0:0:0:0:
423,254,325306,1,8,0:0:0:0:
422,220,325393,1,8,0:0:0:0:
330,108,325566,6,0,P|283:103|229:119,1,95,6|0,0:0|0:0,0:0:0:0:
321,235,325912,1,0,0:0:0:0:
421,139,326085,2,0,P|422:88|405:47,1,95,8|0,0:0|0:0,0:0:0:0:
270,19,326431,1,2,0:0:0:0:
270,19,326604,1,2,0:0:0:0:
217,149,326777,2,0,B|205:184|205:184|222:302,1,142.5,8|0,0:0|0:0,0:0:0:0:
283,348,327123,6,0,P|236:370|186:367,1,95,2|0,0:0|0:0,0:0:0:0:
69,329,327469,1,8,0:0:0:0:
76,196,327642,2,0,L|79:98,1,95,2|2,0:0|0:0,0:0:0:0:
191,44,327988,1,2,0:0:0:0:
155,192,328161,1,8,0:0:0:0:
42,90,328334,1,2,0:0:0:0:
191,44,328507,6,0,P|241:40|288:61,1,95,2|0,0:0|0:0,0:0:0:0:
380,163,328853,2,0,B|373:212|373:212|388:260|388:260|376:294|383:353,1,190,8|2,0:0|0:0,0:0:0:0:
292,256,329372,1,2,0:0:0:0:
466,204,329545,1,8,0:0:0:0:
466,204,329718,1,2,0:0:0:0:
311,76,329891,6,0,B|260:61|214:75|214:75|167:91|111:68,1,190,6|8,0:0|0:0,0:0:0:0:
0,36,330410,2,0,P|-8:81|10:137,1,95,2|0,0:0|0:0,0:0:0:0:
152,187,330756,1,2,0:0:0:0:
3,227,330929,1,8,0:0:0:0:
173,319,331102,6,0,P|219:304|254:264,1,95,6|0,0:0|0:0,0:0:0:0:
249,113,331448,1,0,0:0:0:0:
341,200,331621,2,0,L|151:186,1,190,8|2,0:0|0:0,0:0:0:0:
46,79,332140,1,2,0:0:0:0:
0,219,332313,1,10,0:0:0:0:
0,252,332399,1,10,0:0:0:0:
9,283,332486,1,10,0:0:0:0:
28,309,332572,1,10,0:0:0:0:
54,329,332659,6,0,L|149:328,1,95,6|0,0:0|0:0,0:0:0:0:
286,371,333005,2,0,P|272:319|280:272,1,95,8|2,0:0|0:0,0:0:0:0:
378,189,333351,1,2,0:0:0:0:
378,189,333524,1,2,0:0:0:0:
459,295,333697,2,0,P|419:315|350:312,1,95,8|2,0:0|0:0,0:0:0:0:
244,215,334043,6,0,P|217:111|256:21,1,190,2|8,0:0|0:0,0:0:0:0:
369,122,334562,1,2,0:0:0:0:
244,215,334735,2,0,P|180:224|113:178,1,142.5,2|0,0:0|0:0,0:0:0:0:
73,111,335081,1,8,0:0:0:0:
0,214,335254,1,0,0:0:0:0:
147,347,335427,6,0,B|197:360|197:360|341:349,1,190,6|8,0:0|0:0,0:0:0:0:
487,345,335946,2,0,P|399:333|350:249,1,190,2|2,0:0|0:0,0:0:0:0:
328,96,336465,1,8,0:0:0:0:
328,96,336811,6,0,L|234:98,1,95,6|0,0:0|0:0,0:0:0:0:
14,21,337157,2,0,P|44:68|88:83,1,95,6|0,0:0|0:0,0:0:0:0:
226,230,337503,1,6,0:0:0:0:
172,23,337676,1,6,0:0:0:0:
32,189,337849,1,6,0:0:0:0:
172,23,338022,1,6,0:0:0:0:
226,230,338195,5,6,0:0:0:0:
78,82,338368,1,6,0:0:0:0:
300,372,338714,1,6,0:0:0:0:
404,27,339060,1,6,0:0:0:0:
152,262,339406,2,0,B|46:309|-21:229|16:119|112:127|146:177|146:177|195:160|237:178|237:178|275:169|275:169|309:177|337:168,1,498.750019025803,6|0,0:0|0:0,0:0:0:0:
452,281,340963,5,6,0:0:0:0:
393,114,341137,1,6,0:0:0:0:
171,340,341483,1,6,0:0:0:0:
489,185,341829,1,6,0:0:0:0:
185,29,342175,2,0,B|137:49|74:29|74:29|117:125|75:207|75:207|122:264|223:232|182:134|167:130,1,498.750019025803,6|0,0:0|0:0,0:0:0:0:
59,301,343732,5,0,0:0:0:0:
92,315,345116,1,0,0:0:0:0:
123,329,346500,1,0,0:0:0:0:
150,341,347884,5,2,0:0:0:0:
330,131,348230,1,8,0:0:0:0:
187,203,348403,1,2,0:0:0:0:
187,203,348576,1,2,0:0:0:0:
342,234,348749,1,8,0:0:0:0:
281,57,348922,1,8,0:0:0:0:
342,234,349095,1,8,0:0:0:0:
281,57,349268,5,6,0:0:0:0:
123,117,349441,2,0,P|75:113|36:85,1,95,6|8,0:0|0:0,0:0:0:0:
140,26,349787,2,0,P|141:76|119:121,1,95,0|2,0:0|0:0,0:0:0:0:
10,195,350133,2,0,B|35:234|35:234|81:260,1,95,0|8,0:0|0:0,0:0:0:0:
140,375,350479,6,0,B|161:333|161:333|160:281,1,95,2|2,0:0|0:0,0:0:0:0:
231,174,350825,2,0,B|184:176|184:176|139:202,1,95,0|8,0:0|0:0,0:0:0:0:
302,238,351171,1,2,0:0:0:0:
251,88,351344,1,2,0:0:0:0:
251,88,351517,1,2,0:0:0:0:
142,200,351690,2,0,P|134:247|145:296,1,95,8|0,0:0|0:0,0:0:0:0:
335,362,352036,5,6,0:0:0:0:
471,297,352209,2,0,P|488:248|482:198,1,95,6|0,0:0|0:0,0:0:0:0:
391,205,352555,2,0,P|437:197|495:210,1,95
284,266,352901,2,0,P|267:221|274:163,1,95,2|8,0:0|0:0,0:0:0:0:
129,71,353247,6,0,P|176:78|223:113,1,95,0|2,0:0|0:0,0:0:0:0:
376,42,353593,2,0,P|345:79|291:102,1,95,0|8,0:0|0:0,0:0:0:0:
216,12,353939,1,2,0:0:0:0:
147,162,354112,1,2,0:0:0:0:
147,162,354285,1,2,0:0:0:0:
214,275,354458,1,8,0:0:0:0:
245,284,354545,1,2,0:0:0:0:
277,286,354631,1,2,0:0:0:0:
310,283,354718,1,2,0:0:0:0:
342,275,354804,6,6,P|380:223|380:132,1,142.500005435944,6|2,0:0|0:0,0:0:0:0:
300,80,355323,1,2,0:0:0:0:
270,178,355496,2,0,B|222:184|222:184|120:174,1,142.500005435944,8|0,0:0|0:0,0:0:0:0:
72,82,356015,1,2,0:0:0:0:
20,175,356188,5,0,0:0:0:0:
60,273,356361,1,8,0:0:0:0:
150,329,356534,1,0,0:0:0:0:
256,341,356707,1,2,0:0:0:0:
492,175,356880,5,8,0:0:0:0:
452,273,357053,1,8,0:0:0:0:
362,329,357226,1,0,0:0:0:0:
256,341,357399,1,8,0:0:0:0:
146,223,357572,5,8,0:0:0:0:
149,205,357659,1,8,0:0:0:0:
152,187,357746,1,8,0:0:0:0:
224,53,357919,1,8,0:0:0:0:
256,204,358092,1,8,0:0:0:0:
260,176,358178,1,8,0:0:0:0:
265,147,358265,1,8,0:0:0:0:
369,183,358438,1,8,0:0:0:0:
375,144,358524,1,8,0:0:0:0:
382,105,358611,1,8,0:0:0:0:
487,167,358784,1,8,0:0:0:0:
495,118,358870,1,8,0:0:0:0:
504,68,358957,5,12,0:0:0:0:
324,151,360341,5,6,0:0:0:0:
291,170,361033,1,6,0:0:0:0:
256,187,361725,5,6,0:0:0:0:
222,202,362071,1,6,0:0:0:0:
183,218,362417,5,6,0:0:0:0:
311,69,362590,1,6,0:0:0:0:
296,267,362763,1,6,0:0:0:0:
194,99,362936,1,6,0:0:0:0:
374,173,363109,6,0,P|421:175|469:147,1,95,6|0,0:0|0:0,0:0:0:0:
372,29,363455,1,8,0:0:0:0:
372,29,363628,1,2,0:0:0:0:
257,135,363801,2,0,L|265:240,1,95,0|2,0:0|0:0,0:0:0:0:
357,343,364147,2,0,P|408:336|443:307,1,95,8|0,0:0|0:0,0:0:0:0:
198,346,364493,6,0,P|147:339|112:310,1,95
18,191,364839,1,8,0:0:0:0:
18,191,365012,1,2,0:0:0:0:
162,130,365185,2,0,L|261:135,1,95,0|2,0:0|0:0,0:0:0:0:
426,206,365531,2,0,P|370:181|349:146,1,95,8|0,0:0|0:0,0:0:0:0:
261,45,365877,6,0,L|166:40,1,95,2|0,0:0|0:0,0:0:0:0:
26,81,366223,1,8,0:0:0:0:
26,81,366396,1,2,0:0:0:0:
21,226,366569,2,0,P|37:268|78:302,1,95,0|2,0:0|0:0,0:0:0:0:
189,289,366915,1,8,0:0:0:0:
161,163,367088,1,0,0:0:0:0:
198,319,367261,6,0,P|246:321|297:296,1,95,2|0,0:0|0:0,0:0:0:0:
352,151,367607,1,8,0:0:0:0:
432,363,367780,2,0,P|446:309|438:260,1,95,2|0,0:0|0:0,0:0:0:0:
352,151,368126,1,2,0:0:0:0:
288,302,368299,2,0,P|245:321|198:319,1,95,8|0,0:0|0:0,0:0:0:0:
85,216,368645,6,0,L|90:114,1,95,2|0,0:0|0:0,0:0:0:0:
215,42,368991,1,8,0:0:0:0:
215,42,369164,1,2,0:0:0:0:
338,131,369337,2,0,P|350:179|342:227,1,95,0|2,0:0|0:0,0:0:0:0:
318,50,369683,2,0,P|367:52|412:89,1,95,8|0,0:0|0:0,0:0:0:0:
465,220,370029,6,0,L|459:322,1,95,2|0,0:0|0:0,0:0:0:0:
323,372,370375,1,8,0:0:0:0:
323,372,370548,1,2,0:0:0:0:
239,245,370721,2,0,P|192:246|147:269,1,95,0|2,0:0|0:0,0:0:0:0:
303,151,371067,2,0,P|358:153|397:180,1,95,8|0,0:0|0:0,0:0:0:0:
237,50,371413,5,8,0:0:0:0:
129,96,372105,1,8,0:0:0:0:
35,145,372797,6,0,L|41:249,1,95,8|0,0:0|0:0,0:0:0:0:
216,254,373143,2,0,L|210:150,1,95,8|0,0:0|0:0,0:0:0:0:
40,239,373489,1,8,0:0:0:0:
210,159,373662,1,8,0:0:0:0:
35,145,373835,1,8,0:0:0:0:
216,254,374008,1,8,0:0:0:0:
216,42,374181,6,0,P|166:46|122:78,1,95,6|0,0:0|0:0,0:0:0:0:
87,212,374528,1,8,0:0:0:0:
87,212,374701,1,2,0:0:0:0:
210,291,374874,2,0,P|260:287|304:255,1,95,0|2,0:0|0:0,0:0:0:0:
430,171,375220,2,0,P|468:185|502:234,1,95,8|0,0:0|0:0,0:0:0:0:
405,352,375566,6,0,L|309:349,1,95,2|0,0:0|0:0,0:0:0:0:
230,213,375912,1,8,0:0:0:0:
230,213,376085,1,2,0:0:0:0:
99,308,376258,2,0,P|61:277|43:221,1,95,0|2,0:0|0:0,0:0:0:0:
45,85,376604,2,0,P|64:39|104:13,1,95,8|0,0:0|0:0,0:0:0:0:
182,128,376950,6,0,B|225:140|225:140|288:132,1,95,2|0,0:0|0:0,0:0:0:0:
426,103,377296,1,8,0:0:0:0:
426,103,377469,1,2,0:0:0:0:
379,245,377642,2,0,P|328:245|292:222,1,95,0|2,0:0|0:0,0:0:0:0:
182,128,377988,1,8,0:0:0:0:
181,282,378161,1,0,0:0:0:0:
360,161,378334,6,0,B|396:149|396:149|462:155,1,95,2|0,0:0|0:0,0:0:0:0:
402,314,378680,1,8,0:0:0:0:
291,221,378853,1,2,0:0:0:0:
418,331,379026,2,0,L|525:325,1,95,0|2,0:0|0:0,0:0:0:0:
297,343,379372,2,0,P|250:338|205:305,1,95,8|0,0:0|0:0,0:0:0:0:
164,140,379718,6,0,B|240:146|240:146|274:134|274:134|370:141,1,190,2|8,0:0|0:0,0:0:0:0:
427,240,380237,1,2,0:0:0:0:
282,233,380410,2,0,L|183:226,1,95,0|2,0:0|0:0,0:0:0:0:
273,47,380756,2,0,L|372:54,1,95,8|0,0:0|0:0,0:0:0:0:
427,240,381102,6,0,B|403:290|354:301|354:301|300:314|279:374,1,190,2|8,0:0|0:0,0:0:0:0:
336,211,381621,1,2,0:0:0:0:
487,317,381794,2,0,P|452:357|408:379,1,95,0|2,0:0|0:0,0:0:0:0:
336,211,382140,2,0,P|371:171|415:149,1,95,8|0,0:0|0:0,0:0:0:0:
350,303,382486,6,0,L|254:298,1,95,2|0,0:0|0:0,0:0:0:0:
167,191,382832,1,8,0:0:0:0:
167,191,383005,1,2,0:0:0:0:
48,272,383178,2,0,P|40:323|51:369,1,95,0|2,0:0|0:0,0:0:0:0:
163,272,383524,1,8,0:0:0:0:
49,178,383697,1,0,0:0:0:0:
164,84,383870,6,0,P|239:76|335:146,1,190,2|8,0:0|0:0,0:0:0:0:
379,282,384389,1,2,0:0:0:0:
217,283,384562,2,0,P|207:234|217:183,1,95,0|2,0:0|0:0,0:0:0:0:
379,282,384908,2,0,P|389:331|379:382,1,95,8|0,0:0|0:0,0:0:0:0:
288,233,385254,6,0,L|496:251,1,190,2|8,0:0|0:0,0:0:0:0:
436,131,385773,1,2,0:0:0:0:
288,233,385946,2,0,P|280:279|293:335,1,95,0|2,0:0|0:0,0:0:0:0:
477,249,386292,2,0,P|485:203|472:147,1,95,8|0,0:0|0:0,0:0:0:0:
330,54,386638,6,0,B|281:65|281:65|235:51|235:51|189:71|136:53,1,190,2|8,0:0|0:0,0:0:0:0:
33,121,387157,1,2,0:0:0:0:
137,241,387330,2,0,L|236:237,1,95,0|2,0:0|0:0,0:0:0:0:
54,201,387676,2,0,P|45:250|66:301,1,95,8|0,0:0|0:0,0:0:0:0:
249,352,388022,5,12,0:0:0:0:
202,157,388195,2,0,B|180:107|192:62|192:62|225:27|283:23,1,190,12|0,0:0|0:0,0:0:0:0:
475,103,388714,1,12,0:0:0:0:
305,211,388887,2,0,L|108:203,1,190,12|0,0:0|0:0,0:0:0:0:
206,19,389406,5,12,0:0:0:0:
368,136,389579,2,0,P|397:217|342:302,1,190,12|0,0:0|0:0,0:0:0:0:
136,344,390098,1,8,0:0:0:0:
109,310,390185,1,2,0:0:0:0:
96,269,390271,1,2,0:0:0:0:
96,226,390358,1,2,0:0:0:0:
120,178,390444,5,8,0:0:0:0:
162,180,390531,1,2,0:0:0:0:
204,182,390617,1,2,0:0:0:0:
246,184,390704,1,2,0:0:0:0:
286,149,390790,5,6,0:0:0:0:
90,19,390963,1,6,0:0:0:0:
314,29,391137,1,8,0:0:0:0:
114,138,391310,1,6,0:0:0:0:
468,79,391656,5,6,0:0:0:0:
352,228,391829,1,8,0:0:0:0:
245,77,392002,2,0,L|140:83,1,95,6|2,0:0|0:0,0:0:0:0:
5,205,392348,1,6,0:0:0:0:
129,349,392521,1,8,0:0:0:0:
213,182,392694,1,6,0:0:0:0:
341,317,392867,2,0,P|388:305|427:260,1,95,6|2,0:0|0:0,0:0:0:0:
405,84,393213,1,8,0:0:0:0:
405,84,393559,6,0,L|422:283,1,190,6|8,0:0|0:0,0:0:0:0:
264,351,394078,2,0,P|204:344|176:320,1,95,6|0,0:0|0:0,0:0:0:0:
117,195,394424,1,6,0:0:0:0:
286,249,394597,1,8,0:0:0:0:
96,165,394770,6,0,L|-14:169,1,95,6|2,0:0|0:0,0:0:0:0:
206,40,395116,2,0,P|255:41|299:66,1,95,6|8,0:0|0:0,0:0:0:0:
395,224,395462,1,6,0:0:0:0:
417,33,395635,1,6,0:0:0:0:
285,173,395808,1,2,0:0:0:0:
481,133,395981,1,8,0:0:0:0:
481,133,396327,5,6,0:0:0:0:
430,299,396500,2,0,P|385:318|319:306,1,95,0|8,0:0|0:0,0:0:0:0:
196,225,396846,2,0,B|167:205|137:209|137:209|96:268|24:261,1,190,2|2,0:0|0:0,0:0:0:0:
196,308,397365,2,0,P|245:292|274:255,1,95,8|0,0:0|0:0,0:0:0:0:
197,107,397711,5,2,0:0:0:0:
48,169,397884,2,0,L|54:279,1,95,0|8,0:0|0:0,0:0:0:0:
174,360,398230,2,0,B|227:369|227:369|273:360|273:360|317:377|372:354,1,190,2|2,0:0|0:0,0:0:0:0:
470,223,398749,2,0,P|479:174|466:119,1,95,8|0,0:0|0:0,0:0:0:0:
338,92,399095,6,0,P|313:93|290:100,1,47.5,2|0,0:0|0:0,0:0:0:0:
336,178,399268,2,0,P|312:177|289:170,1,47.5
240,53,399441,6,0,P|228:75|222:98,1,47.5,8|0,0:0|0:0,0:0:0:0:
237,216,399614,2,0,P|225:195|220:172,1,47.5,2|0,0:0|0:0,0:0:0:0:
121,38,399787,6,0,P|134:59|151:75,1,47.5,2|0,0:0|0:0,0:0:0:0:
115,226,399960,2,0,P|127:205|144:189,1,47.5
240,53,400133,1,8,0:0:0:0:
342,200,400306,1,0,0:0:0:0:
342,200,400393,1,0,0:0:0:0:
342,200,400479,6,0,B|332:341|332:341|387:300,1,190,2|8,0:0|0:0,0:0:0:0:
481,193,400998,1,2,0:0:0:0:
382,69,401171,2,0,P|333:58|287:71,1,95,0|2,0:0|0:0,0:0:0:0:
181,167,401517,2,0,P|104:175|38:130,1,142.5,8|0,0:0|0:0,0:0:0:0:
0,85,401863,6,0,L|5:194,1,95,2|0,0:0|0:0,0:0:0:0:
154,267,402209,1,8,0:0:0:0:
11,292,402382,1,2,0:0:0:0:
179,285,402555,1,2,0:0:0:0:
0,317,402728,1,2,0:0:0:0:
202,301,402901,2,0,L|298:298,1,95,8|0,0:0|0:0,0:0:0:0:
426,356,403247,5,2,0:0:0:0:
388,182,403420,1,2,0:0:0:0:
456,368,403593,1,8,0:0:0:0:
407,154,403766,2,0,P|400:102|415:57,1,95,2|2,0:0|0:0,0:0:0:0:
305,155,404112,1,0,0:0:0:0:
509,112,404285,1,8,0:0:0:0:
286,136,404458,1,0,0:0:0:0:
213,315,404631,5,6,0:0:0:0:
177,99,404804,1,6,0:0:0:0:
476,353,405150,1,6,0:0:0:0:
101,337,405496,1,6,0:0:0:0:
313,20,405842,1,6,0:0:0:0:
400,384,406188,1,6,0:0:0:0:
56,221,406534,1,6,0:0:0:0:
186,354,406707,1,6,0:0:0:0:
453,55,407053,1,6,0:0:0:0:
55,128,407399,6,0,P|46:177|60:230,1,95,2|0,0:0|0:0,0:0:0:0:
186,354,407746,1,8,0:0:0:0:
235,180,407919,1,0,0:0:0:0:
207,376,408092,1,2,0:0:0:0:
263,171,408265,1,0,0:0:0:0:
114,298,408438,1,8,0:0:0:0:
380,299,408611,5,6,0:0:0:0:
238,176,415244,5,6,0:0:0:0:
325,83,415463,1,6,0:0:0:0:
299,253,415682,1,6,0:0:0:0:
237,54,415901,1,6,0:0:0:0:
441,114,416121,1,6,0:0:0:0:
238,176,416340,1,6,0:0:0:0:
487,100,416559,1,6,0:0:0:0:
487,100,416998,5,6,0:0:0:0:
469,191,417217,1,6,0:0:0:0:
392,277,417436,1,6,0:0:0:0:
259,315,417656,1,6,0:0:0:0:
105,263,417875,1,6,0:0:0:0:
37,93,418094,1,6,0:0:0:0:
208,197,418313,1,6,0:0:0:0:
37,301,418528,5,6,0:0:0:0:
37,301,418747,1,2,0:0:0:0:
202,358,418966,2,0,P|264:373|346:338,1,142.5,8|2,0:0|0:0,0:0:0:0:
392,277,419405,1,2,0:0:0:0:
392,277,419624,1,2,0:0:0:0:
224,158,419843,2,0,P|162:143|80:178,1,142.5,8|0,0:0|0:0,0:0:0:0:
22,213,420282,5,2,0:0:0:0:
22,213,420501,1,2,0:0:0:0:
90,340,420720,2,0,L|198:333,1,95,8|0,0:0|0:0,0:0:0:0:
213,315,421049,1,2,0:0:0:0:
245,308,421159,1,2,0:0:0:0:
278,309,421269,1,8,0:0:0:0:
310,316,421378,1,2,0:0:0:0:
338,332,421488,1,2,0:0:0:0:
360,356,421597,2,0,P|343:302|374:211,1,142.5,8|0,0:0|0:0,0:0:0:0:
422,158,422036,5,6,0:0:0:0:
422,158,422255,1,2,0:0:0:0:
269,223,422475,1,8,0:0:0:0:
240,238,422584,2,0,B|210:249|210:249|138:240,1,95,2|2,0:0|0:0,0:0:0:0:
68,224,422913,1,2,0:0:0:0:
69,224,423132,1,2,0:0:0:0:
12,60,423352,2,0,P|78:34|155:51,1,142.5,8|0,0:0|0:0,0:0:0:0:
213,105,423790,5,2,0:0:0:0:
213,105,424010,1,2,0:0:0:0:
363,167,424229,2,0,P|413:161|453:128,1,95,8|0,0:0|0:0,0:0:0:0:
464,106,424558,1,2,0:0:0:0:
467,72,424667,1,2,0:0:0:0:
338,8,424887,1,2,0:0:0:0:
274,141,425106,2,0,L|283:242,1,95,8|2,0:0|0:0,0:0:0:0:
289,268,425435,1,0,0:0:0:0:
294,300,425545,5,2,0:0:0:0:
167,375,425764,1,2,0:0:0:0:
87,252,425983,2,0,B|79:201|79:201|87:159|87:159|81:107,1,142.5,8|0,0:0|0:0,0:0:0:0:
70,29,426422,1,2,0:0:0:0:
70,29,426641,1,2,0:0:0:0:
201,129,426860,2,0,P|267:136|341:84,1,142.5,8|0,0:0|0:0,0:0:0:0:
377,31,427299,6,0,L|362:194,1,142.5,6|0,0:0|0:0,0:0:0:0:
358,257,427737,1,8,0:0:0:0:
358,257,427957,1,2,0:0:0:0:
498,307,428176,2,0,P|509:255|501:204,1,95,2|0,0:0|0:0,0:0:0:0:
494,181,428505,1,0,0:0:0:0:
472,155,428614,1,8,0:0:0:0:
367,44,428834,1,2,0:0:0:0:
219,195,429053,6,0,B|162:212|122:196|122:196|79:178|23:202,1,190,6|8,0:0|0:0,0:0:0:0:
164,117,429711,1,2,0:0:0:0:
82,273,429930,2,0,P|75:322|85:371,1,95,2|2,0:0|0:0,0:0:0:0:
301,367,430369,2,0,P|316:291|300:221,1,142.5,8|0,0:0|0:0,0:0:0:0:
249,158,430807,6,0,P|290:182|359:171,1,106.875004076958
447,125,431246,6,0,B|348:178|348:178|333:65,1,213.750008153916,6|0,0:0|0:0,0:0:0:0:
383,13,431684,6,0,P|338:37|282:34,1,106.875004076958
183,7,432123,6,0,B|194:74|194:74|177:146|177:146|190:227,1,213.750008153916,6|0,0:0|0:0,0:0:0:0:
247,289,432562,6,0,P|269:286|294:271,1,35.625001358986,2|0,0:0|0:0,0:0:0:0:
420,99,432781,6,0,P|456:98|493:118,1,71.2500027179719,6|0,0:0|0:0,0:0:0:0:
505,191,433000,2,0,P|481:193|459:189,1,35.625001358986,2|0,0:0|0:0,0:0:0:0:
278,65,433219,6,0,P|242:66|209:83,1,71.2500027179719,6|0,0:0|0:0,0:0:0:0:
175,153,433439,2,0,L|124:156,1,35.625001358986,2|0,0:0|0:0,0:0:0:0:
309,346,433658,6,0,P|345:345|378:328,1,71.2500027179719,6|0,0:0|0:0,0:0:0:0:
432,274,433877,2,0,L|474:272,1,35.625001358986,2|0,0:0|0:0,0:0:0:0:
204,327,434097,6,0,P|155:327|123:304,1,71.2500027179719,6|0,0:0|0:0,0:0:0:0:
67,250,434316,1,6,0:0:0:0:
67,250,434425,1,6,0:0:0:0:
221,66,434645,2,0,P|289:47|362:68,1,142.5,6|0,0:0|0:0,0:0:0:0:
463,214,435193,1,6,0:0:0:0:
444,5,435412,1,6,0:0:0:0:
288,139,435632,1,6,0:0:0:0:
507,139,435851,1,6,0:0:0:0:
309,26,436070,6,0,P|257:26|215:47,1,95,6|0,0:0|0:0,0:0:0:0:
98,157,436509,1,8,0:0:0:0:
209,269,436728,1,0,0:0:0:0:
232,292,436838,1,2,0:0:0:0:
256,315,436947,1,2,0:0:0:0:
263,154,437166,1,2,0:0:0:0:
110,209,437386,2,0,P|102:261|118:318,1,95,8|0,0:0|0:0,0:0:0:0:
129,329,437715,1,0,0:0:0:0:
158,345,437824,6,0,L|260:340,1,95,6|0,0:0|0:0,0:0:0:0:
379,237,438263,1,8,0:0:0:0:
260,129,438482,1,0,0:0:0:0:
227,132,438592,1,2,0:0:0:0:
194,135,438701,1,2,0:0:0:0:
265,29,438921,1,2,0:0:0:0:
275,218,439140,1,8,0:0:0:0:
109,131,439359,1,0,0:0:0:0:
94,100,439469,1,0,0:0:0:0:
98,67,439579,6,0,B|134:57|134:57|208:64,1,95,6|0,0:0|0:0,0:0:0:0:
352,68,440017,1,8,0:0:0:0:
419,210,440236,1,0,0:0:0:0:
423,243,440346,1,2,0:0:0:0:
421,276,440456,1,2,0:0:0:0:
512,128,440675,2,0,P|475:95|425:87,1,95,2|8,0:0|0:0,0:0:0:0:
334,201,441114,1,0,0:0:0:0:
312,225,441223,1,0,0:0:0:0:
290,250,441333,5,2,0:0:0:0:
439,171,441552,1,2,0:0:0:0:
279,113,441771,2,0,P|231:123|192:149,1,95,8|0,0:0|0:0,0:0:0:0:
176,177,442100,1,0,0:0:0:0:
163,206,442210,6,0,B|143:37|143:37|112:86,1,213.750008153916,6|2,0:0|0:0,0:0:0:0:
46,154,442649,2,0,B|65:322|65:322|97:274,1,213.750008153916,6|0,0:0|0:0,0:0:0:0:
163,206,443087,5,2,0:0:0:0:
195,196,443197,1,0,0:0:0:0:
228,193,443306,1,2,0:0:0:0:
260,198,443416,1,0,0:0:0:0:
291,209,443526,1,8,0:0:0:0:
402,316,443745,1,0,0:0:0:0:
393,348,443855,1,2,0:0:0:0:
368,371,443964,2,0,P|324:383|265:372,1,95,2|2,0:0|0:0,0:0:0:0:
228,193,444403,1,8,0:0:0:0:
312,292,444622,1,0,0:0:0:0:
141,256,444841,5,2,0:0:0:0:
130,224,444951,1,0,0:0:0:0:
128,190,445061,1,2,0:0:0:0:
131,157,445170,1,0,0:0:0:0:
143,125,445280,1,8,0:0:0:0:
287,53,445499,1,0,0:0:0:0:
316,67,445609,1,2,0:0:0:0:
332,95,445718,2,0,P|342:150|330:200,1,95,2|2,0:0|0:0,0:0:0:0:
218,239,446157,1,8,0:0:0:0:
414,174,446376,1,0,0:0:0:0:
201,50,446596,6,0,P|138:34|55:67,1,142.5,6|0,0:0|0:0,0:0:0:0:
26,136,447034,1,2,0:0:0:0:
119,252,447253,1,6,0:0:0:0:
201,50,447473,6,0,P|192:105|203:144,1,95,0|2,0:0|0:0,0:0:0:0:
214,173,447802,1,0,0:0:0:0:
237,196,447911,1,0,0:0:0:0:
388,34,448131,1,6,0:0:0:0:
354,153,448350,5,0,0:0:0:0:
100,33,448569,1,6,0:0:0:0:
132,152,448788,1,0,0:0:0:0:
388,34,449008,1,6,0:0:0:0:
132,152,449227,1,6,0:0:0:0:
100,33,449446,1,2,0:0:0:0:
288,125,449666,1,2,0:0:0:0:
330,126,449775,1,2,0:0:0:0:
370,112,449885,1,2,0:0:0:0:
400,82,449994,1,2,0:0:0:0:
411,41,450104,6,0,P|421:85|410:147,1,95,6|0,0:0|0:0,0:0:0:0:
283,47,450543,1,8,0:0:0:0:
317,203,450762,1,0,0:0:0:0:
322,235,450872,1,2,0:0:0:0:
327,267,450981,1,2,0:0:0:0:
478,204,451201,1,2,0:0:0:0:
397,343,451420,2,0,P|352:365|288:360,1,95,8|0,0:0|0:0,0:0:0:0:
115,250,451858,6,0,P|63:256|25:286,1,95,6|0,0:0|0:0,0:0:0:0:
172,355,452297,1,8,0:0:0:0:
184,194,452516,1,0,0:0:0:0:
187,160,452626,1,2,0:0:0:0:
190,127,452736,1,2,0:0:0:0:
51,10,452955,1,2,0:0:0:0:
115,146,453174,1,8,0:0:0:0:
203,20,453393,1,0,0:0:0:0:
94,222,453613,6,0,P|44:231|-3:219,1,95,6|0,0:0|0:0,0:0:0:0:
79,81,454051,1,8,0:0:0:0:
182,213,454271,1,0,0:0:0:0:
176,245,454380,1,2,0:0:0:0:
170,277,454490,1,2,0:0:0:0:
304,178,454709,2,0,P|283:126|247:99,1,95,2|8,0:0|0:0,0:0:0:0:
149,51,455148,1,0,0:0:0:0:
345,65,455367,5,2,0:0:0:0:
207,188,455586,1,0,0:0:0:0:
345,65,455805,2,0,P|394:68|432:97,1,95,8|0,0:0|0:0,0:0:0:0:
451,119,456134,1,2,0:0:0:0:
460,151,456244,5,6,0:0:0:0:
451,190,456354,2,0,B|359:216|359:216|309:201,1,142.500005435944,2|0,0:0|0:0,0:0:0:0:
207,188,456683,1,6,0:0:0:0:
211,219,456792,2,0,B|226:331|226:331|255:288,1,142.500005435944,2|0,0:0|0:0,0:0:0:0:
314,202,457121,5,6,0:0:0:0:
325,171,457231,1,0,0:0:0:0:
327,137,457340,1,2,0:0:0:0:
324,104,457450,1,0,0:0:0:0:
312,72,457560,1,8,0:0:0:0:
157,32,457779,1,0,0:0:0:0:
123,30,457889,1,2,0:0:0:0:
96,49,457998,2,0,B|79:76|79:76|85:140,1,95,2|2,0:0|0:0,0:0:0:0:
206,260,458437,1,8,0:0:0:0:
30,211,458656,1,0,0:0:0:0:
201,171,458875,5,2,0:0:0:0:
233,176,458985,1,0,0:0:0:0:
262,190,459095,1,2,0:0:0:0:
281,217,459204,1,0,0:0:0:0:
292,247,459314,1,8,0:0:0:0:
398,350,459533,1,0,0:0:0:0:
431,345,459643,1,2,0:0:0:0:
457,324,459753,2,0,B|472:292|472:292|465:225,1,95,2|2,0:0|0:0,0:0:0:0:
460,199,460081,1,0,0:0:0:0:
454,166,460191,1,8,0:0:0:0:
372,30,460410,1,0,0:0:0:0:
233,176,460630,5,6,0:0:0:0:
190,175,460739,1,0,0:0:0:0:
148,162,460849,1,0,0:0:0:0:
116,133,460959,1,0,0:0:0:0:
101,93,461068,1,8,0:0:0:0:
372,30,461288,1,6,0:0:0:0:
433,148,461507,2,0,B|439:195|439:195|432:221|414:244|414:244|418:295,1,142.5
424,365,461945,1,8,0:0:0:0:
355,123,462165,1,6,0:0:0:0:
510,123,462384,5,0,0:0:0:0:
285,248,462603,1,6,0:0:0:0:
355,123,462823,1,0,0:0:0:0:
495,327,463042,1,6,0:0:0:0:
243,326,463261,2,0,P|203:276|216:187,1,142.5,6|0,0:0|0:0,0:0:0:0:
231,121,463700,2,0,B|197:119|182:124|182:124|149:79|91:73,1,142.5,6|0,0:0|0:0,0:0:0:0:
15,53,464138,6,0,L|38:340,1,285.000010871888,6|8,0:0|0:0,0:0:0:0:
148,194,464796,1,0,0:0:0:0:
210,359,465015,1,2,0:0:0:0:
316,206,465235,1,2,0:0:0:0:
378,367,465454,1,8,0:0:0:0:
378,367,465892,6,0,L|405:78,1,285.000010871888,6|8,0:0|0:0,0:0:0:0:
263,23,466550,1,2,0:0:0:0:
283,197,466770,1,2,0:0:0:0:
141,93,466989,1,2,0:0:0:0:
161,264,467208,1,8,0:0:0:0:
487,33,467647,5,6,0:0:0:0:
468,157,467866,1,0,0:0:0:0:
340,138,468085,1,0,0:0:0:0:
362,18,468305,1,0,0:0:0:0:
512,196,468524,1,6,0:0:0:0:
294,168,468743,5,0,0:0:0:0:
512,286,469182,1,2,0:0:0:0:
284,252,469620,5,6,0:0:0:0:
240,160,469840,1,6,0:0:0:0:
300,43,470059,1,6,0:0:0:0:
450,62,470278,1,6,0:0:0:0:
400,235,470497,1,6,0:0:0:0:
196,275,470717,1,6,0:0:0:0:
20,148,470936,1,6,0:0:0:0:
229,116,471155,5,6,0:0:0:0:
102,12,471375,1,2,0:0:0:0:
20,148,471594,1,8,0:0:0:0:
145,251,471813,2,0,L|208:248,1,47.5,0|2,0:0|0:0,0:0:0:0:
270,245,472032,1,2,0:0:0:0:
381,130,472252,1,2,0:0:0:0:
440,287,472471,1,8,0:0:0:0:
74,344,472909,6,0,L|96:60,1,285.000010871888,6|8,0:0|0:0,0:0:0:0:
211,168,473567,1,0,0:0:0:0:
276,23,473787,1,2,0:0:0:0:
363,156,474006,1,2,0:0:0:0:
425,11,474225,1,8,0:0:0:0:
225,171,474664,5,6,0:0:0:0:
348,165,474883,1,0,0:0:0:0:
352,290,475102,1,0,0:0:0:0:
229,293,475322,1,0,0:0:0:0:
385,123,475541,1,6,0:0:0:0:
196,129,475760,5,0,0:0:0:0:
395,41,476199,1,0,0:0:0:0:
183,52,476637,5,6,0:0:0:0:
197,146,476857,1,6,0:0:0:0:
281,247,477076,1,6,0:0:0:0:
434,244,477295,1,6,0:0:0:0:
404,65,477514,1,6,0:0:0:0:
203,36,477734,1,6,0:0:0:0:
22,148,477953,1,6,0:0:0:0:
47,362,478172,6,0,L|156:353,1,95,6|0,0:0|0:0,0:0:0:0:
193,192,478611,1,8,0:0:0:0:
320,300,478830,1,0,0:0:0:0:
316,332,478940,1,2,0:0:0:0:
313,365,479049,1,2,0:0:0:0:
444,274,479269,1,2,0:0:0:0:
311,180,479488,2,0,P|264:173|207:186,1,95,8|0,0:0|0:0,0:0:0:0:
439,108,479927,6,0,P|457:148|455:205,1,95,6|0,0:0|0:0,0:0:0:0:
377,336,480365,1,8,0:0:0:0:
236,257,480584,1,0,0:0:0:0:
202,260,480694,1,2,0:0:0:0:
169,263,480804,1,2,0:0:0:0:
0,259,481023,1,2,0:0:0:0:
136,164,481242,1,8,0:0:0:0:
81,320,481461,1,0,0:0:0:0:
38,163,481681,5,6,0:0:0:0:
27,131,481790,1,0,0:0:0:0:
19,98,481900,1,2,0:0:0:0:
142,8,482119,1,8,0:0:0:0:
254,96,482339,1,0,0:0:0:0:
246,129,482448,1,2,0:0:0:0:
240,161,482558,1,2,0:0:0:0:
309,17,482777,1,2,0:0:0:0:
383,159,482996,1,8,0:0:0:0:
400,187,483106,1,0,0:0:0:0:
417,215,483216,1,0,0:0:0:0:
415,38,483435,5,2,0:0:0:0:
254,96,483654,1,0,0:0:0:0:
220,92,483764,1,0,0:0:0:0:
187,88,483874,1,8,0:0:0:0:
53,172,484093,1,0,0:0:0:0:
45,204,484203,1,2,0:0:0:0:
35,237,484312,6,0,B|6:358|6:358|100:321,1,213.750008153916,6|0,0:0|0:0,0:0:0:0:
182,326,484751,2,0,B|265:358|265:358|236:237,1,213.750008153916,6|0,0:0|0:0,0:0:0:0:
216,159,485189,5,6,0:0:0:0:
357,133,485409,1,2,0:0:0:0:
262,24,485628,2,0,P|215:14|167:24,1,95,8|0,0:0|0:0,0:0:0:0:
87,239,486066,1,0,0:0:0:0:
58,141,486286,1,2,0:0:0:0:
155,111,486505,1,8,0:0:0:0:
185,210,486724,1,2,0:0:0:0:
0,202,486944,5,2,0:0:0:0:
148,103,487163,1,0,0:0:0:0:
148,103,487272,1,2,0:0:0:0:
148,103,487382,1,8,0:0:0:0:
153,281,487601,2,0,L|171:330,1,47.5,0|2,0:0|0:0,0:0:0:0:
238,369,487821,2,0,P|289:374|336:359,1,95,2|2,0:0|0:0,0:0:0:0:
361,340,488150,1,2,0:0:0:0:
382,307,488259,6,0,P|438:290|407:330,1,142.500005435944,8|2,0:0|0:0,0:0:0:0:
237,248,488698,5,6,0:0:0:0:
229,151,488917,1,0,0:0:0:0:
315,192,489136,1,8,0:0:0:0:
194,314,489356,5,6,0:0:0:0:
190,84,489575,1,0,0:0:0:0:
390,197,489794,1,0,0:0:0:0:
194,314,490014,1,8,0:0:0:0:
300,49,490233,5,6,0:0:0:0:
83,164,490452,1,0,0:0:0:0:
265,384,490671,5,6,0:0:0:0:
58,255,490891,1,2,0:0:0:0:
365,119,491110,5,6,0:0:0:0:
357,362,491329,1,6,0:0:0:0:
121,360,491548,1,0,0:0:0:0:
96,338,491658,1,0,0:0:0:0:
84,306,491768,2,0,P|73:258|82:211,1,95,6|0,0:0|0:0,0:0:0:0:
163,17,492206,6,0,L|262:22,1,95,6|2,0:0|0:0,0:0:0:0:
351,153,492645,1,8,0:0:0:0:
456,26,492864,1,0,0:0:0:0:
478,50,492974,1,2,0:0:0:0:
493,78,493083,1,2,0:0:0:0:
504,109,493193,1,0,0:0:0:0:
508,142,493303,2,0,P|507:186|480:243,2,95,2|8|0,0:0|0:0|0:0,0:0:0:0:
347,57,493961,6,0,L|250:61,1,95,6|2,0:0|0:0,0:0:0:0:
176,204,494399,1,8,0:0:0:0:
76,79,494618,1,0,0:0:0:0:
79,45,494728,1,2,0:0:0:0:
82,12,494838,1,2,0:0:0:0:
165,138,495057,1,2,0:0:0:0:
170,171,495167,1,0,0:0:0:0:
176,204,495276,1,8,0:0:0:0:
28,172,495496,1,0,0:0:0:0:
180,346,495715,6,0,P|229:355|278:340,1,95,6|0,0:0|0:0,0:0:0:0:
322,187,496153,1,8,0:0:0:0:
440,298,496373,1,0,0:0:0:0:
464,320,496482,1,2,0:0:0:0:
489,342,496592,1,2,0:0:0:0:
512,183,496811,2,0,P|520:137|506:81,1,95,2|8,0:0|0:0,0:0:0:0:
372,12,497250,6,0,L|267:18,1,95,0|2,0:0|0:0,0:0:0:0:
165,126,497688,1,2,0:0:0:0:
171,158,497798,1,0,0:0:0:0:
177,190,497908,1,8,0:0:0:0:
347,126,498127,1,2,0:0:0:0:
341,158,498237,1,0,0:0:0:0:
335,190,498346,6,0,B|346:266|304:338|304:338|310:293|294:264,1,213.750008153916,6|0,0:0|0:0,0:0:0:0:
211,279,498785,2,0,B|202:293|208:338|208:338|166:266|177:190,1,213.750008153916,6|0,0:0|0:0,0:0:0:0:
192,111,499223,5,6,0:0:0:0:
55,24,499443,1,2,0:0:0:0:
211,83,499662,2,0,L|310:79,1,95,8|0,0:0|0:0,0:0:0:0:
339,78,499991,1,2,0:0:0:0:
371,76,500100,1,2,0:0:0:0:
458,170,500320,1,2,0:0:0:0:
363,248,500539,1,8,0:0:0:0:
283,158,500758,1,0,0:0:0:0:
476,72,500978,5,2,0:0:0:0:
389,228,501197,1,2,0:0:0:0:
389,228,501307,1,2,0:0:0:0:
389,228,501416,1,8,0:0:0:0:
299,79,501635,2,0,L|246:67,1,47.5,0|2,0:0|0:0,0:0:0:0:
174,51,501855,2,0,P|128:52|84:86,1,95,2|2,0:0|0:0,0:0:0:0:
75,109,502184,1,2,0:0:0:0:
66,143,502293,6,0,P|64:201|99:156,1,142.500005435944,8|2,0:0|0:0,0:0:0:0:
283,158,502732,5,6,0:0:0:0:
341,237,502951,1,2,0:0:0:0:
248,246,503170,1,8,0:0:0:0:
279,84,503390,5,6,0:0:0:0:
407,273,503609,1,0,0:0:0:0:
186,287,503828,1,2,0:0:0:0:
279,84,504048,1,8,0:0:0:0:
277,348,504267,5,6,0:0:0:0:
64,229,504486,1,2,0:0:0:0:
361,52,504705,5,6,0:0:0:0:
364,295,504925,1,2,0:0:0:0:
58,136,505144,5,6,0:0:0:0:
267,10,505363,1,2,0:0:0:0:
237,247,505583,1,0,0:0:0:0:
132,32,505802,5,6,0:0:0:0:
267,10,506021,1,0,0:0:0:0:
58,136,506240,5,6,0:0:0:0:
94,281,506460,1,2,0:0:0:0:
94,281,506679,1,2,0:0:0:0:
323,146,506898,5,6,0:0:0:0:
197,52,507118,1,2,0:0:0:0:
197,52,507337,1,2,0:0:0:0:
251,292,507556,5,6,0:0:0:0:
256,192,507666,12,6,510845,0:0:0:0:
198,189,511174,6,0,P|251:117|308:201,1,213.750008153916,6|6,0:0|0:0,0:0:0:0:
255,353,511942,1,6,0:0:0:0:
60,157,519146,6,0,P|114:190|203:183,1,142.500005435944,2|0,0:0|0:0,0:0:0:0:
280,119,519708,1,2,0:3:0:0:
60,157,520083,2,0,P|26:170|-5:199,2,71.2500027179719,2|0|2,0:3|0:0|0:3,0:0:0:0:
142,214,520646,6,0,P|204:226|284:189,1,142.500005435944,2|0,0:3|0:0,0:3:0:0:
346,111,521208,1,2,0:3:0:0:
142,214,521583,2,0,P|114:237|95:275,2,71.2500027179719,2|0|2,0:3|0:0|0:3,0:0:0:0:
241,244,522146,1,0,0:0:0:0:
262,257,522239,1,0,0:0:0:0:
285,264,522333,6,0,P|332:269|394:240,2,106.875004076958,2|2|2,0:3|0:3|0:3,0:0:0:0:
227,170,523083,2,0,L|233:49,2,106.875004076958,2|2|2,0:3|0:3|0:3,0:0:0:0:
213,191,523739,5,0,0:0:0:0:
198,214,523833,2,0,B|205:271|205:271|189:338,2,106.875004076958,2|2|2,0:3|0:3|0:3,0:0:0:0:
183,193,524489,1,0,0:0:0:0:
163,177,524583,2,0,P|128:189|87:186,2,71.2500027179719,2|0|2,0:3|0:0|0:3,0:0:0:0:
251,114,525146,6,0,P|321:117|382:162,1,142.500005435944,2|0,0:3|0:0,0:0:0:0:
430,255,525708,1,2,0:3:0:0:
382,352,525896,1,0,0:0:0:0:
359,362,525989,1,0,0:0:0:0:
335,371,526083,2,0,L|254:365,1,71.2500027179719,2|0,0:3|0:0,0:0:0:0:
109,309,526458,1,8,0:0:0:0:
179,223,526646,6,0,P|189:157|159:73,1,142.500005435944,2|0,0:3|0:0,0:0:0:0:
75,23,527208,1,2,0:3:0:0:
4,105,527396,1,0,0:0:0:0:
2,129,527489,1,0,0:0:0:0:
4,153,527583,2,0,P|16:203|30:221,1,71.2500027179719,2|0,0:3|0:0,0:0:0:0:
133,282,527958,1,2,0:0:0:0:
175,280,528052,1,2,0:0:0:0:
217,277,528146,1,2,0:0:0:0:
259,275,528239,1,2,0:0:0:0:
301,273,528333,6,0,P|277:295|296:246,1,142.5,6|0,0:0|0:0,0:0:0:0:
362,216,528708,1,2,0:0:0:0:
398,349,528895,1,0,0:0:0:0:
171,335,529083,2,0,P|152:265|179:177,1,142.5,6|0,0:0|0:0,0:0:0:0:
232,144,529458,1,2,0:0:0:0:
362,216,529645,1,0,0:0:0:0:
394,220,529739,1,0,0:0:0:0:
426,214,529833,6,2,P|470:200|502:151,1,95,6|0,0:0|0:0,0:0:0:0:
410,37,530208,2,0,L|306:41,1,95,2|0,0:0|0:0,0:0:0:0:
228,144,530583,1,2,0:0:0:0:
181,30,530770,1,0,0:0:0:0:
302,45,530958,1,2,0:0:0:0:
193,243,531145,6,0,B|135:250|101:220|101:220|48:223|17:174,1,190,6|2,0:0|0:0,0:0:0:0:
101,26,531708,2,0,P|111:76|93:128,1,95,2|0,0:0|0:0,0:0:0:0:
22,277,532083,1,2,0:0:0:0:
146,258,532270,1,0,0:0:0:0:
64,163,532458,1,2,0:0:0:0:
212,362,532645,6,0,B|272:371|272:371|319:361|319:361|361:380|417:355,1,190,6|2,0:0|0:0,0:0:0:0:
434,195,533208,1,2,0:0:0:0:
505,288,533395,1,0,0:0:0:0:
501,321,533489,1,2,0:0:0:0:
498,354,533583,1,2,0:0:0:0:
387,293,533770,1,0,0:0:0:0:
497,231,533958,1,2,0:0:0:0:
498,354,534145,1,0,0:0:0:0:
302,210,534333,6,0,P|275:112|304:15,1,190,6|2,0:0|0:0,0:0:0:0:
399,117,534895,1,2,0:0:0:0:
221,250,535083,1,6,0:0:0:0:
41,114,535270,1,4,0:0:0:0:
228,1,535458,1,6,0:0:0:0:
51,199,535645,6,0,L|53:300,2,95,4|2|0,0:0|0:0|0:0,0:0:0:0:
108,90,536208,2,0,P|154:74|203:80,1,95,2|0,0:0|0:0,0:0:0:0:
229,92,536489,1,0,0:0:0:0:
251,116,536583,1,2,0:0:0:0:
306,229,536770,1,0,0:0:0:0:
381,132,536958,1,2,0:0:0:0:
108,90,537145,6,0,P|88:168|117:287,1,190,6|2,0:0|0:0,0:0:0:0:
241,348,537708,2,0,L|343:344,1,95,2|0,0:0|0:0,0:0:0:0:
369,343,537989,1,0,0:0:0:0:
402,342,538083,1,2,0:0:0:0:
421,221,538270,1,0,0:0:0:0:
512,307,538458,1,2,0:0:0:0:
241,348,538645,6,0,B|209:298|177:274|177:274|188:227|154:172,1,190,6|2,0:0|0:0,0:0:0:0:
19,137,539208,2,0,P|11:185|22:233,1,95,2|0,0:0|0:0,0:0:0:0:
38,257,539489,1,0,0:0:0:0:
67,272,539583,1,2,0:0:0:0:
188,243,539770,1,0,0:0:0:0:
102,149,539958,1,2,0:0:0:0:
67,272,540145,1,0,0:0:0:0:
160,245,540333,5,2,0:0:0:0:
48,305,540520,1,0,0:0:0:0:
190,255,540708,1,2,0:0:0:0:
31,342,540895,1,0,0:0:0:0:
226,269,541083,1,2,0:0:0:0:
0,203,541270,1,0,0:0:0:0:
210,370,541458,1,2,0:0:0:0:
261,69,541645,6,0,P|184:39|87:74,1,190,6|6,0:0|0:0,0:0:0:0:
0,203,542208,1,6,0:0:0:0:
74,269,542395,1,0,0:0:0:0:
89,279,542489,1,0,0:0:0:0:
104,289,542583,1,0,0:0:0:0:
193,247,542770,6,0,P|245:244|300:268,1,106.875004076958
346,341,543145,6,0,L|362:127,1,190,6|0,0:0|0:0,0:0:0:0:
256,36,543708,2,0,P|210:28|156:44,1,95,2|0,0:0|0:0,0:0:0:0:
64,156,544083,1,2,0:0:0:0:
214,159,544270,6,0,P|206:209|223:272,1,106.875004076958
330,316,544645,6,0,P|245:297|159:363,1,190,6|0,0:0|0:0,0:0:0:0:
39,266,545208,2,0,P|23:215|33:160,1,95,2|0,0:0|0:0,0:0:0:0:
114,49,545583,2,0,L|210:55,1,95,2|0,0:0|0:0,0:0:0:0:
324,62,545958,1,2,0:0:0:0:
243,142,546145,1,0,0:0:0:0:
314,11,546333,5,6,0:0:0:0:
355,169,546520,1,0,0:0:0:0:
231,67,546708,1,2,0:0:0:0:
394,76,546895,1,0,0:0:0:0:
254,160,547083,1,2,0:0:0:0:
369,267,547270,2,0,P|418:251|450:211,1,95,0|2,0:0|0:0,0:0:0:0:
394,76,547645,1,6,0:0:0:0:
254,160,547833,6,0,L|260:260,2,95,2|0|2,0:0|0:0|0:0,0:0:0:0:
122,25,548395,1,6,0:0:0:0:
289,84,548583,1,2,0:0:0:0:
155,195,548770,1,0,0:0:0:0:
138,52,548958,1,2,0:0:0:0:
266,98,549145,1,0,0:0:0:0:
96,273,549333,6,0,P|45:252|11:162,1,142.5,6|0,0:0|0:0,0:0:0:0:
29,92,549708,1,2,0:0:0:0:
182,35,549895,1,0,0:0:0:0:
269,172,550083,2,0,B|316:167|316:167|366:141,2,95,2|0|2,0:0|0:0|0:0,0:0:0:0:
182,35,550645,1,0,0:0:0:0:
0,170,550833,6,0,L|5:270,1,95,6|0,0:0|0:0,0:0:0:0:
128,348,551208,2,0,P|197:357|267:320,1,142.5,2|0,0:0|0:0,0:0:0:0:
293,298,551583,1,2,0:0:0:0:
310,259,551676,1,2,0:0:0:0:
314,216,551770,1,2,0:0:0:0:
302,174,551864,1,2,0:0:0:0:
268,146,551958,1,4,0:3:0:0:
226,138,552051,1,4,0:3:0:0:
193,165,552145,1,4,0:3:0:0:
185,207,552239,1,4,0:3:0:0:
206,243,552333,6,0,B|275:254|275:254|355:235,1,142.500005435944,6|0,0:0|0:0,0:0:0:0:
140,39,552708,2,0,B|71:28|71:28|-9:47,1,142.500005435944,6|0,0:0|0:0,0:0:0:0:
210,274,553083,2,0,B|279:269|279:269|353:232,1,142.500005435944,6|0,0:0|0:0,0:0:0:0:
135,7,553458,2,0,B|65:11|65:11|-8:48,1,142.500005435944,6|0,0:0|0:0,0:0:0:0:
3,215,553833,5,2,0:0:0:0:
14,255,553926,1,2,0:0:0:0:
38,289,554020,1,2,0:0:0:0:
74,311,554114,1,2,0:0:0:0:
116,315,554208,1,4,0:3:0:0:
157,306,554301,1,4,0:3:0:0:
199,307,554395,1,4,0:3:0:0:
238,322,554489,1,4,0:3:0:0:
266,353,554583,1,4,0:3:0:0:
345,220,554770,6,0,P|342:172|311:212,1,106.875004076958
297,277,555145,6,0,L|493:255,1,190,6|0,0:0|0:0,0:0:0:0:
506,104,555708,2,0,P|475:64|433:45,1,95,2|0,0:0|0:0,0:0:0:0:
281,34,556083,1,2,0:0:0:0:
218,171,556270,6,0,L|225:300,1,106.875004076958
324,340,556645,6,0,P|234:319|149:360,1,190,6|0,0:0|0:0,0:0:0:0:
35,244,557208,2,0,B|27:193|27:193|38:138,1,95,2|0,0:0|0:0,0:0:0:0:
156,43,557583,2,0,B|164:94|164:94|153:149,1,95,2|0,0:0|0:0,0:0:0:0:
35,244,557958,1,2,0:0:0:0:
126,329,558145,1,0,0:0:0:0:
230,153,558333,5,6,0:0:0:0:
114,252,558520,1,0,0:0:0:0:
257,263,558708,1,2,0:0:0:0:
301,127,558895,1,0,0:0:0:0:
302,349,559083,1,6,0:0:0:0:
149,254,559270,2,0,P|94:257|53:284,1,95,0|2,0:0|0:0,0:0:0:0:
302,349,559645,2,0,P|357:346|398:319,1,95,4|2,0:0|0:0,0:0:0:0:
217,134,560020,5,4,0:0:0:0:
60,276,560208,1,6,0:0:0:0:
16,75,560395,1,4,0:0:0:0:
217,134,560583,2,0,L|316:139,1,95,2|0,0:0|0:0,0:0:0:0:
490,66,560958,2,0,L|394:72,1,95,2|0,0:0|0:0,0:0:0:0:
332,219,561333,6,0,P|325:271|337:317,1,95,6|0,0:0|0:0,0:0:0:0:
217,134,561708,2,0,P|223:81|254:42,1,95,2|0,0:0|0:0,0:0:0:0:
332,219,562083,2,0,L|128:206,1,190,2|2,0:0|0:0,0:0:0:0:
64,78,562645,6,0,P|77:33|99:74,1,95,4|2,0:0|0:0,0:0:0:0:
122,220,563020,1,0,0:0:0:0:
0,117,563208,1,2,0:0:0:0:
158,128,563395,1,4,0:0:0:0:
46,242,563583,2,0,P|37:289|51:342,2,95,2|0|2,0:0|0:0|0:0,0:0:0:0:
158,128,564145,1,0,0:0:0:0:
269,238,564333,6,0,B|314:260|314:260|362:236|422:241,1,142.5,6|0,0:0|0:0,0:0:0:0:
484,252,564708,1,2,0:0:0:0:
367,351,564895,2,0,B|338:355|314:367|314:367|273:350,1,95,4|2,0:0|0:0,0:0:0:0:
167,235,565270,1,0,0:0:0:0:
271,112,565458,1,2,0:0:0:0:
443,241,565645,6,0,P|453:286|442:342,2,95,4|2|0,0:0|0:0|0:0,0:0:0:0:
347,132,566208,1,2,0:0:0:0:
167,235,566395,2,0,P|123:246|63:231,1,95,4|2,0:0|0:0,0:0:0:0:
25,28,566770,1,4,0:0:0:0:
246,16,566958,2,0,P|293:17|340:44,1,95,6|0,0:0|0:0,0:0:0:0:
433,246,567333,5,6,0:0:0:0:
488,20,567520,1,6,0:0:0:0:
488,20,567708,1,0,0:0:0:0:
276,107,567895,1,6,0:0:0:0:
489,361,568270,1,6,0:0:0:0:
489,361,568458,1,0,0:0:0:0:
489,139,568645,1,6,0:0:0:0:
332,274,568833,6,0,P|287:288|229:283,1,95
108,227,569208,2,0,B|96:185|96:185|103:76,1,142.5,2|0,0:0|0:0,0:0:0:0:
62,15,569583,2,0,P|93:52|150:62,1,95,2|0,0:0|0:0,0:0:0:0:
278,59,569958,2,0,P|324:47|361:13,1,95,2|0,0:0|0:0,0:0:0:0:
286,221,570333,5,6,0:0:0:0:
205,21,570520,1,6,0:0:0:0:
205,21,570708,1,0,0:0:0:0:
435,18,570895,2,0,P|445:67|436:119,1,95,6|0,0:0|0:0,0:0:0:0:
352,298,571270,1,6,0:0:0:0:
256,188,571458,1,2,0:0:0:0:
215,176,571551,1,2,0:0:0:0:
172,170,571645,1,2,0:0:0:0:
130,178,571739,1,2,0:0:0:0:
93,200,571833,6,0,L|100:299,1,95,2|0,0:0|0:0,0:0:0:0:
21,138,572208,2,0,L|28:39,1,95,2|0,0:0|0:0,0:0:0:0:
158,100,572583,2,0,P|247:125|345:92,1,190,2|2,0:0|0:0,0:0:0:0:
510,26,573145,6,0,P|519:71|509:126,1,95,6|2,0:0|0:0,0:0:0:0:
408,232,573520,2,0,P|399:187|409:132,1,95,0|2,0:0|0:0,0:0:0:0:
512,239,573895,1,0,0:0:0:0:
401,331,574083,2,0,B|360:332|325:345|325:345|290:304|213:300,1,190,2|0,0:0|0:0,0:0:0:0:
43,350,574645,6,2,P|33:302|41:249,1,95,6|2,0:0|0:0,0:0:0:0:
161,180,575020,2,0,L|255:186,1,95,0|2,0:0|0:0,0:0:0:0:
365,124,575395,1,0,0:0:0:0:
301,270,575583,2,0,B|216:267|216:267|194:278|194:278|93:271,1,190,2|2,0:0|0:0,0:0:0:0:
72,86,576145,6,0,P|103:47|151:34,1,95,6|2,0:0|0:0,0:0:0:0:
268,134,576520,2,0,B|235:145|235:145|163:140,1,95,0|2,0:0|0:0,0:0:0:0:
251,20,576895,1,0,0:0:0:0:
251,20,576989,1,2,0:0:0:0:
251,20,577083,1,2,0:0:0:0:
389,72,577270,1,2,0:0:0:0:
318,207,577458,2,0,B|255:234|255:234|157:226,1,142.5,2|0,0:0|0:0,0:0:0:0:
98,221,577833,5,6,0:0:0:0:
182,334,578020,2,0,P|230:343|278:331,1,95,0|2,0:0|0:0,0:0:0:0:
413,294,578395,2,0,B|420:255|420:255|416:188,1,95,0|2,0:0|0:0,0:0:0:0:
306,115,578770,1,0,0:0:0:0:
413,32,578958,2,0,P|458:21|513:33,1,95,2|0,0:0|0:0,0:0:0:0:
266,114,579333,6,0,P|221:125|166:113,1,95,6|0,0:0|0:0,0:0:0:0:
48,34,579708,1,2,0:0:0:0:
1,174,579895,2,0,P|-5:227|4:269,1,95,0|2,0:0|0:0,0:0:0:0:
19,296,580176,1,2,0:0:0:0:
46,314,580270,5,2,0:0:0:0:
183,247,580458,1,2,0:0:0:0:
224,236,580551,1,2,0:0:0:0:
266,238,580645,1,2,0:0:0:0:
304,257,580739,1,2,0:0:0:0:
332,289,580833,5,2,0:0:0:0:
397,33,581020,1,0,0:0:0:0:
181,163,581208,1,2,0:0:0:0:
429,192,581395,1,0,0:0:0:0:
233,30,581583,1,2,0:0:0:0:
311,262,581770,1,2,0:0:0:0:
311,262,581864,1,2,0:0:0:0:
311,262,581958,1,2,0:0:0:0:
479,23,582145,1,6,0:0:0:0:
256,192,582239,12,0,585333,0:0:0:0:
375,100,592495,6,0,P|339:88|311:14,1,106.875004076958,2|0,0:0|0:0,0:0:0:0:
381,28,593058,6,0,P|439:68|433:141,1,142.5,2|0,0:0|0:0,0:0:0:0:
416,160,593621,1,8,0:0:0:0:
385,174,593762,1,8,0:0:0:0:
351,175,593903,1,8,0:0:0:0:
319,164,594044,1,8,0:0:0:0:
293,142,594185,1,8,0:0:0:0:
269,118,594325,1,8,0:0:0:0:
239,102,594466,1,8,0:0:0:0:
205,98,594607,1,8,0:0:0:0:
174,111,594748,6,0,L|186:255,1,142.5,6|2,0:0|0:0,0:0:0:0:
193,334,595311,1,8,0:0:0:0:
328,245,595593,1,0,0:0:0:0:
401,282,595734,2,0,P|460:275|496:236,1,95,2|0,0:0|0:0,0:0:0:0:
506,175,596156,2,0,L|499:76,1,95,2|8,0:0|0:0,0:0:0:0:
340,59,596720,1,2,0:0:0:0:
318,84,596861,1,2,0:0:0:0:
288,99,597002,6,0,P|225:110|154:76,1,142.5,6|2,0:0|0:0,0:0:0:0:
105,14,597565,1,8,0:0:0:0:
11,144,597847,1,0,0:0:0:0:
89,165,597987,2,0,P|142:190|166:234,1,95,2|0,0:0|0:0,0:0:0:0:
166,301,598410,2,0,L|61:292,1,95,2|8,0:0|0:0,0:0:0:0:
11,143,598973,1,0,0:0:0:0:
26,113,599114,1,0,0:0:0:0:
55,97,599255,6,0,B|97:89|97:89|161:103|161:103|204:90,1,142.5,2|2,0:0|0:0,0:0:0:0:
273,65,599818,2,0,B|320:46|320:46|370:68|422:48,1,142.5,8|0,0:0|0:0,0:0:0:0:
489,17,600382,1,2,0:0:0:0:
493,50,600523,1,2,0:0:0:0:
497,83,600664,1,2,0:0:0:0:
507,243,600945,1,8,0:0:0:0:
375,87,601227,2,0,L|379:142,1,47.5,2|2,0:0|0:0,0:0:0:0:
386,214,601509,6,0,B|395:328|395:328|360:299,1,142.5,2|2,0:0|0:0,0:0:0:0:
307,265,602072,1,8,0:0:0:0:
163,338,602354,1,0,0:0:0:0:
130,332,602495,1,0,0:0:0:0:
103,312,602635,1,8,0:0:0:0:
134,276,602776,1,2,0:0:0:0:
145,229,602917,1,2,0:0:0:0:
135,182,603058,1,2,0:0:0:0:
110,141,603199,1,8,0:0:0:0:
230,32,603480,1,2,0:0:0:0:
265,63,603621,1,2,0:0:0:0:
282,107,603762,6,0,P|332:71|433:89,1,142.5,6|2,0:0|0:0,0:0:0:0:
485,105,604325,1,8,0:0:0:0:
446,261,604607,1,0,0:0:0:0:
414,249,604748,1,2,0:0:0:0:
380,245,604889,1,2,0:0:0:0:
347,252,605030,1,2,0:0:0:0:
319,270,605171,1,2,0:0:0:0:
461,347,605452,1,8,0:0:0:0:
484,186,605734,2,0,B|482:185|482:146|479:131,1,47.5,2|2,0:0|0:0,0:0:0:0:
473,58,606016,6,0,P|408:34|337:49,1,142.5,6|2,0:0|0:0,0:0:0:0:
275,101,606579,1,8,0:0:0:0:
419,193,606861,1,0,0:0:0:0:
452,189,607002,1,0,0:0:0:0:
484,186,607142,1,0,0:0:0:0:
275,101,607424,1,0,0:0:0:0:
191,54,608269,6,0,P|180:98|192:155,1,95,2|0,0:0|0:0,0:0:0:0:
262,239,608833,1,8,0:0:0:0:
347,163,609114,1,0,0:0:0:0:
371,160,609255,1,2,0:0:0:0:
395,164,609396,1,0,0:0:0:0:
417,175,609537,1,2,0:0:0:0:
434,193,609678,1,2,0:0:0:0:
463,310,609959,1,8,0:0:0:0:
345,340,610241,1,2,0:0:0:0:
324,325,610382,1,2,0:0:0:0:
300,317,610523,6,0,P|266:308|224:312,1,71.2500027179719,2|0,0:0|0:0,0:0:0:0:
111,324,611086,2,0,P|134:274|134:213,1,106.875004076958,8|0,0:0|0:0,0:0:0:0:
58,175,611649,6,0,P|133:181|189:137,1,142.5,8|0,0:0|0:0,0:0:0:0:
230,64,612213,6,0,P|247:100|287:134,1,71.2500027179719,8|0,0:0|0:0,0:0:0:0:
300,138,612635,1,2,0:0:0:0:
335,137,612776,6,0,P|287:166|267:253,1,142.5,6|2,0:0|0:0,0:0:0:0:
284,325,613340,1,8,0:0:0:0:
447,325,613621,1,0,0:0:0:0:
492,256,613762,2,0,B|503:216|503:216|497:154,1,95,2|0,0:0|0:0,0:0:0:0:
432,120,614185,2,0,P|471:91|522:90,1,95,2|8,0:0|0:0,0:0:0:0:
410,211,614748,5,2,0:0:0:0:
377,205,614889,1,2,0:0:0:0:
344,200,615030,5,6,0:0:0:0:
222,95,615311,2,0,L|173:101,2,47.5,0|2|8,0:0|0:0|0:0,0:0:0:0:
378,46,615875,2,0,P|404:47|424:56,1,47.5,0|2,0:0|0:0,0:0:0:0:
505,100,616156,2,0,P|491:122|473:134,1,47.5,2|2,0:0|0:0,0:0:0:0:
386,140,616438,1,2,0:0:0:0:
261,36,616720,1,8,0:0:0:0:
231,50,616861,1,2,0:0:0:0:
198,57,617002,1,0,0:0:0:0:
165,51,617142,1,0,0:0:0:0:
134,37,617283,6,0,P|118:93|147:181,1,142.5,2|2,0:0|0:0,0:0:0:0:
198,232,617847,1,8,0:0:0:0:
302,303,618128,1,0,0:0:0:0:
335,306,618269,1,2,0:0:0:0:
368,309,618410,1,2,0:0:0:0:
401,311,618551,1,2,0:0:0:0:
434,314,618692,1,2,0:0:0:0:
512,172,618973,1,8,0:0:0:0:
372,91,619255,2,0,P|346:107|332:131,1,47.5,2|2,0:0|0:0,0:0:0:0:
401,168,619537,6,0,L|239:155,1,142.5,2|0,0:0|0:0,0:0:0:0:
179,149,620100,1,8,0:0:0:0:
59,260,620382,1,0,0:0:0:0:
65,292,620523,1,0,0:0:0:0:
86,317,620664,2,0,P|127:341|189:344,1,95,8|0,0:0|0:0,0:0:0:0:
301,253,621227,1,8,0:0:0:0:
307,285,621368,1,0,0:0:0:0:
313,317,621509,1,2,0:0:0:0:
181,221,621790,6,0,P|165:151|186:72,1,142.5,6|2,0:0|0:0,0:0:0:0:
245,33,622354,2,0,B|320:19|320:19|391:36,1,142.5,8|2,0:0|0:0,0:0:0:0:
461,61,622917,1,0,0:0:0:0:
465,223,623199,2,0,P|477:243|485:271,2,47.5,0|2|8,0:0|0:0|0:0,0:0:0:0:
322,145,623762,2,0,P|295:143|274:145,1,47.5,2|2,0:0|0:0,0:0:0:0:
212,196,624044,6,0,B|173:209|173:209|65:195,1,142.5,6|2,0:0|0:0,0:0:0:0:
6,149,624607,1,8,0:0:0:0:
54,13,624889,1,0,0:0:0:0:
164,113,625171,2,0,P|202:116|231:107,1,47.5,0|2,0:0|0:0,0:0:0:0:
285,77,625452,1,2,0:0:0:0:
146,12,625734,2,0,P|116:18|92:36,1,47.5,8|0,0:0|0:0,0:0:0:0:
67,102,626016,1,2,0:0:0:0:
72,134,626156,1,2,0:0:0:0:
77,166,626297,5,2,0:0:0:0:
216,255,626579,1,0,0:0:0:0:
216,87,626861,1,8,0:0:0:0:
51,103,627142,1,0,0:0:0:0:
56,135,627283,1,0,0:0:0:0:
61,167,627424,5,2,0:0:0:0:
200,257,627706,1,0,0:0:0:0:
196,88,627987,1,8,0:0:0:0:
35,104,628269,1,2,0:0:0:0:
40,136,628410,1,2,0:0:0:0:
45,168,628551,5,2,0:0:0:0:
185,258,628833,1,0,0:0:0:0:
179,89,629114,1,8,0:0:0:0:
185,258,629396,1,0,0:0:0:0:
179,89,629678,1,8,0:0:0:0:
185,258,629959,1,0,0:0:0:0:
179,89,630241,1,8,0:0:0:0:
185,258,630523,2,0,P|180:287|171:306,1,47.5
103,344,630804,6,0,B|150:334|150:334|260:346,1,142.5,6|2,0:0|0:0,0:0:0:0:
324,353,631368,1,8,0:0:0:0:
443,256,631649,1,0,0:0:0:0:
371,217,631790,2,0,P|361:173|371:115,1,95,2|0,0:0|0:0,0:0:0:0:
408,54,632213,2,0,P|357:46|312:65,1,95,2|8,0:0|0:0,0:0:0:0:
177,142,632776,2,0,P|151:143|125:132,1,47.5,2|2,0:0|0:0,0:0:0:0:
71,82,633058,6,0,L|84:227,1,142.5,6|2,0:0|0:0,0:0:0:0:
91,305,633621,1,8,0:0:0:0:
248,336,633903,1,0,0:0:0:0:
190,280,634044,2,0,P|232:259|283:266,1,95,2|0,0:0|0:0,0:0:0:0:
330,326,634466,2,0,L|324:226,1,95,2|8,0:0|0:0,0:0:0:0:
174,174,635030,1,0,0:0:0:0:
140,174,635171,1,0,0:0:0:0:
109,185,635311,6,0,P|84:195|60:196,1,47.5,2|0,0:0|0:0,0:0:0:0:
70,116,635593,2,0,P|45:106|27:91,1,47.5,0|2,0:0|0:0,0:0:0:0:
93,41,635875,2,0,B|131:18|131:18|234:25,1,142.5,8|2,0:0|0:0,0:0:0:0:
308,30,636438,1,2,0:0:0:0:
388,181,636720,1,2,0:0:0:0:
422,15,637002,1,8,0:0:0:0:
298,160,637283,2,0,P|295:190|302:223,1,47.5,2|2,0:0|0:0,0:0:0:0:
361,256,637565,6,0,P|287:249|227:291,1,142.5,2|2,0:0|0:0,0:0:0:0:
180,345,638128,1,8,0:0:0:0:
336,374,638410,1,0,0:0:0:0:
368,367,638551,1,2,0:0:0:0:
400,360,638692,1,2,0:0:0:0:
482,222,638973,2,0,B|474:192|481:168|481:168|478:140|462:121,1,95,0|8,0:0|0:0,0:0:0:0:
466,31,639396,2,0,B|444:52|419:58|419:58|396:75|388:98,1,95
307,139,639818,6,0,B|336:147|354:165|354:165|380:176|404:172,1,95,6|0,0:0|0:0,0:0:0:0:
426,167,640241,1,2,0:0:0:0:
457,155,640382,2,0,P|470:205|462:253,1,95,8|0,0:0|0:0,0:0:0:0:
448,276,640804,1,2,0:0:0:0:
423,298,640945,1,2,0:0:0:0:
392,311,641086,1,2,0:0:0:0:
359,315,641227,2,0,P|331:317|302:306,1,47.5,2|0,0:0|0:0,0:0:0:0:
247,264,641509,1,8,0:0:0:0:
111,352,641790,1,2,0:0:0:0:
42,151,642072,6,0,B|29:110|34:77|34:77|58:50|116:46,1,142.5,6|2,0:0|0:0,0:0:0:0:
174,45,642635,1,8,0:0:0:0:
223,198,642917,2,0,L|217:254,1,47.5
209,326,643199,1,2,0:0:0:0:
407,213,643480,1,0,0:0:0:0:
407,213,644325,6,0,P|433:170|437:233,1,142.500005435944,2|0,0:0|0:0,0:0:0:0:
311,296,645171,1,2,0:0:0:0:
344,142,645452,2,0,B|376:96|424:91|424:91|378:41|307:71,1,213.750008153916,2|0,0:0|0:0,0:0:0:0:
231,218,646579,5,2,0:0:0:0:
238,260,646720,1,0,0:0:0:0:
246,302,646861,1,0,0:0:0:0:
114,156,647142,1,0,0:0:0:0:
107,198,647283,1,0,0:0:0:0:
100,240,647424,1,0,0:0:0:0:
275,58,647706,5,0,0:0:0:0:
309,193,647987,1,2,0:0:0:0:
150,12,648269,1,6,0:0:0:0:
114,156,648551,1,6,0:0:0:0:
255,192,655764,5,6,0:0:0:0:
333,173,657076,5,6,0:0:0:0:
408,156,657826,5,8,0:0:0:0:
440,148,657920,1,2,0:0:0:0:
472,139,658014,1,2,0:0:0:0:
308,130,658201,1,2,0:0:0:0:
431,239,658389,1,2,0:0:0:0:
396,72,658576,1,2,0:0:0:0:
332,228,658764,5,6,0:0:0:0:
55,69,659139,1,2,0:0:0:0:
55,69,659326,1,2,0:0:0:0:
0,170,659514,1,8,0:0:0:0:
61,350,659701,1,6,0:0:0:0:
512,210,660076,1,6,0:0:0:0:
382,97,660264,6,0,P|334:90|284:112,1,95,0|2,0:0|0:0,0:0:0:0:
234,243,660639,1,0,0:0:0:0:
234,243,660826,2,0,L|336:239,1,95,2|0,0:0|0:0,0:0:0:0:
438,165,661201,1,2,0:0:0:0:
388,323,661389,1,0,0:0:0:0:
140,325,661576,6,0,P|112:226|151:130,1,190,6|0,0:0|0:0,0:0:0:0:
249,78,662139,1,8,0:0:0:0:
118,2,662326,1,0,0:0:0:0:
19,112,662514,2,0,L|23:213,1,95,2|0,0:0|0:0,0:0:0:0:
40,25,662889,1,8,0:0:0:0:
138,146,663076,6,0,P|182:165|236:157,1,95,0|2,0:0|0:0,0:0:0:0:
388,143,663451,1,0,0:0:0:0:
249,78,663639,1,8,0:0:0:0:
315,181,663826,1,0,0:0:0:0:
315,22,664014,1,2,0:0:0:0:
227,160,664201,1,0,0:0:0:0:
379,227,664389,1,8,0:0:0:0:
249,78,664576,6,0,P|186:85|151:198,1,190,6|0,0:0|0:0,0:0:0:0:
227,329,665139,2,0,L|322:325,1,95,8|0,0:0|0:0,0:0:0:0:
379,227,665514,1,2,0:0:0:0:
452,361,665701,1,0,0:0:0:0:
508,221,665889,1,8,0:0:0:0:
388,311,666076,1,0,0:0:0:0:
326,162,666264,6,0,P|316:119|328:64,1,95,2|0,0:0|0:0,0:0:0:0:
508,221,666639,2,0,P|518:264|506:319,1,95,8|0,0:0|0:0,0:0:0:0:
354,381,667014,1,2,0:0:0:0:
377,209,667201,1,0,0:0:0:0:
452,361,667389,1,8,0:0:0:0:
398,186,667576,1,0,0:0:0:0:
270,332,667764,6,0,L|122:327,1,142.500005435944,6|0,0:0|0:0,0:0:0:0:
48,112,668139,2,0,P|31:184|53:254,1,142.500005435944,6|0,0:0|0:0,0:0:0:0:
216,122,668514,1,6,0:0:0:0:
54,8,668701,1,6,0:0:0:0:
151,253,668889,1,6,0:0:0:0:
284,25,669076,1,6,0:0:0:0:
350,186,669264,5,2,0:0:0:0:
256,192,669357,12,6,670764,0:0:0:0:
64,58,671139,5,6,0:0:0:0:
255,363,671514,1,6,0:0:0:0:
448,58,671889,1,6,0:0:0:0:
64,58,672264,6,0,L|75:201,1,142.500005435944,4|0,0:0|0:0,0:0:0:0:
152,272,672826,2,0,P|204:274|278:217,1,142.500005435944,2|2,0:3|0:3,0:0:0:0:
211,138,673389,1,0,0:0:0:0:
316,127,673576,1,2,0:3:0:0:
148,71,673764,6,0,L|159:214,1,142.500005435944
236,285,674326,2,0,P|288:287|362:230,1,142.500005435944,2|2,0:3|0:3,0:0:0:0:
295,151,674889,1,0,0:0:0:0:
400,140,675076,1,2,0:3:0:0:
459,365,675264,6,0,L|310:359,1,142.500005435944
236,285,675826,2,0,P|178:266|97:302,1,142.500005435944,2|2,0:3|0:3,0:0:0:0:
30,369,676389,1,0,0:0:0:0:
0,265,676576,1,2,0:3:0:0:
236,368,676764,6,0,B|278:378|278:378|394:366,1,142.500005435944,6|0,0:0|0:0,0:0:0:0:
502,221,677326,1,0,0:0:0:0:
502,221,677420,1,0,0:0:0:0:
502,221,677514,2,0,B|460:211|460:211|344:223,1,142.500005435944,6|0,0:0|0:0,0:0:0:0:
188,79,678264,6,0,L|336:68,1,142.5,6|0,0:0|0:0,0:0:0:0:
385,9,678639,1,8,0:0:0:0:
496,128,678826,2,0,P|507:174|499:229,1,95,0|2,0:0|0:0,0:0:0:0:
400,322,679201,1,0,0:0:0:0:
348,190,679389,1,8,0:0:0:0:
255,298,679576,1,0,0:0:0:0:
113,104,679764,6,0,L|261:93,1,142.5,2|0,0:0|0:0,0:0:0:0:
310,34,680139,1,8,0:0:0:0:
421,153,680326,2,0,P|432:199|424:254,1,95,0|2,0:0|0:0,0:0:0:0:
272,373,680701,1,0,0:0:0:0:
209,153,680889,1,8,0:0:0:0:
50,323,681076,1,0,0:0:0:0:
192,284,681264,6,0,P|172:238|122:200,1,95,2|0,0:0|0:0,0:0:0:0:
50,323,681639,1,8,0:0:0:0:
177,377,681826,2,0,L|281:372,1,95,0|2,0:0|0:0,0:0:0:0:
349,252,682201,1,0,0:0:0:0:
439,368,682389,1,8,0:0:0:0:
436,141,682576,5,6,0:0:0:0:
177,377,682951,1,2,0:0:0:0:
125,41,683326,1,2,0:0:0:0:
21,199,683514,1,8,0:0:0:0:
0,66,683701,1,0,0:0:0:0:
0,66,683795,1,2,0:0:0:0:
0,66,683889,1,2,0:0:0:0:
142,155,684076,1,2,0:0:0:0:
142,155,684170,1,2,0:0:0:0:
142,155,684264,6,0,L|289:146,1,142.5,6|0,0:0|0:0,0:0:0:0:
356,184,684639,1,8,0:0:0:0:
476,74,684826,2,0,P|487:120|479:168,1,95,0|2,0:0|0:0,0:0:0:0:
425,301,685201,1,0,0:0:0:0:
326,191,685389,1,8,0:0:0:0:
267,323,685576,1,0,0:0:0:0:
143,93,685764,6,0,L|290:84,1,142.5,2|0,0:0|0:0,0:0:0:0:
357,122,686139,1,8,0:0:0:0:
477,12,686326,2,0,P|488:58|480:106,1,95,0|2,0:0|0:0,0:0:0:0:
426,239,686701,1,0,0:0:0:0:
327,129,686889,1,8,0:0:0:0:
268,261,687076,1,0,0:0:0:0:
119,24,687264,6,0,L|127:175,1,142.5,2|0,0:0|0:0,0:0:0:0:
90,238,687639,1,8,0:0:0:0:
197,354,687826,2,0,P|245:355|291:327,1,95,0|2,0:0|0:0,0:0:0:0:
234,198,688201,1,0,0:0:0:0:
369,154,688389,1,8,0:0:0:0:
418,289,688576,1,0,0:0:0:0:
234,198,688764,6,0,P|223:152|233:98,1,95,6|0,0:0|0:0,0:0:0:0:
332,6,689139,1,8,0:0:0:0:
504,113,689326,1,2,0:3:0:0:
504,113,689420,1,2,0:3:0:0:
504,113,689514,2,0,P|515:159|505:213,1,95,6|0,0:0|0:0,0:0:0:0:
266,297,689889,2,0,P|312:287|358:298,1,95,12|0,0:0|0:0,0:0:0:0:
83,360,690264,6,0,L|87:213,1,142.5,4|0,0:0|0:0,0:0:0:0:
61,141,690639,5,8,0:0:0:0:
200,57,690826,2,2,P|245:63|287:104,1,95,0|2,0:0|0:0,0:0:0:0:
359,209,691201,1,0,0:0:0:0:
221,221,691389,1,8,0:0:0:0:
300,335,691576,1,0,0:0:0:0:
38,320,691764,6,0,L|42:173,1,142.5,2|0,0:0|0:0,0:0:0:0:
0,108,692139,1,8,0:0:0:0:
139,24,692326,2,0,P|184:30|226:71,1,95,0|2,0:0|0:0,0:0:0:0:
357,208,692701,1,0,0:0:0:0:
143,219,692889,1,8,0:0:0:0:
285,375,693076,1,0,0:0:0:0:
433,250,693264,6,0,P|440:201|427:154,1,95,2|0,0:0|0:0,0:0:0:0:
267,117,693639,1,8,0:0:0:0:
277,280,693826,2,0,L|285:377,2,95,0|2|0,0:0|0:0|0:0,0:0:0:0:
181,141,694389,1,8,0:0:0:0:
345,121,694576,1,0,0:0:0:0:
192,302,694764,6,0,P|144:306|98:288,1,95,6|0,0:0|0:0,0:0:0:0:
0,190,695139,1,8,0:0:0:0:
152,21,695326,1,2,0:3:0:0:
152,21,695420,1,2,0:3:0:0:
152,21,695514,2,0,P|200:17|246:35,1,95,6|0,0:0|0:0,0:0:0:0:
315,204,695889,1,12,0:0:0:0:
433,55,696076,1,8,0:0:0:0:
433,55,696170,1,8,0:0:0:0:
433,55,696264,6,0,L|426:201,1,142.5,6|0,0:0|0:0,0:0:0:0:
471,266,696639,1,8,0:0:0:0:
315,284,696826,2,0,P|271:267|235:221,1,95,0|2,0:0|0:0,0:0:0:0:
219,102,697201,1,0,0:0:0:0:
337,164,697389,1,8,0:0:0:0:
474,54,697576,1,2,0:3:0:0:
474,54,697670,1,2,0:3:0:0:
474,54,697764,6,0,L|467:200,1,142.5,2|0,0:0|0:0,0:0:0:0:
512,265,698139,1,8,0:0:0:0:
356,283,698326,2,0,P|312:266|276:220,1,95,0|2,0:0|0:0,0:0:0:0:
260,101,698701,1,0,0:0:0:0:
378,163,698889,1,8,0:0:0:0:
354,32,699076,1,0,0:0:0:0:
155,37,699264,6,0,P|136:101|160:178,1,142.5,2|0,0:0|0:0,0:0:0:0:
222,220,699639,1,8,0:0:0:0:
378,163,699826,2,0,L|481:166,2,95,0|2|0,0:0|0:0|0:0,0:0:0:0:
317,244,700389,1,8,0:0:0:0:
260,101,700576,1,0,0:0:0:0:
91,209,700764,6,0,P|85:259|97:312,1,95,6|0,0:0|0:0,0:0:0:0:
202,382,701139,1,8,0:0:0:0:
417,304,701326,1,2,0:3:0:0:
417,304,701420,1,2,0:3:0:0:
417,304,701514,2,0,P|423:254|411:201,1,95,6|0,0:0|0:0,0:0:0:0:
260,101,701889,2,0,L|160:105,1,95,12|0,0:0|0:0,0:0:0:0:
85,307,702264,6,0,L|78:158,1,142.5,6|0,0:0|0:0,0:0:0:0:
29,99,702639,1,8,0:0:0:0:
179,58,702826,2,0,P|224:68|262:105,1,95,0|2,0:0|0:0,0:0:0:0:
170,214,703201,1,0,0:0:0:0:
308,243,703389,1,8,0:0:0:0:
214,351,703576,1,0,0:0:0:0:
57,253,703764,6,0,L|50:104,1,142.5,2|0,0:0|0:0,0:0:0:0:
1,45,704139,1,8,0:0:0:0:
149,10,704326,2,0,P|194:20|232:57,1,95,0|2,0:0|0:0,0:0:0:0:
120,182,704701,1,0,0:0:0:0:
330,246,704889,1,8,0:0:0:0:
155,379,705076,1,0,0:0:0:0:
377,372,705264,6,0,P|419:352|451:312,1,95,2|0,0:0|0:0,0:0:0:0:
455,178,705639,1,8,0:0:0:0:
330,246,705826,2,0,P|278:239|243:211,2,95,0|2|0,0:0|0:0|0:0,0:0:0:0:
399,131,706389,1,8,0:0:0:0:
441,268,706576,1,0,0:0:0:0:
495,95,706764,5,6,0:0:0:0:
318,164,706951,1,2,0:3:0:0:
285,157,707045,1,2,0:3:0:0:
258,136,707139,2,0,P|248:91|257:39,1,95,8|0,0:0|0:0,0:0:0:0:
455,178,707514,1,6,0:0:0:0:
363,273,707701,1,2,0:3:0:0:
363,273,707795,1,2,0:3:0:0:
363,273,707889,2,0,L|258:270,1,95,8|0,0:0|0:0,0:0:0:0:
68,185,708264,6,0,L|229:193,1,142.5,6|0,0:0|0:0,0:0:0:0:
286,164,708639,1,8,0:0:0:0:
360,292,708826,1,0,0:0:0:0:
354,324,708920,1,0,0:0:0:0:
349,357,709014,1,0,0:0:0:0:
242,255,709201,1,0,0:0:0:0:
152,376,709389,1,8,0:0:0:0:
47,275,709576,1,0,0:0:0:0:
129,145,709764,6,0,L|290:153,1,142.5,2|0,0:0|0:0,0:0:0:0:
347,124,710139,1,8,0:0:0:0:
421,252,710326,1,0,0:0:0:0:
415,284,710420,1,2,0:0:0:0:
410,317,710514,1,2,0:0:0:0:
303,215,710701,1,0,0:0:0:0:
217,335,710889,1,8,0:0:0:0:
108,235,711076,1,0,0:0:0:0:
210,106,711264,6,0,L|360:115,1,142.5,2|0,0:0|0:0,0:0:0:0:
411,173,711639,1,8,0:0:0:0:
478,37,711826,2,0,P|434:20|388:26,2,95,0|2|0,0:0|0:0|0:0,0:0:0:0:
411,173,712389,1,8,0:0:0:0:
318,58,712576,1,0,0:0:0:0:
171,199,712764,6,0,L|179:300,1,95,6|0,0:0|0:0,0:0:0:0:
46,350,713139,1,8,0:0:0:0:
116,121,713326,1,2,0:3:0:0:
116,121,713420,1,2,0:3:0:0:
116,121,713514,2,0,P|158:106|207:113,1,95,6|0,0:0|0:0,0:0:0:0:
420,125,713889,1,12,0:0:0:0:
242,12,714076,1,2,0:0:0:0:
420,125,714264,6,0,L|413:271,1,142.5,6|0,0:0|0:0,0:0:0:0:
451,340,714639,1,8,0:0:0:0:
300,360,714826,2,0,P|250:356|211:323,1,95,0|2,0:0|0:0,0:0:0:0:
145,202,715201,1,0,0:0:0:0:
287,209,715389,1,8,0:0:0:0:
194,96,715576,1,0,0:0:0:0:
481,142,715764,6,0,L|476:247,1,95,2|8,0:0|0:0,0:0:0:0:
476,251,716045,1,8,0:0:0:0:
472,269,716139,1,8,0:0:0:0:
463,288,716232,1,8,0:0:0:0:
451,308,716326,1,8,0:0:0:0:
431,326,716420,1,8,0:0:0:0:
405,339,716514,1,8,0:0:0:0:
372,345,716607,1,8,0:0:0:0:
334,343,716701,1,8,0:0:0:0:
293,330,716795,1,8,0:0:0:0:
259,296,716889,1,8,0:0:0:0:
234,253,716982,1,8,0:0:0:0:
232,200,717076,1,8,0:0:0:0:
254,150,717170,1,8,0:0:0:0:
287,110,717264,6,0,B|326:123|356:111|356:111|391:95|438:112,1,142.500005435944,6|0,0:0|0:0,0:0:0:0:
121,180,718014,2,0,P|102:116|122:36,1,142.500005435944,6|0,0:0|0:0,0:0:0:0:
477,39,718764,5,6,0:0:0:0:
125,191,719139,1,8,0:0:0:0:
477,345,719514,1,2,0:0:0:0:
254,36,719889,1,8,0:0:0:0:
35,345,720264,5,2,0:0:0:0:
390,192,720639,1,8,0:0:0:0:
35,39,721014,1,2,0:0:0:0:
148,133,721201,2,0,P|199:135|245:111,1,95,0|8,0:0|0:0,0:0:0:0:
330,8,721576,1,0,0:0:0:0:
477,39,721764,5,2,0:0:0:0:
255,336,722139,1,8,0:0:0:0:
35,39,722514,1,2,0:0:0:0:
160,149,722701,2,0,P|211:151|257:127,1,95,0|8,0:0|0:0,0:0:0:0:
376,26,723076,6,0,L|383:121,1,95,0|2,0:0|0:0,0:0:0:0:
477,39,723451,1,0,0:0:0:0:
280,56,723639,1,8,0:0:0:0:
485,363,724014,1,2,0:0:0:0:
132,207,724389,1,8,0:0:0:0:
477,39,724764,5,2,0:0:0:0:
306,370,725139,1,8,0:0:0:0:
100,57,725514,1,2,0:0:0:0:
215,160,725701,1,0,0:0:0:0:
59,145,725889,1,8,0:0:0:0:
195,66,726076,1,0,0:0:0:0:
132,207,726264,5,2,0:0:0:0:
478,73,726639,1,8,0:0:0:0:
361,161,726826,2,0,P|355:208|369:264,1,95,0|2,0:0|0:0,0:0:0:0:
476,362,727201,1,2,0:0:0:0:
476,362,727295,1,2,0:0:0:0:
476,362,727389,1,8,0:0:0:0:
447,208,727576,1,0,0:0:0:0:
267,286,727764,5,2,0:3:0:0:
244,293,727857,1,2,0:3:0:0:
220,297,727951,1,2,0:3:0:0:
196,296,728045,1,2,0:3:0:0:
172,291,728139,1,2,0:3:0:0:
150,282,728232,1,2,0:3:0:0:
129,269,728326,1,2,0:3:0:0:
113,250,728420,1,2,0:3:0:0:
100,229,728514,2,0,L|110:132,1,95,2|0,0:0|0:0,0:0:0:0:
239,28,728889,2,0,L|249:128,1,95,8|0,0:0|0:0,0:0:0:0:
298,306,729264,5,4,0:0:0:0:
318,318,729357,1,2,0:3:0:0:
341,324,729451,2,0,P|367:327|394:319,1,47.5,2|0,0:3|0:0,0:0:0:0:
377,187,729639,5,6,0:0:0:0:
394,171,729732,1,2,0:3:0:0:
407,151,729826,2,0,P|418:128|419:99,1,47.5,2|0,0:3|0:0,0:0:0:0:
289,75,730014,5,6,0:0:0:0:
279,53,730107,1,2,0:3:0:0:
264,35,730201,2,0,P|245:17|219:8,1,47.5,2|0,0:3|0:0,0:0:0:0:
155,123,730389,5,6,0:0:0:0:
131,126,730482,1,2,0:3:0:0:
109,135,730576,2,0,P|86:148|69:170,1,47.5,2|0,0:3|0:3,0:3:0:0:
153,267,730764,5,6,0:0:0:0:
256,192,730857,12,0,733764,0:0:0:0:
170,270,743416,6,0,B|157:215|157:215|171:112,1,142.5,6|0,0:0|0:0,0:0:0:0:
160,8,743753,2,0,P|194:60|276:71,1,142.5,6|0,0:0|0:0,0:0:0:0:
374,49,744090,2,0,B|428:47|428:47|448:93|498:102|498:102|517:155,1,190,6|8,0:0|0:0,0:0:0:0:
447,283,744595,1,0,0:0:0:0:
237,254,744764,6,0,B|223:215|223:215|230:138,1,106.875004076958,2|0,0:0|0:0,0:0:0:0:
194,81,745101,2,0,P|232:109|307:107,1,106.875004076958,8|0,0:0|0:0,0:0:0:0:
366,93,745438,2,0,B|405:84|405:84|424:114|457:119|457:119|461:173,1,142.500005435944,2|8,0:0|0:0,0:0:0:0:
429,319,745943,1,0,0:0:0:0:
266,349,746112,6,0,L|104:337,1,142.5,2|0,0:0|0:0,0:0:0:0:
13,371,746449,2,0,B|34:320|34:320|26:215,1,142.5,8|0,0:0|0:0,0:0:0:0:
0,122,746786,2,0,P|14:59|136:23,1,190,6|8,0:0|0:0,0:0:0:0:
257,125,747292,1,0,0:0:0:0:
214,287,747460,6,0,L|81:277,1,106.875004076958,2|0,0:0|0:0,0:0:0:0:
21,271,747797,2,0,B|42:236|42:236|40:150,1,106.875004076958,8|0,0:0|0:0,0:0:0:0:
0,101,748134,2,0,P|26:33|92:12,1,142.500005435944,2|8,0:0|0:0,0:0:0:0:
254,97,748640,1,0,0:0:0:0:
424,11,748809,6,0,P|488:35|512:101,1,142.500005435944,2|0,0:0|0:0,0:0:0:0:
450,209,749146,2,0,B|393:201|393:201|362:215|362:215|293:208,1,142.5,8|0,0:0|0:0,0:0:0:0:
209,262,749483,2,0,B|187:216|205:165|205:165|222:121|200:62,1,190,6|8,0:0|0:0,0:0:0:0:
344,8,749988,1,0,0:0:0:0:
464,101,750157,6,0,P|494:135|500:195,1,106.875004076958,2|0,0:0|0:0,0:0:0:0:
448,263,750494,2,0,B|407:259|407:259|382:268|382:268|327:262,1,106.875004076958,8|0,0:0|0:0,0:0:0:0:
270,308,750831,2,0,B|254:266|268:234|268:234|280:205|268:163,1,142.500005435944,2|8,0:0|0:0,0:0:0:0:
186,34,751337,1,0,0:0:0:0:
49,118,751505,6,0,L|56:264,1,142.5,2|0,0:0|0:0,0:0:0:0:
104,330,751842,2,0,P|161:348|254:311,1,142.5,8|0,0:0|0:0,0:0:0:0:
303,276,752179,6,0,B|346:258|346:258|453:272|453:272|490:304,1,190,6|8,0:0|0:0,0:0:0:0:
242,12,752854,2,0,B|235:47|235:47|276:146|276:146|314:175,1,190,2|8,0:0|0:0,0:0:0:0:
116,353,753528,2,0,B|150:341|150:341|216:256|216:256|222:210,1,190,6|8,0:0|0:0,0:0:0:0:
39,31,754202,1,8,0:0:0:0:
37,64,754286,1,8,0:0:0:0:
35,97,754370,1,8,0:0:0:0:
33,130,754455,1,8,0:0:0:0:
31,163,754539,1,8,0:0:0:0:
150,71,754707,1,2,0:0:0:0:
240,250,754876,6,0,L|341:245,1,95,6|0,0:0|0:0,0:0:0:0:
503,120,755213,2,0,L|403:114,1,95,8|0,0:0|0:0,0:0:0:0:
417,348,755550,2,0,P|449:315|459:253,1,95,2|0,0:0|0:0,0:0:0:0:
283,170,755887,2,0,P|251:203|241:265,1,95,8|0,0:0|0:0,0:0:0:0:
417,348,756224,6,0,L|516:342,1,95,2|0,0:0|0:0,0:0:0:0:
239,249,756561,2,0,L|140:255,1,95,8|0,0:0|0:0,0:0:0:0:
30,77,756898,2,0,B|21:113|21:113|27:186,1,95,2|0,0:0|0:0,0:0:0:0:
234,105,757236,2,0,B|243:69|243:69|237:-4,1,95,8|0,0:0|0:0,0:0:0:0:
421,176,757573,6,0,P|473:176|526:149,1,95,6|0,0:0|0:0,0:0:0:0:
314,131,757910,2,0,P|306:182|318:234,1,95,8|0,0:0|0:0,0:0:0:0:
447,344,758247,2,0,P|395:333|361:299,1,95,6|0,0:0|0:0,0:0:0:0:
178,221,758584,2,0,L|72:226,1,95,8|0,0:0|0:0,0:0:0:0:
256,48,758921,6,0,B|316:40|316:40|386:56|386:56|446:47,1,190,6|8,0:0|0:0,0:0:0:0:
243,355,759595,2,0,P|194:358|148:336,1,95,2|2,0:0|0:0,0:0:0:0:
127,318,759848,1,2,0:0:0:0:
110,289,759932,1,2,0:0:0:0:
105,256,760016,1,2,0:0:0:0:
109,222,760101,1,2,0:0:0:0:
275,141,760269,6,0,B|284:175|284:175|279:252,1,95,6|0,0:0|0:0,0:0:0:0:
133,125,760606,2,0,P|82:123|41:146,1,95,8|0,0:0|0:0,0:0:0:0:
35,343,760943,2,0,L|41:247,1,95,2|0,0:0|0:0,0:0:0:0:
201,320,761281,2,0,B|238:331|238:331|311:324,1,95,8|0,0:0|0:0,0:0:0:0:
492,143,761618,6,2,P|414:133|343:178,1,142.5,6|2,0:0|0:0,0:0:0:0:
298,215,761955,2,0,B|241:220|241:220|204:209,1,95,8|0,0:0|0:0,0:0:0:0:
13,126,762292,2,2,P|91:136|162:91,1,142.5,6|2,0:0|0:0,0:0:0:0:
207,54,762629,2,0,B|263:48|263:48|300:59,1,95,8|0,0:0|0:0,0:0:0:0:
408,224,762966,5,8,0:0:0:0:
430,31,763134,1,2,0:0:0:0:
430,31,763219,1,2,0:0:0:0:
430,31,763303,1,8,0:0:0:0:
295,175,763472,1,2,0:0:0:0:
489,132,763640,1,8,0:0:0:0:
489,132,763724,1,2,0:0:0:0:
274,345,763977,2,0,P|224:352|181:338,1,95,8|2,0:0|0:0,0:0:0:0:
153,321,764230,1,2,0:0:0:0:
133,293,764314,5,6,0:0:0:0:
295,175,764483,1,8,0:0:0:0:
71,177,764651,1,8,0:0:0:0:
37,177,764736,1,8,0:0:0:0:
3,178,764820,1,8,0:0:0:0:
136,16,764988,1,8,0:0:0:0:
136,16,765073,1,8,0:0:0:0:
136,16,765157,1,8,0:0:0:0:
136,16,765241,1,8,0:0:0:0:
136,16,765325,1,8,0:0:0:0:
10,79,765494,1,2,0:0:0:0:
245,191,765663,6,0,P|329:207|423:157,1,190,6|8,0:0|0:0,0:0:0:0:
306,66,766168,1,0,0:0:0:0:
244,191,766337,6,0,L|252:317,1,106.875004076958,2|0,0:0|0:0,0:0:0:0:
315,346,766674,2,0,P|261:332|194:352,1,106.875004076958,8|0,0:0|0:0,0:0:0:0:
140,371,767011,2,0,B|100:375|100:375|39:352|34:290,1,142.500005435944,2|8,0:0|0:0,0:0:0:0:
45,157,767516,1,0,0:0:0:0:
186,224,767685,6,0,B|225:230|250:257|250:257|290:270|330:242,1,142.5,2|0,0:0|0:0,0:0:0:0:
388,174,768022,2,0,P|391:226|310:246,1,142.5,8|0,0:0|0:0,0:0:0:0:
246,149,768359,2,0,B|206:126|206:126|157:151|103:131|103:131|71:166,1,190,6|8,0:0|0:0,0:0:0:0:
40,299,768865,1,0,0:0:0:0:
189,334,769033,6,0,B|221:335|244:352|244:352|271:361|306:344,1,106.875004076958,2|0,0:0|0:0,0:0:0:0:
369,302,769370,2,0,P|347:342|269:335,1,106.875004076958,8|0,0:0|0:0,0:0:0:0:
258,272,769707,2,0,B|234:247|234:247|195:262|152:253|152:253|129:282,1,142.500005435944,2|8,0:0|0:0,0:0:0:0:
253,139,770213,1,0,0:0:0:0:
119,45,770382,6,0,P|46:51|-5:112,1,142.5,2|0,0:0|0:0,0:0:0:0:
53,198,770719,2,0,P|126:192|177:131,1,142.5,8|0,0:0|0:0,0:0:0:0:
261,66,771056,2,0,B|285:208|285:208|308:153,1,190,6|8,0:0|0:0,0:0:0:0:
356,15,771561,1,0,0:0:0:0:
178,20,771730,6,0,P|123:24|78:75,1,106.875004076958,2|0,0:0|0:0,0:0:0:0:
123,136,772067,2,0,P|178:132|223:81,1,106.875004076958,8|0,0:0|0:0,0:0:0:0:
287,52,772404,2,0,B|304:155|304:155|333:118,1,142.500005435944,2|8,0:0|0:0,0:0:0:0:
424,13,772910,1,0,0:0:0:0:
475,141,773078,6,0,P|493:195|473:294,1,142.5,2|0,0:0|0:0,0:0:0:0:
412,324,773415,2,0,B|358:318|358:318|315:329|315:329|260:321,1,142.5,8|0,0:0|0:0,0:0:0:0:
194,301,773752,6,0,B|103:338|103:338|93:240,1,190,6|8,0:0|0:0,0:0:0:0:
303,54,774427,2,0,B|219:16|219:16|205:113,1,190,2|8,0:0|0:0,0:0:0:0:
382,337,775101,2,0,B|456:283|456:283|378:222,1,190,6|8,0:0|0:0,0:0:0:0:
56,220,775775,1,8,0:0:0:0:
58,186,775859,1,8,0:0:0:0:
61,153,775943,1,8,0:0:0:0:
64,119,776028,1,8,0:0:0:0:
67,86,776112,1,8,0:0:0:0:
148,173,776281,1,2,0:0:0:0:
222,30,776449,6,0,L|319:35,1,95,6|0,0:0|0:0,0:0:0:0:
507,138,776786,2,0,L|405:146,1,95,8|0,0:0|0:0,0:0:0:0:
198,248,777123,2,0,L|295:253,1,95,2|0,0:0|0:0,0:0:0:0:
483,356,777460,2,0,L|381:364,1,95,8|0,0:0|0:0,0:0:0:0:
234,335,777797,6,0,P|178:329|128:348,1,95,2|0,0:0|0:0,0:0:0:0:
361,346,778134,2,0,P|364:299|385:257,1,95,8|0,0:0|0:3,0:3:0:0:
357,89,778472,2,0,P|391:122|435:139,1,95,2|0,0:0|0:3,0:3:0:0:
261,4,778809,2,0,P|231:41|189:63,1,95,8|0,0:0|0:0,0:0:0:0:
113,215,779146,6,0,P|105:168|79:129,1,95,6|0,0:0|0:0,0:0:0:0:
248,280,779483,2,0,P|244:331|216:376,1,95,8|0,0:0|0:0,0:0:0:0:
345,161,779820,2,0,P|337:114|311:74,1,95,6|0,0:0|0:0,0:0:0:0:
479,225,780157,2,0,P|475:276|447:321,1,95,8|0,0:0|0:0,0:0:0:0:
248,280,780494,6,0,B|197:262|197:262|133:296|49:257,1,190,6|8,0:0|0:0,0:0:0:0:
282,38,781168,1,2,0:0:0:0:
383,344,781505,1,8,0:0:0:0:
170,117,781842,6,0,B|128:100|128:100|43:128|30:217,1,190,6|8,0:0|0:0,0:0:0:0:
342,267,782516,2,0,B|384:284|384:284|469:256|482:167,1,190,2|8,0:0|0:0,0:0:0:0:
207,33,783191,5,4,0:3:0:0:
174,38,783275,1,4,0:3:0:0:
141,44,783359,1,4,0:3:0:0:
108,50,783443,1,4,0:3:0:0:
74,55,783528,1,4,0:3:0:0:
41,60,783612,1,4,0:3:0:0:
8,66,783696,2,0,L|17:122,1,47.5,4|0,0:3|0:0,0:0:0:0:
80,207,783865,5,4,0:3:0:0:
112,210,783949,1,4,0:3:0:0:
144,213,784033,1,4,0:3:0:0:
177,215,784118,1,4,0:3:0:0:
210,218,784202,1,4,0:3:0:0:
243,219,784286,1,4,0:3:0:0:
275,223,784370,2,0,L|270:278,1,47.5,6|0,0:3|0:0,0:0:0:0:
266,354,784539,5,6,0:0:0:0:
406,356,784707,2,0,P|458:338|484:300,1,95,0|8,0:0|0:0,0:0:0:0:
389,114,785045,5,0,0:0:0:0:
512,190,785213,1,8,0:0:0:0:
393,268,785382,2,0,L|299:263,1,95,0|8,0:0|0:0,0:0:0:0:
98,152,785719,5,0,0:0:0:0:
161,281,785887,1,8,0:0:0:0:
253,171,786056,2,0,P|261:122|250:73,1,95,0|8,0:0|0:0,0:0:0:0:
32,105,786393,2,0,B|20:141|20:141|24:207,1,95,0|8,0:0|0:0,0:0:0:0:
152,373,786730,2,0,B|164:337|164:337|160:271,1,95,0|8,0:0|0:0,0:0:0:0:
201,92,787067,5,0,0:0:0:0:
98,190,787236,1,12,0:0:0:0:
229,246,787404,2,0,P|277:253|324:237,1,95,0|8,0:0|0:0,0:0:0:0:
468,104,787741,5,0,0:0:0:0:
326,127,787910,1,8,0:0:0:0:
420,237,788078,2,0,L|411:340,1,95,0|8,0:0|0:0,0:0:0:0:
229,246,788415,6,0,L|235:141,1,95,4|8,0:0|0:0,0:0:0:0:
143,36,788752,1,4,0:0:0:0:
82,165,788921,1,12,0:0:0:0:
393,55,789258,1,8,0:0:0:0:
338,368,789595,1,8,0:0:0:0:
321,252,789764,1,2,0:0:0:0:
234,332,789932,6,0,P|114:342|40:290,1,213.75
16,250,790775,6,0,P|87:272|167:257,1,142.5
191,244,791365,6,0,P|120:240|53:203,1,142.500005435944
58,164,791786,6,0,P|102:170|153:156,1,85.4999973907472
186,137,792123,6,0,P|153:131|114:107,1,71.25
82,83,792460,6,0,P|130:73|168:38,1,95
192,6,792882,5,0,0:0:0:0:
156,105,802292,5,6,0:0:0:0:
356,105,802479,1,6,0:0:0:0:
33,353,802854,5,6,0:0:0:0:
255,16,803229,1,6,0:0:0:0:
479,353,803604,1,6,0:0:0:0:
104,193,803979,1,6,0:0:0:0:
479,31,804354,1,6,0:0:0:0:
481,232,804542,1,6,0:0:0:0:
344,49,804917,5,0,0:0:0:0:
405,136,805104,1,0,0:0:0:0:
208,286,805292,5,6,0:0:0:0:
167,40,805479,1,2,0:0:0:0:
303,198,805667,1,2,0:0:0:0:
174,151,805854,1,0,0:0:0:0:
280,59,806042,1,0,0:0:0:0:
223,213,806229,1,0,0:0:0:0:
199,76,806417,1,0,0:0:0:0:
420,178,806604,1,6,0:0:0:0:
31,324,806979,5,6,0:0:0:0:
72,79,807167,1,6,0:0:0:0:
153,189,807542,6,0,B|196:203|227:193|227:193|272:179|306:196,1,142.500005435944
426,136,808104,1,0,0:0:0:0:
256,269,808292,5,6,0:0:0:0:
139,73,808479,1,2,0:0:0:0:
373,73,808667,1,2,0:0:0:0:
52,335,809042,1,0,0:0:0:0:
460,335,809417,1,0,0:0:0:0:
500,115,809604,1,6,0:0:0:0:
52,335,809979,1,6,0:0:0:0:
12,115,810167,1,6,0:0:0:0:
160,45,810542,6,0,B|169:98|169:98|160:206,1,142.5
152,320,811104,1,0,0:0:0:0:
66,155,811292,5,2,0:0:0:0:
264,161,811479,1,2,0:0:0:0:
89,256,811667,1,2,0:0:0:0:
162,143,811854,1,0,0:0:0:0:
224,262,812042,1,0,0:0:0:0:
89,256,812229,1,0,0:0:0:0:
445,35,812604,5,2,0:0:0:0:
479,176,812792,1,0,0:0:0:0:
311,39,812979,1,2,0:0:0:0:
273,245,813167,1,2,0:0:0:0:
361,141,813354,1,0,0:0:0:0:
226,120,813542,1,0,0:0:0:0:
273,245,813729,1,0,0:0:0:0:
21,44,814292,5,6,0:0:0:0:
120,165,814479,1,2,0:0:0:0:
133,52,814667,1,0,0:0:0:0:
11,155,814854,1,0,0:0:0:0:
270,190,815042,5,6,0:0:0:0:
210,346,815229,1,2,0:0:0:0:
157,240,815417,1,0,0:0:0:0:
314,300,815604,1,0,0:0:0:0:
505,34,815792,5,6,0:0:0:0:
7,34,816167,1,6,0:0:0:0:
431,287,816542,1,2,0:0:0:0:
319,62,816729,1,2,0:0:0:0:
182,276,816917,1,2,0:0:0:0:
469,118,817292,5,6,0:0:0:0:
346,215,817479,1,0,0:0:0:0:
319,62,817667,1,0,0:0:0:0:
433,199,817854,1,0,0:0:0:0:
408,47,818042,1,8,0:0:0:0:
286,145,818229,1,0,0:0:0:0:
469,118,818417,1,0,0:0:0:0:
221,75,818604,6,0,P|169:74|113:102,1,95,6|0,0:0|0:0,0:0:0:0:
74,227,818979,1,2,0:0:0:0:
154,354,819167,2,0,B|210:370|210:370|253:365|285:347|285:347|322:353|351:344,1,190,2|8,0:0|0:0,0:0:0:0:
511,104,819917,1,0,0:0:0:0:
480,248,820104,1,0,0:0:0:0:
361,28,820292,5,6,0:0:0:0:
253,123,820479,1,0,0:0:0:0:
387,189,820667,2,0,L|492:178,1,95
284,287,821042,2,0,L|189:280,1,95,8|0,0:0|0:0,0:0:0:0:
132,154,821417,1,0,0:0:0:0:
387,189,821604,6,0,P|404:252|380:344,1,142.500005435944,6|0,0:0|0:0,0:0:0:0:
44,231,821979,2,0,P|27:168|51:76,1,142.500005435944,6|2,0:0|0:0,0:0:0:0:
216,20,822354,1,2,0:0:0:0:
212,216,822542,1,8,0:0:0:0:
304,283,822729,1,0,0:0:0:0:
420,274,822917,1,0,0:0:0:0:
503,196,823104,1,0,0:0:0:0:
269,40,823292,6,0,B|232:39|207:24|207:24|146:41|146:41|114:30|78:41,1,190,6|0,0:0|0:0,0:0:0:0:
62,199,823854,1,0,0:0:0:0:
206,145,824042,1,8,0:0:0:0:
226,138,824417,2,0,L|221:243,1,95
405,357,824792,6,0,P|478:327|516:227,1,190,0|2,0:0|0:0,0:0:0:0:
440,100,825354,1,0,0:0:0:0:
364,227,825542,1,8,0:0:0:0:
440,100,825917,5,0,0:0:0:0:
364,227,826104,1,0,0:0:0:0:
208,43,826292,6,0,B|116:58|53:23|53:23|-4:18|-37:77|1:149|67:118,1,332.5,6|0,0:0|0:0,0:0:0:0:
127,144,827042,6,0,P|98:219|60:116,1,249.375009512902,8|0,0:0|0:0,0:0:0:0:
114,68,827792,6,0,B|173:47|173:47|224:74|224:74|304:76|304:76|359:131|359:131|437:145|437:145|459:213,1,415.625,6|0,0:0|0:0,0:0:0:0:
469,282,828542,1,8,0:0:0:0:
297,363,828729,1,8,0:0:0:0:
115,318,828917,1,8,0:0:0:0:
42,141,829104,1,8,0:0:0:0:
219,225,829292,5,6,0:0:0:0:
69,226,829479,1,0,0:0:0:0:
141,98,829667,2,0,B|178:99|199:77|199:77|275:61|325:123,1,190,0|8,0:0|0:0,0:0:0:0:
409,257,830229,6,0,L|414:174,1,71.25
416,142,830604,1,6,0:0:0:0:
512,246,830792,5,0,0:0:0:0:
407,354,830979,1,2,0:0:0:0:
318,234,831167,2,0,B|293:212|263:200|263:200|229:214|192:201|192:201|158:216|140:239,1,190,2|8,0:0|0:0,0:0:0:0:
72,332,831729,1,0,0:0:0:0:
14,235,831917,1,0,0:0:0:0:
23,123,832104,1,0,0:0:0:0:
259,47,832292,6,0,B|305:35|305:35|346:77|410:68,1,142.5,6|0,0:0|0:0,0:0:0:0:
467,47,832667,1,0,0:0:0:0:
468,216,832854,1,0,0:0:0:0:
331,149,833042,1,8,0:0:0:0:
335,288,833229,1,0,0:0:0:0:
236,224,833417,1,0,0:0:0:0:
234,331,833604,1,2,0:0:0:0:
409,196,833792,6,0,P|418:149|408:103,1,95,0|2,0:0|0:0,0:0:0:0:
256,15,834167,1,2,0:0:0:0:
103,103,834354,2,0,P|93:149|102:196,1,95,0|8,0:0|0:0,0:0:0:0:
175,294,834729,1,0,0:0:0:0:
296,307,834917,1,0,0:0:0:0:
408,259,835104,1,0,0:0:0:0:
286,23,835292,5,6,0:0:0:0:
411,97,835479,1,0,0:0:0:0:
284,168,835667,2,0,B|242:197|242:197|193:204|193:204|143:192|143:192|111:162,1,190,0|8,0:0|0:0,0:0:0:0:
11,34,836229,6,0,L|18:108,1,71.25
21,141,836604,1,6,0:0:0:0:
102,14,836792,5,0,0:0:0:0:
217,103,836979,1,2,0:0:0:0:
339,18,837167,2,0,P|421:37|480:131,1,190,2|8,0:0|0:0,0:0:0:0:
418,282,837729,1,0,0:0:0:0:
351,141,837917,1,0,0:0:0:0:
506,194,838104,1,0,0:0:0:0:
421,376,838292,5,6,0:0:0:0:
338,232,838479,1,0,0:0:0:0:
504,328,838667,1,0,0:0:0:0:
333,328,838854,1,0,0:0:0:0:
423,189,839042,2,0,P|436:134|386:62,1,142.5,8|0,0:0|0:0,0:0:0:0:
314,47,839417,1,0,0:0:0:0:
473,17,839604,1,0,0:0:0:0:
236,59,839792,5,2,0:0:0:0:
391,256,839979,1,2,0:0:0:0:
473,17,840167,1,2,0:0:0:0:
471,159,840354,1,0,0:0:0:0:
342,90,840542,2,0,B|289:74|289:74|139:83,1,190,8|0,0:0|0:0,0:0:0:0:
44,9,841104,1,0,0:0:0:0:
1,226,841292,6,0,B|17:254|17:280|17:280|-2:316|18:375,1,142.500005435944,6|0,0:0|0:0,0:0:0:0:
82,98,841667,6,0,P|73:144|83:204,1,95
158,332,842042,1,8,0:0:0:0:
174,173,842229,1,0,0:0:0:0:
65,292,842417,1,0,0:0:0:0:
229,260,842604,1,6,0:0:0:0:
15,133,842792,6,0,P|6:88|22:17,1,95,0|2,0:0|0:0,0:0:0:0:
219,53,843167,2,0,P|172:59|132:85,1,95,2|0,0:0|0:0,0:0:0:0:
148,242,843542,1,8,0:0:0:0:
264,139,843729,1,0,0:0:0:0:
105,167,843917,1,0,0:0:0:0:
264,139,844104,1,0,0:0:0:0:
380,362,844292,5,6,0:0:0:0:
406,203,844479,1,0,0:0:0:0:
257,255,844667,1,0,0:0:0:0:
65,71,845042,1,8,0:0:0:0:
178,180,845229,1,0,0:0:0:0:
216,22,845417,1,0,0:0:0:0:
65,71,845604,1,0,0:0:0:0:
145,274,845792,6,0,P|208:277|277:207,1,142.5
295,153,846167,1,2,0:0:0:0:
398,266,846354,2,0,L|392:370,1,95,2|8,0:0|0:0,0:0:0:0:
449,95,846729,1,0,0:0:0:0:
494,200,846917,1,0,0:0:0:0:
380,187,847104,1,2,0:0:0:0:
507,25,847292,5,6,0:0:0:0:
417,17,847479,1,2,0:0:0:0:
333,36,847667,5,8,0:0:0:0:
271,105,848042,1,2,0:0:0:0:
249,188,848417,1,2,0:0:0:0:
258,275,848604,5,2,0:0:0:0:
321,339,848979,1,2,0:0:0:0:
408,344,849354,1,2,0:0:0:0:
498,264,849542,5,8,0:0:0:0:
501,140,849917,1,2,0:0:0:0:
397,81,850292,6,0,P|365:128|424:91,1,190,2|0,0:0|0:0,0:0:0:0:
388,12,851417,1,0,0:0:0:0:
297,8,851792,5,0,0:0:0:0:
181,76,851979,1,0,0:0:0:0:
205,222,852354,1,0,0:0:0:0:
336,270,852729,5,6,0:0:0:0:
269,70,852917,1,6,0:0:0:0:
58,74,853104,1,6,0:0:0:0:
0,280,853292,1,6,0:0:0:0:
256,192,853385,12,0,858542,0:0:0:0:
85,194,864892,5,2,0:0:0:0:
220,55,865065,1,2,0:0:0:0:
197,242,865239,1,8,0:0:0:0:
102,75,865413,1,2,0:0:0:0:
281,153,865587,1,2,0:0:0:0:
489,34,865935,5,8,0:3:0:0:
401,112,866109,1,0,0:0:0:0:
221,33,866283,5,8,0:3:0:0:
242,145,866457,1,4,0:3:0:0:
263,255,866631,1,4,0:3:0:0:
489,34,866805,5,8,0:3:0:0:
468,146,866979,1,4,0:3:0:0:
446,257,867153,1,4,0:3:0:0:
423,369,867327,2,0,P|372:379|325:366,1,95
187,251,867675,6,0,P|130:250|41:343,1,190,6|12,0:0|0:0,0:0:0:0:
168,374,868197,1,0,0:0:0:0:
41,339,868371,2,0,P|11:263|39:160,1,190,2|8,0:0|0:0,0:0:0:0:
167,88,868893,1,0,0:0:0:0:
295,163,869067,6,0,L|289:260,1,95,2|0,0:0|0:0,0:0:0:0:
435,206,869415,2,0,P|393:180|373:135,1,95,8|0,0:0|0:0,0:0:0:0:
400,7,869763,2,0,P|408:60|373:140,1,142.5,2|0,0:0|0:0,0:0:0:0:
295,163,870111,2,0,L|194:156,1,95,8|0,0:0|0:0,0:0:0:0:
38,118,870459,6,0,B|22:169|40:207|40:207|58:252|32:313,1,190,6|8,0:0|0:0,0:0:0:0:
157,231,870981,1,0,0:0:0:0:
193,371,871155,2,0,P|117:375|33:297,1,190,2|8,0:0|0:0,0:0:0:0:
157,231,871677,1,0,0:0:0:0:
274,315,871851,6,0,L|281:213,1,95,2|0,0:0|0:0,0:0:0:0:
202,60,872199,2,0,P|189:107|199:158,1,95,8|0,0:0|0:0,0:0:0:0:
94,231,872547,2,0,P|154:216|197:143,1,142.5,2|0,0:0|0:0,0:0:0:0:
272,120,872895,2,0,L|369:125,1,95,8|0,0:0|0:0,0:0:0:0:
511,18,873242,6,0,P|472:42|443:87,1,95,6|0,0:0|0:0,0:0:0:0:
423,224,873590,1,8,0:0:0:0:
148,304,873938,2,0,P|109:270|93:225,1,95,2|0,0:0|0:0,0:0:0:0:
145,92,874286,6,0,B|148:49|177:28|177:28|218:34|246:78,1,142.5,8|0,0:0|0:0,0:0:0:0:
316,55,874634,6,0,B|352:48|369:67|369:67|375:91|361:120,1,106.875004076958,6|0,0:0|0:3,0:3:0:0:
414,183,874982,6,0,B|440:219|430:272|430:272|388:301|318:278,1,178.125,8|0,0:0|0:3,0:3:0:0:
281,337,875330,6,0,B|253:370|217:370|217:370|187:341|191:289,1,142.5,2|0,0:0|0:3,0:3:0:0:
126,256,875678,6,0,B|103:241|92:216|92:216|98:193|128:175,1,106.875004076958,8|0,0:0|0:3,0:3:0:0:
198,217,876026,6,0,P|269:220|357:141,2,190,6|8|2,0:0|0:0|0:0,0:0:0:0:
7,18,877070,1,8,0:0:0:0:
128,98,877244,1,0,0:0:0:0:
19,193,877418,6,0,B|28:338|28:338|63:376,2,190,2|8|2,0:0|0:0|0:0,0:0:0:0:
128,98,878288,1,0,0:0:0:0:
200,167,878462,1,8,0:0:0:0:
225,72,878636,1,0,0:0:0:0:
108,192,878810,6,0,P|106:243|133:291,1,95,6|0,0:0|0:0,0:0:0:0:
439,328,879158,1,8,0:0:0:0:
344,216,879332,1,0,0:0:0:0:
288,350,879506,2,0,L|191:346,1,95,2|0,0:0|0:0,0:0:0:0:
34,147,879854,1,8,0:0:0:0:
23,294,880028,1,0,0:0:0:0:
166,129,880202,5,6,0:0:0:0:
64,223,880376,1,0,0:0:0:0:
191,265,880550,1,8,0:0:0:0:
80,137,880724,1,0,0:0:0:0:
230,188,880898,2,0,P|280:191|324:161,1,95,2|0,0:0|0:0,0:0:0:0:
467,9,881245,1,8,0:0:0:0:
343,84,881419,1,0,0:0:0:0:
482,224,881593,6,0,L|489:328,1,95,6|0,0:0|0:0,0:0:0:0:
243,347,881941,1,8,0:0:0:0:
352,258,882115,1,0,0:0:0:0:
230,189,882289,2,0,P|183:178|119:200,1,95,2|0,0:0|0:0,0:0:0:0:
19,356,882637,1,8,0:0:0:0:
154,316,882811,1,0,0:0:0:0:
24,147,882985,5,6,0:0:0:0:
56,279,883159,1,0,0:0:0:0:
128,120,883333,1,8,0:0:0:0:
0,223,883507,1,0,0:0:0:0:
0,71,883681,2,0,P|39:43|96:41,1,95,2|0,0:0|0:0,0:0:0:0:
117,39,883942,1,0,0:0:0:0:
148,48,884029,1,8,0:0:0:0:
273,127,884203,1,0,0:0:0:0:
93,255,884377,2,0,B|45:263|45:263|0:254,1,95,6|0,0:0|0:0,0:0:0:0:
273,127,884725,6,0,B|386:104|386:104|511:132,1,237.5,12|2,0:0|0:0,0:0:0:0:
386,241,885247,1,0,0:0:0:0:
273,127,885421,2,0,P|262:81|275:25,1,95,8|0,0:0|0:0,0:0:0:0:
95,18,885769,6,0,P|136:41|184:45,1,95,2|0,0:0|0:0,0:0:0:0:
34,184,886117,2,0,P|68:151|86:108,1,95,8|0,0:0|0:0,0:0:0:0:
171,290,886465,2,0,P|150:247|115:217,1,95,2|0,0:0|0:0,0:0:0:0:
317,200,886813,2,0,P|271:206|231:231,1,95,8|0,0:0|0:0,0:0:0:0:
390,351,887161,5,8,0:0:0:0:
407,259,887335,1,2,0:0:0:0:
423,167,887509,1,2,0:0:0:0:
260,52,887683,5,8,0:0:0:0:
272,144,887857,1,2,0:0:0:0:
284,237,888031,1,2,0:0:0:0:
119,334,888205,5,8,0:0:0:0:
201,286,888379,1,2,0:0:0:0:
284,237,888553,1,2,0:0:0:0:
93,89,888727,5,8,0:0:0:0:
181,118,888901,1,2,0:0:0:0:
272,144,889075,1,2,0:0:0:0:
78,219,889249,5,8,0:0:0:0:
137,16,889422,1,8,0:0:0:0:
230,37,889596,1,2,0:0:0:0:
23,90,889770,1,8,0:0:0:0:
132,318,889944,6,0,P|203:359|317:324,1,190,6|8,0:0|0:0,0:0:0:0:
350,196,890466,1,0,0:0:0:0:
211,153,890640,2,0,L|221:255,2,95,2|0|8,0:0|0:0|0:0,0:0:0:0:
89,78,891162,1,0,0:0:0:0:
219,17,891336,6,0,P|272:13|323:36,1,95,2|0,0:0|0:0,0:0:0:0:
430,117,891684,2,0,L|428:219,1,95,8|0,0:0|0:0,0:0:0:0:
503,320,892032,2,0,P|452:286|428:209,1,142.5,2|0,0:0|0:0,0:0:0:0:
356,164,892380,2,0,P|301:164|263:183,1,95,8|0,0:0|0:0,0:0:0:0:
150,360,892728,6,0,P|66:327|24:231,1,190,6|8,0:0|0:0,0:0:0:0:
186,155,893250,1,0,0:0:0:0:
0,148,893424,2,0,B|132:137|132:137|188:156,1,190,2|8,0:0|0:0,0:0:0:0:
315,226,893946,1,0,0:0:0:0:
312,63,894120,6,0,P|282:97|272:156,1,95,2|0,0:0|0:0,0:0:0:0:
286,297,894468,2,0,P|315:335|374:356,1,95,8|0,0:0|0:0,0:0:0:0:
497,359,894816,2,0,B|403:368|403:368|354:353,1,142.5,2|0,0:0|0:0,0:0:0:0:
409,290,895164,2,0,P|416:240|409:196,1,95,8|0,0:0|0:0,0:0:0:0:
190,66,895512,6,0,P|183:116|190:160,1,95,6|0,0:0|0:0,0:0:0:0:
249,288,895860,1,8,0:0:0:0:
420,24,896208,2,0,L|323:29,1,95,2|0,0:0|0:0,0:0:0:0:
190,66,896556,6,0,B|162:70|137:59|137:59|113:77|73:83,1,106.875004076958,8|0,0:0|0:0,0:0:0:0:
18,123,896904,2,0,B|13:150|-6:171|-6:171|4:199|-2:239,1,106.875004076958,6|0,0:0|0:0,0:0:0:0:
25,300,897252,6,0,B|65:317|89:356|89:356|138:341|184:371,1,178.125,8|0,0:0|0:0,0:0:0:0:
255,366,897599,6,0,B|281:339|317:331|317:331|314:291|349:258,1,142.5,2|0,0:0|0:0,0:0:0:0:
317,191,897947,6,0,B|304:165|307:138|307:138|282:121|264:84,1,106.875004076958,8|0,0:0|0:0,0:0:0:0:
190,66,898295,6,0,B|176:110|197:150|197:150|212:196|192:264,2,190,6|8|2,0:0|0:0|0:0,0:0:0:0:
494,168,899339,1,8,0:0:0:0:
400,71,899513,1,0,0:0:0:0:
354,200,899687,6,0,L|362:299,1,95,8|0,0:0|0:0,0:0:0:0:
470,346,900035,1,2,0:0:0:0:
176,344,900209,2,0,L|183:248,1,95,8|0,0:0|0:0,0:0:0:0:
255,94,900557,1,0,0:0:0:0:
277,186,900731,1,8,0:0:0:0:
346,122,900905,1,0,0:0:0:0:
169,33,901079,6,0,P|117:36|76:65,1,95,6|0,0:0|0:0,0:0:0:0:
70,264,901427,1,8,0:0:0:0:
164,158,901601,1,0,0:0:0:0:
209,294,901775,2,0,P|253:303|302:292,1,95,2|0,0:0|0:0,0:0:0:0:
488,182,902123,1,8,0:0:0:0:
511,311,902297,1,0,0:0:0:0:
343,180,902471,6,0,P|299:171|250:182,1,95,6|0,0:0|0:0,0:0:0:0:
61,97,902819,1,8,0:0:0:0:
148,208,902993,1,0,0:0:0:0:
204,74,903167,2,0,L|304:80,1,95,2|0,0:0|0:0,0:0:0:0:
512,200,903515,1,8,0:0:0:0:
418,91,903689,1,0,0:0:0:0:
354,275,903863,6,0,P|348:322|361:376,1,95,6|0,0:0|0:0,0:0:0:0:
169,166,904211,1,8,0:0:0:0:
278,260,904385,1,0,0:0:0:0:
163,339,904559,2,0,P|116:338|72:311,1,95,2|0,0:0|0:0,0:0:0:0:
45,165,904907,1,8,0:0:0:0:
141,256,905081,1,0,0:0:0:0:
150,7,905255,5,6,0:0:0:0:
32,84,905429,1,0,0:0:0:0:
185,99,905602,1,8,0:0:0:0:
63,5,905776,1,0,0:0:0:0:
44,165,905950,2,0,P|38:217|47:259,1,95,2|0,0:0|0:0,0:0:0:0:
213,350,906298,2,0,B|261:358|261:358|304:330|370:347,1,142.5,8|0,0:0|0:0,0:0:0:0:
451,360,906646,2,0,P|401:325|384:239,1,142.5,6|0,0:0|0:0,0:0:0:0:
456,176,906994,6,0,B|418:182|418:182|389:167|351:177|351:177|308:174|308:174|265:186,1,178.125,12|0,0:0|0:0,0:0:0:0:
213,236,907342,2,0,B|174:246|174:246|143:247|120:234,1,95,2|0,0:0|0:0,0:0:0:0:
29,79,907690,2,0,L|20:182,1,95,8|0,0:0|0:0,0:0:0:0:
180,141,908038,6,0,L|171:46,1,95,2|0,0:0|0:0,0:0:0:0:
311,183,908386,2,0,P|319:226|311:283,1,95,8|0,0:0|0:0,0:0:0:0:
266,111,908734,2,0,P|314:100|373:124,1,95,2|0,0:0|0:0,0:0:0:0:
476,176,909082,1,8,0:0:0:0:
468,43,909256,1,0,0:0:0:0:
311,183,909430,6,0,B|302:243|302:243|316:275|320:306|320:306|314:372,1,190,6|8,0:0|0:0,0:0:0:0:
512,219,909952,1,8,0:0:0:0:
355,43,910126,2,0,P|309:32|263:44,1,95,2|0,0:0|0:0,0:0:0:0:
67,238,910474,6,0,P|43:156|81:41,1,190,12|8,0:0|0:0,0:0:0:0:
272,178,910996,1,8,0:0:0:0:
114,359,911170,2,0,P|69:371|12:355,1,95,2|0,0:0|0:0,0:0:0:0:
164,150,911518,1,8,0:0:0:0:
164,150,911605,1,8,0:0:0:0:
164,150,911692,1,8,0:0:0:0:
323,360,911866,1,8,0:0:0:0:
323,360,911953,1,8,0:0:0:0:
323,360,912040,1,8,0:0:0:0:
323,360,912127,1,8,0:0:0:0:
323,360,912214,6,0,P|401:366|489:290,1,190,6|8,0:0|0:0,0:0:0:0:
480,155,912736,1,0,0:0:0:0:
344,210,912910,2,0,B|308:217|287:243|287:243|229:221|152:248,1,190,2|8,0:0|0:0,0:0:0:0:
31,154,913432,1,0,0:0:0:0:
32,332,913606,6,0,P|6:268|39:142,1,190,6|8,0:0|0:0,0:0:0:0:
129,34,914127,1,0,0:0:0:0:
182,178,914301,1,2,0:0:0:0:
46,104,914475,5,0,0:0:0:0:
156,78,914649,1,8,0:0:0:0:
124,179,914823,1,0,0:0:0:0:
79,11,914997,5,6,0:0:0:0:
235,89,915171,1,0,0:0:0:0:
81,133,915345,1,8,0:0:0:0:
203,15,915519,1,0,0:0:0:0:
229,176,915693,1,2,0:0:0:0:
286,22,915867,1,0,0:0:0:0:
163,124,916041,1,8,0:0:0:0:
316,171,916215,1,0,0:0:0:0:
147,212,916389,6,0,P|98:222|44:212,1,95,2|0,0:0|0:0,0:0:0:0:
192,25,916737,2,0,P|241:15|295:25,1,95,8|0,0:0|0:0,0:0:0:0:
423,222,917085,2,0,P|429:171|415:117,1,95,2|2,0:0|0:0,0:0:0:0:
192,25,917433,2,0,P|237:42|273:84,1,95,8|0,0:0|0:0,0:0:0:0:
323,257,917781,6,0,B|338:320|303:378|303:378|285:344|238:333,1,190,6|8,0:0|0:0,0:0:0:0:
136,225,918303,1,0,0:0:0:0:
88,380,918477,1,2,0:0:0:0:
212,318,918651,5,0,0:0:0:0:
137,268,918825,1,8,0:0:0:0:
130,357,918999,1,0,0:0:0:0:
382,356,919173,6,0,P|404:259|369:166,1,190,6|8,0:0|0:0,0:0:0:0:
235,65,919695,1,0,0:0:0:0:
345,177,919869,1,2,0:0:0:0:
211,180,920043,5,0,0:0:0:0:
256,96,920217,1,8,0:0:0:0:
305,176,920391,1,0,0:0:0:0:
194,310,920565,6,0,B|140:361|140:361|83:306,1,142.5,6|0,0:0|0:0,0:0:0:0:
30,256,920913,2,0,B|-21:202|-21:202|34:145,1,142.5,8|0,0:0|0:0,0:0:0:0:
89,98,921261,2,0,B|143:47|143:47|200:102,1,142.5,6|0,0:0|0:0,0:0:0:0:
249,155,921609,2,0,B|300:209|300:209|245:266,1,142.5,8|0,0:0|0:0,0:0:0:0:
194,310,921956,6,0,P|230:331|288:331,1,95,2|0,0:0|0:0,0:0:0:0:
393,306,922304,1,8,0:0:0:0:
249,155,922478,1,8,0:0:0:0:
137,173,922652,2,0,L|40:184,1,95,2|0,0:0|0:0,0:0:0:0:
183,36,923000,2,0,L|280:42,1,95,8|0,0:0|0:0,0:0:0:0:
457,152,923348,6,0,P|482:236|453:335,1,190,6|8,0:0|0:0,0:0:0:0:
345,234,923870,1,0,0:0:0:0:
312,376,924044,1,2,0:0:0:0:
423,333,924218,5,0,0:0:0:0:
360,268,924392,1,8,0:0:0:0:
333,352,924566,1,0,0:0:0:0:
457,152,924740,6,0,P|408:73|303:55,1,190,6|8,0:0|0:0,0:0:0:0:
184,114,925262,1,0,0:0:0:0:
307,198,925436,1,2,0:0:0:0:
287,67,925610,5,0,0:0:0:0:
214,127,925784,1,8,0:0:0:0:
300,162,925958,1,0,0:0:0:0:
196,31,926132,5,6,0:0:0:0:
179,201,926306,1,0,0:0:0:0:
287,67,926480,1,8,0:0:0:0:
114,80,926654,1,0,0:0:0:0:
287,67,926828,1,2,0:0:0:0:
267,222,927002,1,0,0:0:0:0:
184,114,927176,1,8,0:0:0:0:
183,288,927350,1,0,0:0:0:0:
294,145,927524,6,0,P|339:137|393:149,1,95,6|0,0:0|0:0,0:0:0:0:
462,273,927872,1,8,0:0:0:0:
342,359,928046,2,0,P|297:367|243:355,1,95,0|2,0:0|0:0,0:0:0:0:
169,234,928394,1,0,0:0:0:0:
31,272,928568,2,0,L|35:369,1,95,8|0,0:0|0:0,0:0:0:0:
169,234,928916,6,0,P|192:141|161:52,1,190,6|8,0:0|0:0,0:0:0:0:
21,19,929438,1,0,0:0:0:0:
63,157,929612,1,2,0:0:0:0:
129,50,929786,5,0,0:0:0:0:
39,47,929959,1,8,0:0:0:0:
81,123,930133,1,0,0:0:0:0:
268,47,930307,6,0,B|321:29|365:46|365:46|415:60|464:38,1,190,6|8,0:0|0:0,0:0:0:0:
338,142,930829,1,0,0:0:0:0:
479,188,931003,1,2,0:0:0:0:
444,74,931177,5,0,0:0:0:0:
366,130,931351,1,8,0:0:0:0:
452,169,931525,1,0,0:0:0:0:
312,327,931699,6,0,P|266:337|217:328,1,95,2|0,0:0|0:0,0:0:0:0:
119,276,932047,1,8,0:0:0:0:
250,120,932221,1,8,0:0:0:0:
366,130,932395,2,0,L|468:137,1,95,2|0,0:0|0:0,0:0:0:0:
220,30,932743,2,0,P|171:22|123:32,1,95,8|0,0:0|0:0,0:0:0:0:
25,77,933091,5,2,0:0:0:0:
119,276,933265,1,8,0:0:0:0:
229,251,933439,1,2,0:0:0:0:
426,330,933613,1,8,0:0:0:0:
376,125,933787,1,8,0:0:0:0:
300,313,933961,1,8,0:0:0:0:
474,211,934135,1,8,0:0:0:0:
273,188,934309,1,8,0:0:0:0:
359,7,934483,6,0,L|329:135,1,118.75,6|0,0:0|0:0,0:0:0:0:
153,7,934831,2,0,L|183:135,1,118.75,6|0,0:0|0:0,0:0:0:0:
439,73,935179,2,0,L|409:192,1,118.75,6|0,0:0|0:0,0:0:0:0:
73,73,935527,2,0,L|103:192,1,118.75,6|0,0:0|0:0,0:0:0:0:
358,355,935875,6,0,B|423:330|490:353|490:353|488:294|416:279,1,237.5,6|12,0:0|0:0,0:0:0:0:
84,281,936397,2,0,B|24:294|22:353|22:353|89:330|154:355,1,237.5,6|2,0:0|0:0,0:0:0:0:
255,201,936919,1,12,0:0:0:0:
255,201,937093,1,2,0:0:0:0:
401,33,937267,6,0,L|389:161,1,118.75,6|0,0:0|0:0,0:0:0:0:
111,33,937615,2,0,L|123:161,1,118.75,12|0,0:0|0:0,0:0:0:0:
469,203,937963,2,0,P|424:233|344:229,1,118.75,6|0,0:0|0:0,0:0:0:0:
255,19,938310,1,12,0:0:0:0:
151,235,938484,6,0,P|92:234|43:203,1,118.75,6|0,0:0|0:0,0:0:0:0:
111,33,938832,1,0,0:0:0:0:
256,130,939006,6,0,L|255:234,1,95,8|0,0:0|0:0,0:0:0:0:
326,332,939354,2,0,P|334:286|326:240,1,95,8|0,0:0|0:0,0:0:0:0:
186,240,939702,2,0,P|177:287|186:334,1,95,8|0,0:0|0:0,0:0:0:0:
401,345,940050,6,0,P|410:281|396:221,1,118.75,6|0,0:0|0:0,0:0:0:0:
112,228,940398,2,0,P|101:286|111:345,1,118.75,12|0,0:0|0:0,0:0:0:0:
386,157,940746,2,0,L|516:167,1,118.75,6|0,0:0|0:0,0:0:0:0:
126,157,941094,2,0,L|-4:167,1,118.75,12|0,0:0|0:0,0:0:0:0:
434,93,941442,6,0,B|495:80|522:20|522:20|462:2|405:21,1,237.5,6|12,0:0|0:0,0:0:0:0:
106,21,941964,2,0,B|49:2|-10:20|-10:20|16:80|78:93,1,237.5,6|2,0:0|0:0,0:0:0:0:
257,104,942486,1,12,0:0:0:0:
257,104,942660,1,0,0:0:0:0:
400,239,942834,6,0,L|389:367,1,118.75,6|0,0:0|0:0,0:0:0:0:
112,239,943182,2,0,L|123:367,1,118.75,6|0,0:0|0:0,0:0:0:0:
345,97,943530,2,0,P|402:84|459:97,1,118.75,6|0,0:0|0:0,0:0:0:0:
255,273,943878,1,12,0:0:0:0:
167,97,944052,2,0,P|110:84|53:97,1,118.75,4|2,0:0|0:0,0:0:0:0:
0,208,944400,1,0,0:0:0:0:
57,314,944574,6,0,L|156:329,1,95,8|8,0:0|0:0,0:0:0:0:
103,220,944922,2,0,L|208:206,1,95,8|8,0:0|0:0,0:0:0:0:
247,343,945270,1,8,0:0:0:0:
297,197,945444,1,8,0:0:0:0:
353,364,945618,1,6,0:0:0:0:
353,364,945705,1,6,0:0:0:0:
353,364,945792,1,6,0:0:0:0:
401,182,946140,5,6,0:0:0:0:
401,182,946226,1,6,0:0:0:0:
401,182,946313,1,6,0:0:0:0:
450,378,946661,5,6,0:0:0:0:
488,157,946835,2,0,B|441:78|359:94|359:94|315:74|315:74|243:138|155:90,1,356.25001358986
173,89,953786,5,6,0:0:0:0:
468,224,954244,2,0,L|464:274,1,47.5,0|8,0:0|0:0,0:0:0:0:
455,349,954473,1,6,0:0:0:0:
140,284,954931,6,0,L|149:321,2,31.6666666666667
64,280,955160,2,0,L|38:313,2,31.6666666666667
31,211,955389,2,0,L|-5:215,2,31.6666666666667
66,133,955618,5,6,0:0:0:0:
175,73,955770,1,4,0:3:0:0:
169,196,955923,1,4,0:3:0:0:
46,133,956076,5,4,0:3:0:0:
183,56,956228,1,4,0:3:0:0:
177,213,956381,1,4,0:3:0:0:
137,133,956534,5,4,0:3:0:0:
388,352,956839,2,0,B|428:368|428:368|524:363,2,126.666666666667,6|6|6,0:0|0:0|0:0,0:0:0:0:
448,192,958595,5,6,0:0:0:0:
158,24,958938,1,6,0:0:0:0:
158,358,959282,1,6,0:0:0:0:
343,331,960427,5,6,0:0:0:0:
348,289,960541,1,2,0:1:0:0:
354,246,960656,1,2,0:1:0:0:
360,203,960770,1,6,0:0:0:0:
74,204,961114,1,6,0:0:0:0:
358,24,962259,5,6,0:0:0:0:
58,184,962602,1,6,0:0:0:0:
349,364,962946,1,6,0:0:0:0:
392,367,963060,2,0,L|441:371,1,47.5,2|2,0:1|0:1,0:0:0:0:
375,258,963289,1,0,0:0:0:0:
332,261,963404,2,0,L|233:268,1,95,2|0,0:1|0:0,0:0:0:0:
156,272,963747,1,0,0:0:0:0:
422,71,964091,5,4,0:0:0:0:
215,89,964320,1,0,0:0:0:0:
332,261,964549,1,0,0:0:0:0:
313,8,964778,5,6,0:0:0:0:
154,364,965923,5,6,0:0:0:0:
154,28,966266,1,6,0:0:0:0:
455,192,966610,1,6,0:0:0:0:
173,58,967755,5,6,0:0:0:0:
137,72,967869,1,2,0:1:0:0:
98,72,967984,1,2,0:1:0:0:
63,55,968098,2,0,P|60:37|62:6,2,47.5,2|0|0,0:1|0:0|0:0,0:0:0:0:
71,138,968442,5,6,0:0:0:0:
442,286,968900,1,0,0:0:0:0:
326,364,969129,2,0,L|298:383,4,23.75,8|8|8|8|0,0:0|0:0|0:0|0:0|0:0,0:0:0:0:
306,290,969473,2,0,L|277:290,4,23.75,8|8|8|8|0,0:0|0:0|0:0|0:0|0:0,0:0:0:0:
324,214,969816,1,0,0:0:0:0:
408,92,970045,5,0,0:0:0:0:
408,92,970160,1,0,0:0:0:0:
408,92,970274,1,6,0:0:0:0:
402,350,970503,1,6,0:0:0:0:
208,190,970732,1,6,0:0:0:0:
509,196,970961,1,0,0:0:0:0:
509,196,971076,1,6,0:0:0:0:
141,359,971419,6,0,P|88:340|44:286,1,118.75,6|0,0:0|0:0,0:0:0:0:
18,199,971763,2,0,P|19:147|60:81,1,118.75,6|0,0:0|0:0,0:0:0:0:
157,81,972106,6,0,B|216:90|216:90|280:78,1,118.75,6|0,0:0|0:0,0:0:0:0:
358,15,972450,1,0,0:0:0:0:
393,12,972564,1,8,0:0:0:0:
427,21,972679,2,0,P|469:37|514:99,1,118.75
511,192,973022,6,0,B|452:184|452:184|381:196,1,118.75
302,232,973366,1,0,0:0:0:0:
267,240,973480,1,8,0:0:0:0:
232,248,973595,2,0,B|173:257|173:257|114:249,1,118.75
25,219,973938,5,0,0:0:0:0:
1,191,974053,2,0,P|-13:249|10:316,1,118.75
89,363,974396,1,8,0:0:0:0:
122,376,974511,2,0,L|245:370,1,118.75
346,368,974854,5,0,0:0:0:0:
380,378,974969,2,0,P|435:375|484:337,1,118.75
495,230,975312,1,8,0:0:0:0:
460,239,975427,2,0,P|404:238|346:201,1,118.75
265,151,975770,5,0,0:0:0:0:
235,129,975885,1,0,0:0:0:0:
203,144,975999,1,0,0:0:0:0:
199,179,976114,1,0,0:0:0:0:
228,201,976228,1,8,0:0:0:0:
260,186,976343,2,0,P|273:137|257:68,1,118.75
181,18,976686,5,0,0:0:0:0:
402,74,976915,1,0,0:0:0:0:
199,179,977144,1,8,0:0:0:0:
340,7,977373,1,0,0:0:0:0:
299,207,977602,6,0,P|302:168|295:136,1,59.375
181,18,977831,2,0,P|175:48|150:80,1,59.375,0|8,0:0|0:0,0:0:0:0:
69,186,978060,1,8,0:0:0:0:
54,218,978175,1,8,0:0:0:0:
52,253,978289,1,8,0:0:0:0:
55,288,978404,1,8,0:0:0:0:
70,319,978518,2,0,L|130:317,1,59.375
298,148,978747,6,0,P|349:112|380:167,1,142.500005435944,6|0,0:0|0:0,0:0:0:0:
284,121,979091,6,0,P|355:88|406:147,1,166.250001585484,6|0,0:0|0:0,0:0:0:0:
363,287,979434,6,0,B|304:287|304:287|233:246,1,118.75,6|0,0:0|0:0,0:0:0:0:
71,145,979892,1,8,0:0:0:0:
45,120,980007,2,0,P|32:181|52:244,1,118.75
115,292,980350,1,0,0:0:0:0:
215,93,980579,1,0,0:0:0:0:
265,310,980808,1,8,0:0:0:0:
361,106,981037,1,0,0:0:0:0:
434,314,981266,5,0,0:0:0:0:
458,340,981381,1,0,0:0:0:0:
447,373,981495,1,0,0:0:0:0:
412,382,981610,1,0,0:0:0:0:
388,356,981724,1,8,0:0:0:0:
399,322,981839,2,0,P|409:263|393:198,1,118.75
347,136,982182,6,0,P|309:103|316:142,1,118.75
208,312,982640,2,0,P|203:353|155:323,1,118.75,8|0,0:0|0:0,0:0:0:0:
163,245,982984,1,0,0:0:0:0:
178,213,983098,1,6,0:0:0:0:
183,177,983213,1,0,0:0:0:0:
177,141,983327,1,0,0:0:0:0:
163,107,983442,6,0,B|137:110|137:110|105:119,1,59.375,0|8,0:0|0:0,0:0:0:0:
41,178,983671,2,0,B|51:153|51:153|59:121,1,59.375
38,39,983900,2,0,B|53:60|53:60|77:83,1,59.375
266,155,984244,6,0,L|309:150,2,39.5833333333333,8|8|8,0:0|0:0|0:0,0:0:0:0:
257,237,984473,2,0,L|237:274,2,39.5833333333333,8|8|8,0:0|0:0|0:0,0:0:0:0:
195,187,984702,2,0,L|170:155,2,39.5833333333333,8|8|8,0:0|0:0|0:0,0:0:0:0:
241,192,984931,5,6,0:0:0:0:
29,316,985160,1,0,0:0:0:0:
77,83,985389,1,8,0:0:0:0:
180,295,985618,1,0,0:0:0:0:
192,315,985732,1,0,0:0:0:0:
204,335,985847,1,0,0:0:0:0:
435,194,986076,6,0,P|501:162|510:206,1,142.500005435944,6|0,0:0|0:0,0:0:0:0:
427,272,986419,2,0,P|366:234|370:152,1,142.500005435944,6|0,0:0|0:0,0:0:0:0:
403,79,986763,5,6,0:0:0:0:
182,38,986992,1,0,0:0:0:0:
403,0,987221,1,8,0:0:0:0:
229,110,987450,1,0,0:0:0:0:
206,127,987564,1,0,0:0:0:0:
183,144,987679,1,0,0:0:0:0:
403,0,987908,6,0,L|396:166,1,142.500005435944,6|0,0:0|0:0,0:0:0:0:
505,77,988251,2,0,L|498:243,1,142.500005435944,6|0,0:0|0:0,0:0:0:0:
439,314,988595,6,0,L|435:357,3,35.625001358986,14|8|8|8,0:0|0:0|0:0|0:0,0:0:0:0:
409,241,988824,2,0,L|412:205,3,35.625001358986,8|8|8|8,0:0|0:0|0:0|0:0,0:0:0:0:
368,307,989053,2,0,L|364:350,3,35.625001358986,8|8|8|8,0:0|0:0|0:0|0:0,0:0:0:0:
338,234,989282,2,0,L|341:198,3,35.625001358986,8|8|8|8,0:0|0:0|0:0|0:0,0:0:0:0:
294,297,989511,1,8,0:0:0:0:
26,215,989740,6,0,P|89:229|187:184,1,166.250001585484,6|0,0:0|0:0,0:0:0:0:
296,165,990083,2,0,P|210:150|151:85,1,166.250001585484,6|0,0:0|0:0,0:0:0:0:
115,9,990427,6,0,L|224:17,1,95,6|0,0:0|0:0,0:0:0:0:
352,97,990885,1,8,0:0:0:0:
369,119,990999,2,0,L|271:125,1,95,0|2,0:0|0:0,0:0:0:0:
159,158,991343,6,0,L|315:170,1,142.5,0|2,0:0|0:0,0:0:0:0:
374,236,991801,2,0,L|276:242,1,95,8|0,0:0|0:0,0:0:0:0:
140,322,992259,5,4,0:3:0:0:
70,177,992411,1,4,0:3:0:0:
70,337,992564,1,4,0:3:0:0:
140,193,992717,5,4,0:3:0:0:
14,293,992869,1,4,0:3:0:0:
170,257,993022,1,4,0:3:0:0:
14,222,993175,5,4,0:3:0:0:
248,356,993633,6,0,P|302:364|362:351,1,106.875004076958
399,287,994091,6,0,B|408:238|408:238|403:176,1,95,0|2,0:0|0:1,0:0:0:0:
397,110,994434,1,2,0:1:0:0:
397,110,994549,1,8,0:0:0:0:
236,26,994778,2,0,P|193:22|134:47,1,95,0|2,0:0|0:1,0:0:0:0:
85,99,995121,1,2,0:1:0:0:
283,253,995350,1,0,0:0:0:0:
311,250,995465,1,8,0:0:0:0:
199,105,995694,1,0,0:0:0:0:
59,206,995923,6,0,P|52:256|65:304,1,95,0|2,0:0|0:1,0:0:0:0:
123,363,996266,1,2,0:1:0:0:
123,363,996381,1,8,0:0:0:0:
311,250,996610,1,2,0:1:0:0:
339,253,996724,1,2,0:1:0:0:
367,255,996839,1,2,0:1:0:0:
395,258,996953,1,2,0:1:0:0:
438,27,997297,5,8,0:0:0:0:
512,251,997526,1,0,0:0:0:0:
272,184,997755,6,0,P|229:195|195:242,1,95,0|2,0:0|0:1,0:0:0:0:
183,319,998098,1,2,0:1:0:0:
183,319,998213,1,8,0:0:0:0:
1,199,998442,2,0,B|-8:152|-8:152|1:98,1,95,0|2,0:0|0:1,0:0:0:0:
10,24,998786,1,2,0:1:0:0:
178,140,999015,1,0,0:0:0:0:
149,144,999129,1,8,0:0:0:0:
268,13,999358,1,0,0:0:0:0:
360,171,999587,6,0,L|352:325,1,142.5,0|2,0:0|0:1,0:0:0:0:
284,367,1000045,1,8,0:0:0:0:
489,300,1000274,1,2,0:1:0:0:
489,300,1000389,1,2,0:1:0:0:
489,300,1000503,1,2,0:1:0:0:
259,264,1000732,1,0,0:0:0:0:
464,188,1000961,1,8,0:0:0:0:
472,160,1001076,2,0,P|479:107|463:57,1,95
396,18,1001419,6,0,B|349:10|349:10|291:19,1,95,0|2,0:0|0:1,0:0:0:0:
222,33,1001763,1,2,0:1:0:0:
222,33,1001877,1,8,0:0:0:0:
93,208,1002106,2,0,P|138:216|188:203,1,95,0|2,0:0|0:1,0:0:0:0:
250,154,1002450,1,2,0:1:0:0:
352,331,1002679,1,0,0:0:0:0:
349,359,1002793,1,8,0:0:0:0:
492,237,1003022,1,0,0:0:0:0:
390,73,1003251,6,0,P|339:69|286:89,1,95,0|2,0:0|0:1,0:0:0:0:
250,154,1003595,1,2,0:1:0:0:
250,154,1003709,1,8,0:0:0:0:
31,103,1003938,1,2,0:1:0:0:
34,74,1004053,1,2,0:1:0:0:
37,45,1004167,1,2,0:1:0:0:
40,16,1004282,1,2,0:1:0:0:
300,239,1004625,5,8,0:0:0:0:
135,82,1004854,1,0,0:0:0:0:
148,314,1005083,6,0,P|196:312|238:292,1,95,0|2,0:0|0:1,0:0:0:0:
300,239,1005427,1,2,0:1:0:0:
300,239,1005541,1,8,0:0:0:0:
453,371,1005770,1,0,0:0:0:0:
501,182,1005999,1,2,0:1:0:0:
512,139,1006114,1,2,0:1:0:0:
201,35,1006457,5,8,0:0:0:0:
459,29,1006686,1,0,0:0:0:0:
301,204,1006915,6,0,B|253:222|253:222|149:216,1,142.5
80,211,1007373,1,8,0:0:0:0:
215,108,1007602,1,0,0:0:0:0:
282,326,1007831,1,0,0:0:0:0:
282,326,1007946,1,0,0:0:0:0:
282,326,1008060,1,0,0:0:0:0:
116,307,1008289,1,8,0:0:0:0:
116,307,1008404,1,0,0:0:0:0:
319,43,1008747,5,0,0:0:0:0:
381,234,1008976,1,2,0:1:0:0:
463,51,1009205,1,8,0:0:0:0:
444,29,1009320,2,0,P|397:17|341:29,1,95,2|0,0:1|0:0,0:0:0:0:
286,66,1009663,1,0,0:0:0:0:
227,271,1009892,1,2,0:1:0:0:
232,299,1010007,1,2,0:1:0:0:
237,326,1010121,1,8,0:0:0:0:
242,354,1010236,1,2,0:1:0:0:
444,29,1010579,5,0,0:0:0:0:
136,74,1011037,2,0,L|88:70,40,47.5
59,182,1013556,6,0,B|48:223|48:223|62:384,2,178.125,6|6|6,0:0|0:0|0:0,0:0:0:0:
456,65,1014702,5,2,0:0:0:0:
414,355,1014931,1,6,0:0:0:0:
56,65,1015389,5,2,0:0:0:0:
98,355,1015618,1,6,0:0:0:0:
174,83,1020948,5,6,0:0:0:0:
350,148,1021193,1,0,0:0:0:0:
211,294,1021439,1,8,0:0:0:0:
222,147,1021685,1,0,0:0:0:0:
253,137,1021808,1,0,0:0:0:0:
286,134,1021931,1,0,0:0:0:0:
319,137,1022054,1,0,0:0:0:0:
350,148,1022177,1,0,0:0:0:0:
403,349,1022423,2,0,P|357:359|304:348,1,95,8|0,0:0|0:0,0:0:0:0:
106,155,1022915,5,6,0:0:0:0:
312,39,1023161,1,0,0:0:0:0:
317,277,1023407,1,8,0:0:0:0:
235,139,1023652,1,0,0:0:0:0:
202,132,1023775,1,0,0:0:0:0:
168,130,1023898,1,0,0:0:0:0:
135,138,1024021,1,0,0:0:0:0:
106,155,1024144,1,0,0:0:0:0:
108,357,1024390,2,0,L|212:352,1,95,8|0,0:0|0:0,0:0:0:0:
364,71,1024882,5,6,0:0:0:0:
489,355,1025128,1,0,0:0:0:0:
190,279,1025374,1,8,0:0:0:0:
349,169,1025620,1,0,0:0:0:0:
388,171,1025743,1,0,0:0:0:0:
424,186,1025866,1,0,0:0:0:0:
451,214,1025988,1,0,0:0:0:0:
466,250,1026111,1,0,0:0:0:0:
266,228,1026357,2,0,P|253:178|268:110,1,113.999996520996,8|0,0:0|0:0,0:0:0:0:
14,325,1026849,5,6,0:0:0:0:
404,362,1027095,1,0,0:0:0:0:
234,6,1027341,1,8,0:0:0:0:
172,277,1027587,1,0,0:0:0:0:
130,297,1027710,1,0,0:0:0:0:
83,300,1027833,1,0,0:0:0:0:
38,285,1027956,1,0,0:0:0:0:
5,252,1028079,1,0,0:0:0:0:
317,8,1028325,1,6,0:0:0:0:
405,384,1028570,5,6,0:0:0:0:
449,285,1029554,1,6,0:0:0:0:
488,188,1030538,5,6,0:0:0:0:
449,285,1031029,1,6,0:0:0:0:
405,384,1031521,1,6,0:0:0:0:
164,351,1032013,5,0,0:0:0:0:
121,354,1032136,1,0,0:0:0:0:
85,339,1032259,1,0,0:0:0:0:
60,316,1032382,1,0,0:0:0:0:
45,291,1032505,1,0,0:0:0:0:
37,268,1032628,1,0,0:0:0:0:
35,249,1032751,6,0,L|44:146,1,95,6|0,0:0|0:0,0:0:0:0:
241,93,1033243,1,8,0:0:0:0:
66,16,1033488,1,0,0:0:0:0:
66,16,1033611,1,0,0:0:0:0:
66,16,1033734,1,0,0:0:0:0:
195,179,1033980,2,0,P|241:188|290:175,1,95,0|8,0:0|0:0,0:0:0:0:
443,60,1034472,5,0,0:0:0:0:
446,41,1034595,1,0,0:0:0:0:
449,22,1034718,1,0,0:0:0:0:
396,207,1034964,1,0,0:0:0:0:
236,88,1035210,2,0,P|190:79|141:92,1,95,8|0,0:0|0:0,0:0:0:0:
128,101,1035579,1,0,0:0:0:0:
117,117,1035702,1,0,0:0:0:0:
154,345,1035948,1,8,0:1:0:0:
154,345,1036193,1,8,0:1:0:0:
294,175,1036439,5,0,0:0:0:0:
308,163,1036562,1,0,0:0:0:0:
323,151,1036685,2,0,L|423:154,1,95
337,68,1037177,1,8,0:0:0:0:
352,238,1037423,1,0,0:0:0:0:
353,256,1037546,1,0,0:0:0:0:
354,274,1037669,1,0,0:0:0:0:
187,378,1037915,2,0,P|134:377|88:346,1,95,0|8,0:0|0:0,0:0:0:0:
27,201,1038407,5,0,0:0:0:0:
27,201,1038529,1,0,0:0:0:0:
27,201,1038652,2,0,P|77:197|119:169,1,95
196,14,1039144,1,8,0:0:0:0:
342,119,1039390,1,0,0:0:0:0:
357,130,1039513,1,0,0:0:0:0:
372,140,1039636,1,0,0:0:0:0:
114,173,1039882,1,8,0:1:0:0:
114,173,1040128,1,8,0:1:0:0:
239,330,1040374,5,0,0:0:0:0:
254,341,1040497,1,0,0:0:0:0:
270,351,1040620,2,0,L|367:346,1,95
486,208,1041111,1,8,0:0:0:0:
486,208,1041603,5,0,0:0:0:0:
368,40,1041849,2,0,L|269:46,1,95,0|8,0:0|0:0,0:0:0:0:
167,204,1042341,1,0,0:0:0:0:
153,217,1042464,1,0,0:0:0:0:
139,229,1042587,6,0,P|91:234|43:214,1,95
0,22,1043079,1,8,0:0:0:0:
0,22,1043570,5,0,0:0:0:0:
139,141,1043816,1,8,0:1:0:0:
139,141,1044062,1,8,0:1:0:0:
291,20,1044308,1,0,0:0:0:0:
304,33,1044431,1,0,0:0:0:0:
312,50,1044554,6,0,P|328:93|323:153,1,95
178,267,1045046,1,8,0:0:0:0:
339,364,1045292,1,0,0:0:0:0:
357,362,1045415,1,0,0:0:0:0:
376,361,1045538,1,0,0:0:0:0:
507,228,1045784,2,0,B|513:194|513:194|510:128,1,95,0|8,0:0|0:0,0:0:0:0:
303,30,1046275,5,0,0:0:0:0:
284,33,1046398,1,0,0:0:0:0:
265,36,1046521,1,0,0:0:0:0:
232,279,1046767,1,0,0:0:0:0:
122,59,1047013,1,8,0:0:0:0:
347,170,1047259,1,0,0:0:0:0:
347,170,1047382,1,0,0:0:0:0:
347,170,1047505,1,0,0:0:0:0:
97,211,1047751,1,0,0:0:0:0:
97,211,1047874,1,0,0:0:0:0:
97,211,1047997,1,8,0:0:0:0:
295,363,1048243,5,0,0:0:0:0:
295,363,1048366,1,0,0:0:0:0:
295,363,1048488,2,0,P|341:373|394:361,1,95,6|0,0:0|0:0,0:0:0:0:
287,212,1048980,1,8,0:0:0:0:
155,338,1049226,1,0,0:0:0:0:
141,350,1049349,1,0,0:0:0:0:
127,363,1049472,1,0,0:0:0:0:
72,181,1049718,2,0,B|118:172|118:172|174:182,1,95,0|8,0:0|0:0,0:0:0:0:
270,326,1050210,5,0,0:0:0:0:
282,340,1050333,1,0,0:0:0:0:
294,354,1050456,1,0,0:0:0:0:
450,261,1050702,1,0,0:0:0:0:
276,183,1050948,2,0,P|267:132|275:88,1,95,8|0,0:0|0:0,0:0:0:0:
281,72,1051316,1,0,0:0:0:0:
294,58,1051439,1,0,0:0:0:0:
497,157,1051685,1,8,0:0:0:0:
497,157,1051931,1,8,0:0:0:0:
285,270,1052177,1,0,0:0:0:0:
265,270,1052300,1,0,0:0:0:0:
246,271,1052423,6,0,L|139:269,1,95
0,362,1052915,1,8,0:0:0:0:
5,179,1053161,1,0,0:0:0:0:
7,160,1053284,1,0,0:0:0:0:
8,141,1053407,1,0,0:0:0:0:
203,107,1053652,2,0,B|209:138|209:138|204:213,1,95,0|8,0:0|0:0,0:0:0:0:
105,40,1054144,5,0,0:0:0:0:
105,40,1054267,1,0,0:0:0:0:
105,40,1054390,1,0,0:0:0:0:
309,28,1054636,1,0,0:0:0:0:
204,201,1054882,1,8,0:0:0:0:
212,17,1055128,1,0,0:0:0:0:
212,17,1055251,1,0,0:0:0:0:
212,17,1055374,1,0,0:0:0:0:
55,132,1055620,1,8,0:1:0:0:
55,132,1055866,1,8,0:1:0:0:
291,212,1056111,5,0,0:0:0:0:
291,212,1056234,1,0,0:0:0:0:
291,212,1056357,2,0,P|339:214|386:188,1,95
493,23,1056849,1,8,0:0:0:0:
493,23,1057341,5,0,0:0:0:0:
459,180,1057587,2,0,L|441:275,1,95,0|8,0:0|0:0,0:0:0:0:
370,37,1058079,1,0,0:0:0:0:
352,30,1058202,1,0,0:0:0:0:
333,26,1058325,6,0,P|288:22|233:40,1,95
154,214,1058816,1,8,0:0:0:0:
154,214,1059308,5,0,0:0:0:0:
76,43,1059554,1,8,0:1:0:0:
76,43,1059800,1,8,0:1:0:0:
0,227,1060046,1,0,0:0:0:0:
0,227,1060169,1,0,0:0:0:0:
0,227,1060292,6,0,L|9:323,1,95
76,128,1060784,1,8,0:0:0:0:
158,288,1061029,1,0,0:0:0:0:
161,306,1061152,1,0,0:0:0:0:
165,324,1061275,1,0,0:0:0:0:
287,121,1061521,1,0,0:0:0:0:
290,139,1061644,1,0,0:0:0:0:
293,157,1061767,1,8,0:0:0:0:
296,175,1061890,1,0,0:0:0:0:
299,193,1062013,1,0,0:0:0:0:
302,211,1062136,1,0,0:0:0:0:
305,229,1062259,5,6,0:0:0:0:
387,189,1062505,1,0,0:0:0:0:
346,285,1062751,5,8,0:0:0:0:
324,146,1062997,1,0,0:0:0:0:
443,253,1063243,5,0,0:0:0:0:
276,217,1063488,1,0,0:0:0:0:
426,333,1063734,5,8,0:0:0:0:
363,138,1063980,1,0,0:0:0:0:
223,302,1064226,5,0,0:0:0:0:
477,275,1064472,1,0,0:0:0:0:
204,179,1064718,5,8,0:0:0:0:
490,120,1064964,1,0,0:0:0:0:
298,369,1065210,5,0,0:0:0:0:
297,39,1065456,1,0,0:0:0:0:
297,39,1065702,1,8,0:0:0:0:
113,185,1065948,5,0,0:0:0:0:
120,193,1066070,1,0,0:0:0:0:
120,193,1066193,1,6,0:0:0:0:
243,365,1066439,1,0,0:0:0:0:
374,161,1066685,5,8,0:0:0:0:
285,192,1066931,1,0,0:0:0:0:
421,228,1067177,5,0,0:0:0:0:
246,182,1067423,1,0,0:0:0:0:
391,312,1067669,5,8,0:0:0:0:
350,92,1067915,1,0,0:0:0:0:
221,296,1068161,5,0,0:0:0:0:
477,202,1068407,1,0,0:0:0:0:
176,178,1068652,5,8,0:0:0:0:
441,355,1068898,1,0,0:0:0:0:
347,36,1069144,5,0,0:0:0:0:
212,364,1069390,1,0,0:0:0:0:
212,364,1069636,1,8,0:0:0:0:
345,209,1069882,5,0,0:0:0:0:
345,209,1070005,1,0,0:0:0:0:
345,209,1070128,1,6,0:0:0:0:
251,12,1070374,1,0,0:0:0:0:
36,94,1070620,5,8,0:0:0:0:
72,20,1070866,1,0,0:0:0:0:
92,156,1071111,5,0,0:0:0:0:
157,34,1071357,1,0,0:0:0:0:
156,217,1071603,5,8,0:0:0:0:
242,49,1071849,1,0,0:0:0:0:
223,273,1072095,5,0,0:0:0:0:
329,64,1072341,1,0,0:0:0:0:
296,326,1072587,5,8,0:0:0:0:
417,81,1072833,1,0,0:0:0:0:
372,373,1073079,5,0,0:0:0:0:
512,95,1073325,1,0,0:0:0:0:
512,95,1073570,1,8,0:0:0:0:
487,337,1073816,5,0,0:0:0:0:
487,337,1073939,1,0,0:0:0:0:
487,337,1074062,1,6,0:0:0:0:
512,95,1074308,1,0,0:0:0:0:
295,158,1074554,6,0,P|240:156|267:89,1,142.5,8|0,0:0|0:0,0:0:0:0:
209,18,1075046,2,0,P|230:76|168:83,1,142.5
131,162,1075538,2,0,P|170:114|208:163,1,142.5,8|0,0:0|0:0,0:0:0:0:
143,253,1076029,5,6,0:0:0:0:
143,253,1076152,1,0,0:0:0:0:
131,162,1076398,1,0,0:0:0:0:
131,162,1076521,1,8,0:0:0:0:
221,151,1076767,1,0,0:0:0:0:
221,151,1076890,1,0,0:0:0:0:
231,240,1077136,1,0,0:0:0:0:
231,240,1077259,1,0,0:0:0:0:
67,216,1077505,5,8,0:0:0:0:
171,78,1077751,1,0,0:0:0:0:
95,315,1077997,5,6,0:0:0:0:
95,315,1078120,1,0,0:0:0:0:
68,97,1078366,1,0,0:0:0:0:
68,97,1078488,1,8,0:0:0:0:
280,73,1078734,1,0,0:0:0:0:
280,73,1078857,1,0,0:0:0:0:
306,284,1079103,1,0,0:0:0:0:
306,284,1079226,1,0,0:0:0:0:
21,215,1079472,5,8,0:0:0:0:
170,46,1079718,1,0,0:0:0:0:
56,360,1079964,5,6,0:0:0:0:
56,360,1080087,1,0,0:0:0:0:
19,61,1080333,1,0,0:0:0:0:
19,61,1080456,1,8,0:0:0:0:
315,26,1080702,1,0,0:0:0:0:
315,26,1080825,1,0,0:0:0:0:
350,319,1081070,1,0,0:0:0:0:
350,319,1081193,1,0,0:0:0:0:
506,172,1081439,6,0,L|513:237,1,59.375,8|0,0:0|0:0,0:0:0:0:
409,103,1081685,2,0,L|401:171,1,59.375
465,35,1081931,2,0,P|407:14|346:40,1,118.75,6|0,0:0|0:0,0:0:0:0:
244,6,1082300,2,0,P|244:62|293:120,1,118.75,6|0,0:0|0:0,0:0:0:0:
409,89,1082669,1,6,0:0:0:0:
409,89,1083161,2,0,B|367:108|323:91|323:91|288:112|239:112|239:112|207:88|161:95,1,237.5,6|0,0:0|0:0,0:0:0:0:
131,97,1083775,1,0,0:0:0:0:
83,100,1083898,5,6,0:0:0:0:
83,100,1084636,6,0,L|40:105,2,39.5833333333333
118,136,1084882,2,0,B|146:193|118:252|118:252|94:323|131:378,1,237.5,6|6,0:0|0:0,0:0:0:0:
