osu file format v14

[General]
AudioFilename: audio.mp3
AudioLeadIn: 0
PreviewTime: 256200
Countdown: 0
SampleSet: Soft
StackLeniency: 0.7
Mode: 0
LetterboxInBreaks: 0
WidescreenStoryboard: 1

[Editor]
Bookmarks: 107096,111258,234726,245131,245824,268021,272183,290217
DistanceSpacing: 1.5
BeatDivisor: 4
GridSize: 32
TimelineZoom: 1.4

[Metadata]
Title:Jiwaru DAYS
TitleUnicode:ジワるDAYS
Artist:AKB48
ArtistUnicode:AKB48
Creator:kauanzexal
Version:Graduation
Source:
Tags:Rino Sashihara
BeatmapID:1945574
BeatmapSetID:931806

[Difficulty]
HPDrainRate:5
CircleSize:4
OverallDifficulty:9
ApproachRate:9.5
SliderMultiplier:1.33
SliderTickRate:1

[Events]
//Background and Video events
0,0,"BG.jpg",0,0
//Break Periods
2,26834,34264
//Storyboard Layer 0 (Background)
//Storyboard Layer 1 (Fail)
//Storyboard Layer 2 (Pass)
//Storyboard Layer 3 (Foreground)
//Storyboard Sound Samples

[TimingPoints]
1663,346.820809248555,4,2,0,50,1,0
1663,-83.3333333333333,4,2,0,50,0,0
3743,-100,4,2,0,50,0,0
4437,-76.9230769230769,4,2,0,50,0,0
15535,-66.6666666666667,4,2,0,50,0,0
21084,-62.5,4,2,0,50,0,0
22732,-62.5,4,2,0,5,0,0
22819,-62.5,4,2,0,50,0,0
23426,-62.5,4,2,0,5,0,0
23512,-62.5,4,2,0,50,0,0
23859,-43.4782608695652,4,2,0,50,0,0
25333,-90.9090909090909,4,2,0,50,0,0
25680,-83.3333333333333,4,2,0,50,0,0
25767,-76.9230769230769,4,2,0,50,0,0
26027,-43.4782608695652,4,2,0,50,0,0
26287,-83.3333333333333,4,2,0,50,0,0
34957,-71.4285714285714,4,2,0,50,0,0
35087,-71.4285714285714,4,2,0,5,0,0
35131,-71.4285714285714,4,2,0,50,0,0
35608,-71.4285714285714,4,2,0,5,0,0
35651,-71.4285714285714,4,2,0,50,0,0
36648,-71.4285714285714,4,2,0,5,0,0
36691,-71.4285714285714,4,2,0,50,0,0
37168,-71.4285714285714,4,2,0,5,0,0
37212,-71.4285714285714,4,2,0,50,0,0
37732,-100,4,2,0,50,0,0
46056,-83.3333333333333,4,2,0,50,0,0
48830,-100,4,2,0,50,0,0
59928,-100,4,2,0,50,0,0
68252,-83.3333333333333,4,2,0,50,0,0
73801,-71.4285714285714,4,2,0,50,0,1
95304,-71.4285714285714,4,2,0,50,0,0
95998,-71.4285714285714,4,2,0,50,0,1
118194,-83.3333333333333,4,2,0,50,0,0
129293,-71.4285714285714,4,2,0,50,0,0
129423,-71.4285714285714,4,2,0,5,0,0
129466,-71.4285714285714,4,2,0,50,0,0
129813,-71.4285714285714,4,2,0,50,0,0
129943,-71.4285714285714,4,2,0,5,0,0
129986,-71.4285714285714,4,2,0,50,0,0
130983,-71.4285714285714,4,2,0,5,0,0
131027,-71.4285714285714,4,2,0,50,0,0
131504,-71.4285714285714,4,2,0,5,0,0
131547,-71.4285714285714,4,2,0,50,0,0
132067,-100,4,2,0,50,0,0
140391,-100,4,2,0,50,0,0
143165,-100,4,2,0,50,0,0
154264,-100,4,2,0,50,0,0
168136,-71.4285714285714,4,2,0,50,0,1
189639,-71.4285714285714,4,2,0,50,0,0
190333,-71.4285714285714,4,2,0,50,0,1
209755,-90.9090909090909,4,2,0,50,0,0
223628,-90.9090909090909,4,2,0,50,0,0
234726,-90.9090909090909,4,2,0,50,0,0
245824,-90.9090909090909,4,2,0,50,0,0
251373,-71.4285714285714,4,2,0,50,0,0
257269,-71.4285714285714,4,2,0,50,0,1
279119,-71.4285714285714,4,2,0,50,0,0

[Colours]
Combo1 : 255,192,0
Combo2 : 0,202,0
Combo3 : 18,124,255
Combo4 : 242,24,57

[HitObjects]
39,37,1663,6,0,P|57:100|77:122,1,79.7999975646973
162,104,2009,2,0,P|144:167|124:189,1,79.7999975646973
40,195,2356,2,0,P|73:251|98:267,1,79.7999975646973
180,276,2703,2,0,P|146:332|121:348,1,79.7999975646973
198,265,3050,5,0,0:0:0:0:
240,177,3223,5,0,0:0:0:0:
177,102,3397,5,0,0:0:0:0:
298,58,3570,5,0,0:0:0:0:
394,75,3743,6,0,P|390:112|399:142,1,66.5
441,260,4090,1,0,0:0:0:0:
71,260,4437,5,0,0:0:0:0:
256,213,4610,1,0,0:0:0:0:
120,79,4784,2,0,L|144:171,1,86.4499960426332
172,261,5131,5,0,0:0:0:0:
268,96,5304,1,0,0:0:0:0:
320,280,5478,2,0,L|228:304,1,86.4499960426332
421,255,5824,6,0,L|444:167,1,86.4499960426332
468,70,6171,1,0,0:0:0:0:
302,164,6345,1,0,0:0:0:0:
326,62,6518,5,0,0:0:0:0:
283,60,6604,1,0,0:0:0:0:
243,76,6691,1,0,0:0:0:0:
213,107,6778,1,0,0:0:0:0:
198,147,6865,2,0,P|158:170|105:172,1,86.4499960426332
127,68,7212,5,0,0:0:0:0:
43,239,7385,1,0,0:0:0:0:
197,348,7558,2,0,L|102:282,1,86.4499960426332
281,177,7905,5,0,0:0:0:0:
207,252,8079,1,0,0:0:0:0:
299,305,8252,2,0,L|366:238,1,86.4499960426332
444,72,8599,5,0,0:0:0:0:
353,125,8772,1,0,0:0:0:0:
446,291,8946,1,0,0:0:0:0:
399,106,9119,1,0,0:0:0:0:
308,53,9293,6,0,L|213:78,1,86.4499960426332
196,177,9639,2,0,L|244:262,1,86.4499960426332
72,346,9986,5,0,0:0:0:0:
106,158,10160,1,0,0:0:0:0:
205,324,10333,2,0,P|170:295|123:276,1,86.4499960426332
78,263,10593,1,0,0:0:0:0:
28,235,10680,1,0,0:0:0:0:
0,185,10767,1,0,0:0:0:0:
1,129,10853,1,0,0:0:0:0:
30,80,10940,1,0,0:0:0:0:
79,52,11027,5,0,0:0:0:0:
207,34,11200,1,0,0:0:0:0:
132,201,11373,5,0,0:0:0:0:
217,140,11547,1,0,0:0:0:0:
152,320,11720,5,0,0:0:0:0:
318,226,11894,1,0,0:0:0:0:
247,350,12067,5,0,0:0:0:0:
420,270,12241,1,0,0:0:0:0:
299,116,12414,5,0,0:0:0:0:
469,205,12587,1,0,0:0:0:0:
381,33,12761,6,0,P|413:98|379:202,1,172.899992085266
299,116,13281,1,0,0:0:0:0:
187,146,13454,2,0,P|227:206|334:228,1,172.899992085266
432,261,13975,2,0,P|391:321|357:338,1,86.4499960426332
265,328,14321,5,0,0:0:0:0:
211,336,14407,1,0,0:0:0:0:
158,345,14494,1,0,0:0:0:0:
84,287,14668,5,0,0:0:0:0:
32,186,14842,1,0,0:0:0:0:
146,211,15015,2,0,P|120:160|126:107,1,86.4499960426332
236,139,15362,1,0,0:0:0:0:
293,276,15535,6,0,P|369:219|465:244,1,199.500007610321
394,333,16229,1,0,0:0:0:0:
342,114,16402,1,0,0:0:0:0:
342,114,16749,1,0,0:0:0:0:
350,263,16923,6,0,P|290:256|251:229,1,99.7500038051607
160,122,17269,1,0,0:0:0:0:
160,122,17443,1,0,0:0:0:0:
33,201,17616,6,0,L|60:98,1,99.7500038051607
127,238,17963,2,0,L|99:340,1,99.7500038051607
250,319,18310,5,0,0:0:0:0:
396,289,18483,1,0,0:0:0:0:
254,239,18657,1,0,0:0:0:0:
397,196,18830,2,0,L|370:96,1,99.7500038051607
235,35,19177,5,0,0:0:0:0:
299,169,19350,1,0,0:0:0:0:
157,120,19524,1,0,0:0:0:0:
35,206,19697,6,0,P|17:285|116:348,1,199.500007610321
209,243,20217,2,0,L|87:262,1,99.7500038051607
229,349,20564,5,0,0:0:0:0:
299,216,20738,1,0,0:0:0:0:
432,146,20911,1,0,0:0:0:0:
278,104,21084,2,0,L|495:27,1,212.8
395,171,21605,2,0,L|422:274,1,106.4
344,295,21952,1,0,0:0:0:0:
266,273,22125,1,0,0:0:0:0:
123,343,22298,5,0,0:0:0:0:
123,343,22385,1,0,0:0:0:0:
123,343,22472,2,0,P|100:258|135:181,1,159.6
175,131,22819,1,0,0:0:0:0:
43,41,22992,1,0,0:0:0:0:
202,34,23165,6,0,L|285:173,1,159.6
324,239,23512,1,0,0:0:0:0:
328,79,23686,1,0,0:0:0:0:
411,347,23859,5,0,0:0:0:0:
395,118,24032,1,0,0:0:0:0:
252,298,24206,5,0,0:0:0:0:
60,173,24379,1,0,0:0:0:0:
243,33,24553,5,0,0:0:0:0:
151,243,24726,1,0,0:0:0:0:
373,190,24899,5,0,0:0:0:0:
157,108,25073,1,0,0:0:0:0:
324,263,25246,5,0,0:0:0:0:
378,278,25333,1,0,0:0:0:0:
430,294,25420,1,0,0:0:0:0:
483,309,25506,1,0,0:0:0:0:
443,347,25593,5,0,0:0:0:0:
383,340,25680,1,0,0:0:0:0:
317,335,25767,1,0,0:0:0:0:
253,329,25853,1,0,0:0:0:0:
187,323,25940,5,0,0:0:0:0:
316,134,26113,1,0,0:0:0:0:
253,236,26287,5,0,0:0:0:0:
224,208,26373,1,0,0:0:0:0:
205,173,26460,1,0,0:0:0:0:
198,134,26547,1,0,0:0:0:0:
204,95,26634,5,0,0:0:0:0:
64,96,34957,6,0,L|100:158,1,69.8249978691102
28,33,35131,1,0,0:0:0:0:
102,332,35478,6,0,L|170:314,1,69.8249978691102
32,352,35652,1,0,0:0:0:0:
384,93,35998,5,0,0:0:0:0:
467,340,36171,1,0,0:0:0:0:
219,160,36518,6,0,L|183:98,1,69.8249978691102
255,223,36692,1,0,0:0:0:0:
402,266,36865,5,0,0:0:0:0:
402,266,36952,1,0,0:0:0:0:
402,266,37038,2,0,L|366:203,1,69.8249978691102
438,328,37212,1,0,0:0:0:0:
268,341,37385,6,0,P|213:308|96:344,1,186.199994317627
