osu file format v14

[General]
AudioFilename: 01. Aitakatta.mp3
AudioLeadIn: 0
PreviewTime: 67753
Countdown: 1
SampleSet: None
StackLeniency: 0.7
Mode: 1
LetterboxInBreaks: 0
WidescreenStoryboard: 1

[Editor]
DistanceSpacing: 1
BeatDivisor: 4
GridSize: 32
TimelineZoom: 1.7

[Metadata]
Title:Aitakatta
TitleUnicode:会いたかった
Artist:AKB48
ArtistUnicode:AKB48
Creator:chaica
Version:Taiko Oni
Source:
Tags:田口智則 taguchi tomonori 稲留春雄 inadome haruo 秋元康 akimoto yasushi bounceback hallohallo entertainment star music
BeatmapID:1933043
BeatmapSetID:925402

[Difficulty]
HPDrainRate:6
CircleSize:6
OverallDifficulty:6
ApproachRate:9
SliderMultiplier:1.4
SliderTickRate:1

[Events]
//Background and Video events
0,0,"61K6qzTAqFL.jpg",0,20
//Break Periods
//Storyboard Layer 0 (Background)
//Storyboard Layer 1 (Fail)
//Storyboard Layer 2 (Pass)
//Storyboard Layer 3 (Foreground)
//Storyboard Sound Samples

[TimingPoints]
2832,312.5,4,1,0,70,1,0
7832,-100,4,1,0,90,0,1
18144,-100,4,1,0,80,0,0
67832,-100,4,1,0,96,0,1
87050,-100,4,1,0,56,0,0
87832,-100,4,1,0,91,0,1
98457,-100,4,1,0,81,0,0

[HitObjects]
256,192,2832,5,8,0:0:0:0:
256,192,2988,1,0,0:0:0:0:
256,192,3144,1,8,0:0:0:0:
256,192,3300,1,0,0:0:0:0:
256,192,3378,1,0,0:0:0:0:
256,192,3457,1,8,0:0:0:0:
256,192,3613,1,8,0:0:0:0:
256,192,3769,1,0,0:0:0:0:
256,192,3925,1,0,0:0:0:0:
256,192,4082,1,12,0:0:0:0:
256,192,4238,1,0,0:0:0:0:
256,192,4394,1,8,0:0:0:0:
256,192,4550,1,0,0:0:0:0:
256,192,4628,1,0,0:0:0:0:
256,192,4707,1,8,0:0:0:0:
256,192,4863,1,8,0:0:0:0:
256,192,5019,1,8,0:0:0:0:
256,192,5175,1,0,0:0:0:0:
256,192,5332,1,8,0:0:0:0:
256,192,5488,1,0,0:0:0:0:
256,192,5566,1,0,0:0:0:0:
256,192,5644,1,8,0:0:0:0:
256,192,5800,1,0,0:0:0:0:
256,192,5957,1,8,0:0:0:0:
256,192,6113,1,0,0:0:0:0:
256,192,6191,1,0,0:0:0:0:
256,192,6269,1,8,0:0:0:0:
256,192,6425,1,0,0:0:0:0:
256,192,6582,1,12,0:0:0:0:
256,192,6738,1,0,0:0:0:0:
256,192,6816,1,0,0:0:0:0:
256,192,6894,1,8,0:0:0:0:
256,192,7050,1,0,0:0:0:0:
256,192,7207,1,8,0:0:0:0:
256,192,7363,1,8,0:0:0:0:
256,192,7519,1,4,0:0:0:0:
256,192,7832,1,4,0:0:0:0:
256,192,7988,1,0,0:0:0:0:
256,192,8066,1,0,0:0:0:0:
256,192,8144,1,8,0:0:0:0:
256,192,8300,1,0,0:0:0:0:
256,192,8457,1,8,0:0:0:0:
256,192,8613,1,0,0:0:0:0:
256,192,8769,1,8,0:0:0:0:
256,192,8925,1,8,0:0:0:0:
256,192,9082,1,4,0:0:0:0:
256,192,9238,1,0,0:0:0:0:
256,192,9316,1,0,0:0:0:0:
256,192,9394,1,8,0:0:0:0:
256,192,9550,1,0,0:0:0:0:
256,192,9707,1,8,0:0:0:0:
256,192,9863,1,8,0:0:0:0:
256,192,10019,1,0,0:0:0:0:
256,192,10175,1,8,0:0:0:0:
256,192,10332,1,4,0:0:0:0:
256,192,10488,1,0,0:0:0:0:
256,192,10566,1,0,0:0:0:0:
256,192,10644,1,8,0:0:0:0:
256,192,10800,1,0,0:0:0:0:
256,192,10957,1,8,0:0:0:0:
256,192,11035,1,8,0:0:0:0:
256,192,11113,1,0,0:0:0:0:
256,192,11269,1,0,0:0:0:0:
256,192,11347,1,0,0:0:0:0:
256,192,11425,1,8,0:0:0:0:
256,192,11503,1,0,0:0:0:0:
256,192,11582,1,8,0:0:0:0:
256,192,11894,1,4,0:0:0:0:
256,192,12207,1,12,0:0:0:0:
256,192,12519,1,12,0:0:0:0:
256,192,12832,1,4,0:0:0:0:
256,192,12988,1,0,0:0:0:0:
256,192,13066,1,0,0:0:0:0:
256,192,13144,1,8,0:0:0:0:
256,192,13300,1,0,0:0:0:0:
256,192,13457,1,8,0:0:0:0:
256,192,13613,1,0,0:0:0:0:
256,192,13769,1,8,0:0:0:0:
256,192,13847,1,0,0:0:0:0:
256,192,13925,1,0,0:0:0:0:
256,192,14082,1,4,0:0:0:0:
256,192,14238,1,0,0:0:0:0:
256,192,14316,1,0,0:0:0:0:
256,192,14394,1,8,0:0:0:0:
256,192,14550,1,8,0:0:0:0:
256,192,14707,1,0,0:0:0:0:
256,192,14863,1,8,0:0:0:0:
256,192,14941,1,0,0:0:0:0:
256,192,15019,1,8,0:0:0:0:
256,192,15175,1,8,0:0:0:0:
256,192,15332,1,4,0:0:0:0:
256,192,15488,1,0,0:0:0:0:
256,192,15566,1,0,0:0:0:0:
256,192,15644,1,8,0:0:0:0:
256,192,15800,1,0,0:0:0:0:
256,192,15957,1,8,0:0:0:0:
256,192,16035,1,8,0:0:0:0:
256,192,16113,1,0,0:0:0:0:
256,192,16269,1,0,0:0:0:0:
256,192,16347,1,0,0:0:0:0:
256,192,16425,1,8,0:0:0:0:
256,192,16503,1,8,0:0:0:0:
256,192,16582,1,8,0:0:0:0:
256,192,16894,1,4,0:0:0:0:
256,192,17207,1,12,0:0:0:0:
256,192,17519,1,12,0:0:0:0:
256,192,17832,1,0,0:0:0:0:
256,192,18144,1,12,0:0:0:0:
256,192,18300,1,0,0:0:0:0:
256,192,18457,1,0,0:0:0:0:
256,192,18535,1,0,0:0:0:0:
256,192,18613,1,0,0:0:0:0:
256,192,18769,1,8,0:0:0:0:
256,192,18925,1,0,0:0:0:0:
256,192,19082,1,8,0:0:0:0:
256,192,19160,1,8,0:0:0:0:
256,192,19238,1,0,0:0:0:0:
256,192,19394,1,0,0:0:0:0:
256,192,19550,1,8,0:0:0:0:
256,192,19707,1,0,0:0:0:0:
256,192,19863,1,0,0:0:0:0:
256,192,20019,1,8,0:0:0:0:
256,192,20175,1,8,0:0:0:0:
256,192,20332,1,0,0:0:0:0:
256,192,20644,1,12,0:0:0:0:
256,192,20957,1,0,0:0:0:0:
256,192,21113,1,0,0:0:0:0:
256,192,21191,1,0,0:0:0:0:
256,192,21269,1,8,0:0:0:0:
256,192,21425,1,0,0:0:0:0:
256,192,21582,1,8,0:0:0:0:
256,192,21738,1,0,0:0:0:0:
256,192,21894,1,8,0:0:0:0:
256,192,22050,1,8,0:0:0:0:
256,192,22128,1,8,0:0:0:0:
256,192,22207,1,0,0:0:0:0:
256,192,22363,1,8,0:0:0:0:
256,192,22441,1,8,0:0:0:0:
256,192,22519,1,8,0:0:0:0:
256,192,22675,1,0,0:0:0:0:
256,192,22832,1,12,0:0:0:0:
256,192,23144,1,8,0:0:0:0:
256,192,23300,1,0,0:0:0:0:
256,192,23613,1,0,0:0:0:0:
256,192,23769,1,8,0:0:0:0:
256,192,23925,1,0,0:0:0:0:
256,192,24082,1,8,0:0:0:0:
256,192,24394,1,8,0:0:0:0:
256,192,24707,1,0,0:0:0:0:
256,192,24863,1,0,0:0:0:0:
256,192,25019,1,8,0:0:0:0:
256,192,25175,1,8,0:0:0:0:
256,192,25332,1,8,0:0:0:0:
256,192,25644,1,8,0:0:0:0:
256,192,25957,1,0,0:0:0:0:
256,192,26269,1,8,0:0:0:0:
256,192,26582,1,8,0:0:0:0:
256,192,26738,1,0,0:0:0:0:
256,192,26894,1,8,0:0:0:0:
256,192,27050,1,0,0:0:0:0:
256,192,27363,1,0,0:0:0:0:
256,192,27519,1,8,0:0:0:0:
256,192,27675,1,0,0:0:0:0:
256,192,27832,1,8,0:0:0:0:
256,192,28144,1,8,0:0:0:0:
256,192,28457,1,0,0:0:0:0:
256,192,28613,1,0,0:0:0:0:
256,192,28769,1,8,0:0:0:0:
256,192,28925,1,0,0:0:0:0:
256,192,29082,1,8,0:0:0:0:
256,192,29394,1,8,0:0:0:0:
256,192,29707,1,0,0:0:0:0:
256,192,29863,1,8,0:0:0:0:
256,192,30019,1,8,0:0:0:0:
256,192,30175,1,0,0:0:0:0:
256,192,30332,1,12,0:0:0:0:
256,192,30644,1,0,0:0:0:0:
256,192,30800,1,0,0:0:0:0:
256,192,30957,1,8,0:0:0:0:
256,192,31269,1,0,0:0:0:0:
256,192,31582,1,8,0:0:0:0:
256,192,31738,1,0,0:0:0:0:
256,192,31894,1,8,0:0:0:0:
256,192,32050,1,8,0:0:0:0:
256,192,32363,1,8,0:0:0:0:
256,192,32519,1,8,0:0:0:0:
256,192,32675,1,0,0:0:0:0:
256,192,32832,1,12,0:0:0:0:
256,192,33144,1,8,0:0:0:0:
256,192,33300,1,0,0:0:0:0:
256,192,33613,1,0,0:0:0:0:
256,192,33769,1,8,0:0:0:0:
256,192,33925,1,0,0:0:0:0:
256,192,34082,1,8,0:0:0:0:
256,192,34394,1,8,0:0:0:0:
256,192,34707,1,8,0:0:0:0:
256,192,34863,1,0,0:0:0:0:
256,192,35019,1,8,0:0:0:0:
256,192,35175,1,0,0:0:0:0:
256,192,35332,1,8,0:0:0:0:
256,192,35644,1,8,0:0:0:0:
256,192,35957,1,0,0:0:0:0:
256,192,36113,1,0,0:0:0:0:
256,192,36269,1,8,0:0:0:0:
256,192,36425,1,0,0:0:0:0:
256,192,36503,1,0,0:0:0:0:
256,192,36582,1,8,0:0:0:0:
256,192,36738,1,0,0:0:0:0:
256,192,36894,1,8,0:0:0:0:
256,192,37050,1,0,0:0:0:0:
256,192,37363,1,0,0:0:0:0:
256,192,37519,1,8,0:0:0:0:
256,192,37675,1,0,0:0:0:0:
256,192,37832,1,12,0:0:0:0:
256,192,38144,1,8,0:0:0:0:
256,192,38457,1,0,0:0:0:0:
256,192,38613,1,0,0:0:0:0:
256,192,38769,1,8,0:0:0:0:
256,192,38925,1,0,0:0:0:0:
256,192,39082,1,8,0:0:0:0:
256,192,39394,1,8,0:0:0:0:
256,192,39550,1,0,0:0:0:0:
256,192,39707,1,8,0:0:0:0:
256,192,39785,1,8,0:0:0:0:
256,192,39863,1,8,0:0:0:0:
256,192,40019,1,8,0:0:0:0:
256,192,40175,1,0,0:0:0:0:
256,192,40332,1,12,0:0:0:0:
256,192,40488,1,0,0:0:0:0:
256,192,40644,1,8,0:0:0:0:
256,192,40800,1,0,0:0:0:0:
256,192,40878,1,0,0:0:0:0:
256,192,40957,1,8,0:0:0:0:
256,192,41113,1,0,0:0:0:0:
256,192,41269,1,8,0:0:0:0:
256,192,41582,1,8,0:0:0:0:
256,192,41738,1,0,0:0:0:0:
256,192,41894,1,8,0:0:0:0:
256,192,42050,1,8,0:0:0:0:
256,192,42128,1,8,0:0:0:0:
256,192,42207,1,0,0:0:0:0:
256,192,42363,1,8,0:0:0:0:
256,192,42441,1,8,0:0:0:0:
256,192,42519,1,8,0:0:0:0:
256,192,42675,1,8,0:0:0:0:
256,192,42832,1,4,0:0:0:0:
256,192,43144,1,8,0:0:0:0:
256,192,43457,1,0,0:0:0:0:
256,192,43613,1,0,0:0:0:0:
256,192,43691,1,0,0:0:0:0:
256,192,43769,1,8,0:0:0:0:
256,192,43925,1,8,0:0:0:0:
256,192,44082,1,0,0:0:0:0:
256,192,44394,1,8,0:0:0:0:
256,192,44707,1,0,0:0:0:0:
256,192,44863,1,8,0:0:0:0:
256,192,45019,1,8,0:0:0:0:
256,192,45332,1,4,0:0:0:0:
256,192,45488,1,0,0:0:0:0:
256,192,45566,1,0,0:0:0:0:
256,192,45644,1,8,0:0:0:0:
256,192,45800,1,8,0:0:0:0:
256,192,45957,1,0,0:0:0:0:
256,192,46113,1,8,0:0:0:0:
256,192,46191,1,0,0:0:0:0:
256,192,46269,1,8,0:0:0:0:
256,192,46582,1,0,0:0:0:0:
256,192,46738,1,8,0:0:0:0:
256,192,46816,1,0,0:0:0:0:
256,192,46894,1,8,0:0:0:0:
256,192,47050,1,8,0:0:0:0:
256,192,47207,1,0,0:0:0:0:
256,192,47363,1,0,0:0:0:0:
256,192,47441,1,0,0:0:0:0:
256,192,47519,1,8,0:0:0:0:
256,192,47832,1,4,0:0:0:0:
256,192,48144,1,8,0:0:0:0:
256,192,48457,1,0,0:0:0:0:
256,192,48613,1,0,0:0:0:0:
256,192,48769,1,8,0:0:0:0:
256,192,48925,1,8,0:0:0:0:
256,192,49003,1,8,0:0:0:0:
256,192,49082,1,0,0:0:0:0:
256,192,49394,1,8,0:0:0:0:
256,192,49707,1,0,0:0:0:0:
256,192,49863,1,0,0:0:0:0:
256,192,50019,1,8,0:0:0:0:
256,192,50332,1,4,0:0:0:0:
256,192,50488,1,8,0:0:0:0:
256,192,50566,1,0,0:0:0:0:
256,192,50644,1,8,0:0:0:0:
256,192,50800,1,0,0:0:0:0:
256,192,50957,1,8,0:0:0:0:
256,192,51113,1,0,0:0:0:0:
256,192,51191,1,0,0:0:0:0:
256,192,51269,1,8,0:0:0:0:
256,192,51582,1,0,0:0:0:0:
256,192,51738,1,0,0:0:0:0:
256,192,51816,1,0,0:0:0:0:
256,192,51894,1,8,0:0:0:0:
256,192,52050,1,8,0:0:0:0:
256,192,52207,1,0,0:0:0:0:
256,192,52363,1,8,0:0:0:0:
256,192,52441,1,0,0:0:0:0:
256,192,52519,1,8,0:0:0:0:
256,192,52675,1,8,0:0:0:0:
256,192,52832,1,4,0:0:0:0:
256,192,53144,1,12,0:0:0:0:
256,192,53300,1,0,0:0:0:0:
256,192,53457,1,8,0:0:0:0:
256,192,53535,1,8,0:0:0:0:
256,192,53613,1,0,0:0:0:0:
256,192,53769,1,12,0:0:0:0:
256,192,53925,1,0,0:0:0:0:
256,192,54003,1,0,0:0:0:0:
256,192,54082,1,8,0:0:0:0:
256,192,54394,1,12,0:0:0:0:
256,192,54550,1,0,0:0:0:0:
256,192,54707,1,8,0:0:0:0:
256,192,54785,1,0,0:0:0:0:
256,192,54863,1,0,0:0:0:0:
256,192,55019,1,12,0:0:0:0:
256,192,55175,1,8,0:0:0:0:
256,192,55253,1,0,0:0:0:0:
256,192,55332,1,8,0:0:0:0:
256,192,55644,1,8,0:0:0:0:
256,192,55957,1,0,0:0:0:0:
256,192,56269,1,8,0:0:0:0:
256,192,56582,1,0,0:0:0:0:
256,192,56738,1,8,0:0:0:0:
256,192,57050,1,8,0:0:0:0:
256,192,57207,1,4,0:0:0:0:
256,192,57363,1,0,0:0:0:0:
256,192,57519,1,12,0:0:0:0:
256,192,57675,1,0,0:0:0:0:
256,192,57832,1,12,0:0:0:0:
256,192,58144,1,8,0:0:0:0:
256,192,58300,1,0,0:0:0:0:
256,192,58378,1,0,0:0:0:0:
256,192,58457,1,8,0:0:0:0:
256,192,58613,1,0,0:0:0:0:
256,192,58769,1,8,0:0:0:0:
256,192,58925,1,0,0:0:0:0:
256,192,59082,1,8,0:0:0:0:
256,192,59160,1,8,0:0:0:0:
256,192,59238,1,0,0:0:0:0:
256,192,59394,1,8,0:0:0:0:
256,192,59550,1,0,0:0:0:0:
256,192,59628,1,0,0:0:0:0:
256,192,59707,1,8,0:0:0:0:
256,192,60019,1,8,0:0:0:0:
256,192,60332,1,4,0:0:0:0:
256,192,60488,1,0,0:0:0:0:
256,192,60644,1,8,0:0:0:0:
256,192,60800,1,0,0:0:0:0:
256,192,60878,1,0,0:0:0:0:
256,192,60957,1,8,0:0:0:0:
256,192,61113,1,0,0:0:0:0:
256,192,61269,1,8,0:0:0:0:
256,192,61582,1,0,0:0:0:0:
256,192,61894,1,8,0:0:0:0:
256,192,62050,1,0,0:0:0:0:
256,192,62207,1,0,0:0:0:0:
256,192,62363,1,0,0:0:0:0:
256,192,62519,1,12,0:0:0:0:
256,192,62832,1,4,0:0:0:0:
256,192,62988,1,0,0:0:0:0:
256,192,63144,1,12,0:0:0:0:
256,192,63300,1,0,0:0:0:0:
256,192,63457,1,0,0:0:0:0:
256,192,63535,1,0,0:0:0:0:
256,192,63613,1,8,0:0:0:0:
256,192,63769,1,12,0:0:0:0:
256,192,63925,1,0,0:0:0:0:
256,192,64082,1,8,0:0:0:0:
256,192,64160,1,8,0:0:0:0:
256,192,64238,1,0,0:0:0:0:
256,192,64394,1,12,0:0:0:0:
256,192,64550,1,0,0:0:0:0:
256,192,64707,1,0,0:0:0:0:
256,192,64785,1,0,0:0:0:0:
256,192,64863,1,8,0:0:0:0:
256,192,65019,1,12,0:0:0:0:
256,192,65332,1,4,0:0:0:0:
256,192,65488,1,0,0:0:0:0:
256,192,65644,1,12,0:0:0:0:
256,192,65800,1,0,0:0:0:0:
256,192,65957,1,8,0:0:0:0:
256,192,66035,1,8,0:0:0:0:
256,192,66113,1,8,0:0:0:0:
256,192,66191,1,0,0:0:0:0:
256,192,66269,1,8,0:0:0:0:
256,192,66425,1,0,0:0:0:0:
256,192,66582,1,8,0:0:0:0:
256,192,66660,1,8,0:0:0:0:
256,192,66738,1,0,0:0:0:0:
256,192,66816,1,0,0:0:0:0:
256,192,66894,1,8,0:0:0:0:
256,192,66972,1,8,0:0:0:0:
256,192,67050,1,0,0:0:0:0:
256,192,67128,1,0,0:0:0:0:
256,192,67207,1,8,0:0:0:0:
256,192,67285,1,8,0:0:0:0:
256,192,67363,1,0,0:0:0:0:
256,192,67441,1,0,0:0:0:0:
256,192,67519,1,8,0:0:0:0:
256,192,67675,1,0,0:0:0:0:
256,192,67832,1,12,0:0:0:0:
256,192,67988,1,0,0:0:0:0:
256,192,68066,1,0,0:0:0:0:
256,192,68144,1,8,0:0:0:0:
256,192,68300,1,0,0:0:0:0:
256,192,68457,1,8,0:0:0:0:
256,192,68613,1,8,0:0:0:0:
256,192,68691,1,8,0:0:0:0:
256,192,68769,1,8,0:0:0:0:
256,192,68925,1,0,0:0:0:0:
256,192,69082,1,8,0:0:0:0:
256,192,69394,1,8,0:0:0:0:
256,192,69550,1,0,0:0:0:0:
256,192,69707,1,8,0:0:0:0:
256,192,69863,1,0,0:0:0:0:
256,192,69941,1,0,0:0:0:0:
256,192,70019,1,8,0:0:0:0:
256,192,70175,1,0,0:0:0:0:
256,192,70332,1,8,0:0:0:0:
256,192,70488,1,0,0:0:0:0:
256,192,70644,1,8,0:0:0:0:
256,192,70722,1,8,0:0:0:0:
256,192,70800,1,0,0:0:0:0:
256,192,70957,1,8,0:0:0:0:
256,192,71113,1,0,0:0:0:0:
256,192,71191,1,0,0:0:0:0:
256,192,71269,1,8,0:0:0:0:
256,192,71425,1,0,0:0:0:0:
256,192,71582,1,8,0:0:0:0:
256,192,71894,1,8,0:0:0:0:
256,192,72050,1,0,0:0:0:0:
256,192,72128,1,0,0:0:0:0:
256,192,72207,1,8,0:0:0:0:
256,192,72285,1,8,0:0:0:0:
256,192,72363,1,0,0:0:0:0:
256,192,72519,1,8,0:0:0:0:
256,192,72675,1,0,0:0:0:0:
256,192,72832,1,8,0:0:0:0:
256,192,72988,1,0,0:0:0:0:
256,192,73066,1,0,0:0:0:0:
256,192,73144,1,8,0:0:0:0:
256,192,73300,1,0,0:0:0:0:
256,192,73457,1,8,0:0:0:0:
256,192,73613,1,0,0:0:0:0:
256,192,73691,1,8,0:0:0:0:
256,192,73769,1,8,0:0:0:0:
256,192,73925,1,0,0:0:0:0:
256,192,74082,1,8,0:0:0:0:
256,192,74394,1,8,0:0:0:0:
256,192,74550,1,0,0:0:0:0:
256,192,74707,1,8,0:0:0:0:
256,192,74785,1,8,0:0:0:0:
256,192,74863,1,0,0:0:0:0:
256,192,74941,1,0,0:0:0:0:
256,192,75019,1,8,0:0:0:0:
256,192,75175,1,0,0:0:0:0:
256,192,75332,1,8,0:0:0:0:
256,192,75410,1,0,0:0:0:0:
256,192,75488,1,8,0:0:0:0:
256,192,75644,1,8,0:0:0:0:
256,192,75800,1,0,0:0:0:0:
256,192,75878,1,0,0:0:0:0:
256,192,75957,1,8,0:0:0:0:
256,192,76035,1,8,0:0:0:0:
256,192,76113,1,0,0:0:0:0:
256,192,76269,1,8,0:0:0:0:
256,192,76425,1,8,0:0:0:0:
256,192,76582,1,4,0:0:0:0:
256,192,76894,1,8,0:0:0:0:
256,192,77207,1,0,0:0:0:0:
256,192,77363,1,0,0:0:0:0:
256,192,77519,1,8,0:0:0:0:
256,192,77597,1,8,0:0:0:0:
256,192,77675,1,0,0:0:0:0:
256,192,77832,1,12,0:0:0:0:
256,192,77988,1,0,0:0:0:0:
256,192,78066,1,0,0:0:0:0:
256,192,78144,1,8,0:0:0:0:
256,192,78300,1,0,0:0:0:0:
256,192,78457,1,8,0:0:0:0:
256,192,78535,1,8,0:0:0:0:
256,192,78613,1,0,0:0:0:0:
256,192,78691,1,0,0:0:0:0:
256,192,78769,1,8,0:0:0:0:
256,192,78925,1,8,0:0:0:0:
256,192,79003,1,0,0:0:0:0:
256,192,79082,1,8,0:0:0:0:
256,192,79394,1,8,0:0:0:0:
256,192,79550,1,0,0:0:0:0:
256,192,79707,1,8,0:0:0:0:
256,192,79785,1,8,0:0:0:0:
256,192,79863,1,0,0:0:0:0:
256,192,80019,1,8,0:0:0:0:
256,192,80175,1,0,0:0:0:0:
256,192,80332,1,8,0:0:0:0:
256,192,80410,1,8,0:0:0:0:
256,192,80488,1,8,0:0:0:0:
256,192,80566,1,0,0:0:0:0:
256,192,80644,1,8,0:0:0:0:
256,192,80800,1,0,0:0:0:0:
256,192,80957,1,8,0:0:0:0:
256,192,81035,1,0,0:0:0:0:
256,192,81113,1,0,0:0:0:0:
256,192,81269,1,8,0:0:0:0:
256,192,81425,1,0,0:0:0:0:
256,192,81503,1,0,0:0:0:0:
256,192,81582,1,8,0:0:0:0:
256,192,81894,1,8,0:0:0:0:
256,192,82050,1,0,0:0:0:0:
256,192,82207,1,8,0:0:0:0:
256,192,82285,1,8,0:0:0:0:
256,192,82363,1,0,0:0:0:0:
256,192,82519,1,8,0:0:0:0:
256,192,82675,1,0,0:0:0:0:
256,192,82832,1,8,0:0:0:0:
256,192,82910,1,0,0:0:0:0:
256,192,82988,1,0,0:0:0:0:
256,192,83066,1,0,0:0:0:0:
256,192,83144,1,8,0:0:0:0:
256,192,83300,1,0,0:0:0:0:
256,192,83457,1,8,0:0:0:0:
256,192,83535,1,0,0:0:0:0:
256,192,83613,1,8,0:0:0:0:
256,192,83691,1,0,0:0:0:0:
256,192,83769,1,8,0:0:0:0:
256,192,83925,1,0,0:0:0:0:
256,192,84082,1,8,0:0:0:0:
256,192,84394,1,8,0:0:0:0:
256,192,84550,1,0,0:0:0:0:
256,192,84628,1,0,0:0:0:0:
256,192,84707,1,8,0:0:0:0:
256,192,84785,1,8,0:0:0:0:
256,192,84863,1,0,0:0:0:0:
256,192,85019,1,8,0:0:0:0:
256,192,85175,1,0,0:0:0:0:
256,192,85332,1,8,0:0:0:0:
224,192,85410,1,8,0:0:0:0:
256,192,85488,1,0,0:0:0:0:
256,192,85644,1,8,0:0:0:0:
256,192,85800,1,0,0:0:0:0:
256,192,85957,1,8,0:0:0:0:
256,192,86035,1,8,0:0:0:0:
256,192,86113,1,0,0:0:0:0:
256,192,86191,1,8,0:0:0:0:
256,192,86269,1,8,0:0:0:0:
256,192,86347,1,0,0:0:0:0:
256,192,86425,1,8,0:0:0:0:
256,192,86582,1,4,0:0:0:0:
256,192,86894,1,8,0:0:0:0:
256,192,87050,1,0,0:0:0:0:
255,196,87128,1,0,0:0:0:0:
256,192,87207,1,0,0:0:0:0:
256,192,87285,1,0,0:0:0:0:
256,192,87363,1,0,0:0:0:0:
256,192,87441,1,0,0:0:0:0:
256,192,87519,1,0,0:0:0:0:
256,192,87675,1,0,0:0:0:0:
256,192,87832,1,12,0:0:0:0:
256,192,87988,1,0,0:0:0:0:
256,192,88066,1,0,0:0:0:0:
256,192,88144,1,8,0:0:0:0:
256,192,88300,1,0,0:0:0:0:
256,192,88457,1,8,0:0:0:0:
256,192,88535,1,8,0:0:0:0:
256,192,88613,1,0,0:0:0:0:
256,192,88691,1,0,0:0:0:0:
256,192,88769,1,8,0:0:0:0:
256,192,88925,1,8,0:0:0:0:
256,192,89082,1,4,0:0:0:0:
256,192,89238,1,0,0:0:0:0:
256,192,89316,1,0,0:0:0:0:
256,192,89394,1,8,0:0:0:0:
256,192,89550,1,0,0:0:0:0:
256,192,89707,1,8,0:0:0:0:
256,192,89785,1,0,0:0:0:0:
256,192,89863,1,0,0:0:0:0:
256,192,89941,1,0,0:0:0:0:
256,192,90019,1,8,0:0:0:0:
256,192,90175,1,8,0:0:0:0:
256,192,90332,1,4,0:0:0:0:
256,192,90488,1,0,0:0:0:0:
256,192,90566,1,0,0:0:0:0:
256,192,90644,1,8,0:0:0:0:
256,192,90800,1,0,0:0:0:0:
256,192,90957,1,8,0:0:0:0:
256,192,91035,1,8,0:0:0:0:
256,192,91113,1,0,0:0:0:0:
256,192,91191,1,0,0:0:0:0:
256,192,91269,1,8,0:0:0:0:
256,192,91347,1,8,0:0:0:0:
256,192,91425,1,0,0:0:0:0:
256,192,91582,1,8,0:0:0:0:
256,192,91894,1,4,0:0:0:0:
256,192,92207,1,12,0:0:0:0:
256,192,92519,1,12,0:0:0:0:
256,192,92832,1,4,0:0:0:0:
256,192,92988,1,0,0:0:0:0:
256,192,93066,1,0,0:0:0:0:
256,192,93144,1,8,0:0:0:0:
256,192,93300,1,0,0:0:0:0:
256,192,93457,1,8,0:0:0:0:
256,192,93535,1,0,0:0:0:0:
256,192,93613,1,0,0:0:0:0:
256,192,93691,1,8,0:0:0:0:
256,192,93769,1,8,0:0:0:0:
256,192,93925,1,8,0:0:0:0:
256,192,94082,1,4,0:0:0:0:
256,192,94238,1,0,0:0:0:0:
256,192,94316,1,0,0:0:0:0:
256,192,94394,1,8,0:0:0:0:
256,192,94550,1,0,0:0:0:0:
256,192,94707,1,0,0:0:0:0:
256,192,94785,1,0,0:0:0:0:
256,192,94863,1,8,0:0:0:0:
256,192,94941,1,0,0:0:0:0:
256,192,95019,1,8,0:0:0:0:
256,192,95175,1,8,0:0:0:0:
256,192,95332,1,4,0:0:0:0:
256,192,95488,1,0,0:0:0:0:
256,192,95566,1,0,0:0:0:0:
256,192,95644,1,8,0:0:0:0:
256,192,95800,1,0,0:0:0:0:
256,192,95957,1,8,0:0:0:0:
256,192,96035,1,0,0:0:0:0:
256,192,96113,1,0,0:0:0:0:
256,192,96191,1,0,0:0:0:0:
256,192,96269,1,8,0:0:0:0:
256,192,96347,1,8,0:0:0:0:
256,192,96425,1,8,0:0:0:0:
256,192,96503,1,0,0:0:0:0:
256,192,96582,1,8,0:0:0:0:
256,192,96894,1,4,0:0:0:0:
256,192,97207,1,12,0:0:0:0:
256,192,97519,1,12,0:0:0:0:
256,192,97832,1,0,0:0:0:0:
256,192,98144,1,12,0:0:0:0:
256,192,98457,1,0,0:0:0:0:
256,192,98613,1,0,0:0:0:0:
256,192,98769,1,8,0:0:0:0:
256,192,98925,1,0,0:0:0:0:
256,192,99003,1,0,0:0:0:0:
256,192,99082,1,8,0:0:0:0:
256,192,99238,1,8,0:0:0:0:
256,192,99316,1,0,0:0:0:0:
256,192,99394,1,8,0:0:0:0:
256,192,99550,1,0,0:0:0:0:
256,192,99863,1,0,0:0:0:0:
256,192,100019,1,8,0:0:0:0:
256,192,100175,1,8,0:0:0:0:
256,192,100332,1,0,0:0:0:0:
256,192,100644,1,12,0:0:0:0:
256,192,100957,1,0,0:0:0:0:
256,192,101113,1,8,0:0:0:0:
256,192,101269,1,8,0:0:0:0:
256,192,101425,1,0,0:0:0:0:
256,192,101503,1,0,0:0:0:0:
256,192,101582,1,8,0:0:0:0:
256,192,101738,1,8,0:0:0:0:
256,192,101816,1,0,0:0:0:0:
256,192,101894,1,8,0:0:0:0:
256,192,102050,1,0,0:0:0:0:
256,192,102207,1,8,0:0:0:0:
256,192,102363,1,0,0:0:0:0:
256,192,102441,1,0,0:0:0:0:
256,192,102519,1,8,0:0:0:0:
256,192,102597,1,8,0:0:0:0:
256,192,102675,1,0,0:0:0:0:
256,192,102832,1,12,0:0:0:0:
