osu file format v14

[General]
AudioFilename: audio.mp3
AudioLeadIn: 0
PreviewTime: 48985
Countdown: 0
SampleSet: Soft
StackLeniency: 0.4
Mode: 0
LetterboxInBreaks: 0
WidescreenStoryboard: 1

[Editor]
Bookmarks: 5633,17501,28051,38600,50468,74205,95304,105853,116402
DistanceSpacing: 0.8
BeatDivisor: 4
GridSize: 4
TimelineZoom: 1.619999

[Metadata]
Title:Hyakka Ryouran, Akatsukiyo (karaoke ver.)
TitleUnicode:百花繚乱、紅月夜 (karaoke ver.)
Artist:AKATSUKI
ArtistUnicode:紅月
Creator:Mafumafu
Version:A r M i N's Normal
Source:あんさんぶるスターズ!
Tags:Wild Blooming Flowers, Crimson Colored Moon's Night Keito Hasumi 蓮巳 敬人 Yuichiro Umehara 梅原 裕一郎 Kuro Kiryu 鬼龍 紅郎 Shinichiro Kamio 神尾 晋一郎 Souma Kanzaki 神崎 颯馬 Keisuke Kaminaga 神永 圭佑 HabiHolic A r m i n A_r_m_i_n KittyAdventure gokugohan12468 Yasaija 714 Yasaija_714 yf_bmp regraz
BeatmapID:1569557
BeatmapSetID:690763

[Difficulty]
HPDrainRate:3
CircleSize:3
OverallDifficulty:3.5
ApproachRate:4.5
SliderMultiplier:1.1
SliderTickRate:1

[Events]
//Background and Video events
0,0,"ddwpkz5-778ab294-adc4-43a7-896b-15d0d57de5d9.png",0,0
//Break Periods
2,74404,75582
2,77042,78219
2,79679,80857
2,82317,83494
2,105723,107230
2,108690,109868
2,111328,112505
2,113965,115142
//Storyboard Layer 0 (Background)
//Storyboard Layer 1 (Fail)
//Storyboard Layer 2 (Pass)
//Storyboard Layer 3 (Foreground)
//Storyboard Layer 4 (Overlay)
//Storyboard Sound Samples

[TimingPoints]
359,329.67032967033,4,2,0,60,1,0
50468,-100,4,2,0,60,0,1
61018,-100,4,2,0,60,0,0
61348,-100,4,2,0,60,0,1
74205,-100,4,2,0,60,0,0
84754,-100,4,2,0,60,0,0
105853,-100,4,2,0,60,0,0
129589,-100,4,2,0,60,0,1
140139,-100,4,2,0,60,0,0
140468,-100,4,2,0,60,0,1
155963,-100,4,2,0,60,0,0

[Colours]
Combo1 : 242,24,57
Combo2 : 0,202,0
Combo3 : 18,124,255

[HitObjects]
305,230,359,6,0,B|385:251|385:251|464:230,1,165
484,190,1018,2,0,B|462:110|462:110|404:52,1,165
360,55,1677,2,0,B|301:113|301:113|280:192,1,165
305,230,2337,2,0,P|311:259|311:290,1,55
282,317,2666,2,0,L|228:323,1,55
184,311,2996,6,0,B|137:318|110:345|110:345|84:318|37:311,1,165
14,272,3655,2,0,B|30:228|20:191|20:191|57:181|87:145,1,165
132,145,4315,2,0,B|161:181|198:190|198:190|188:227|205:271,1,165
239,300,4974,2,0,L|348:287,1,110
404,218,5633,6,0,B|432:138|376:138|404:58,2,165
348,286,6952,2,0,L|239:273,1,110
196,195,7611,1,0,0:0:0:0:
115,231,7941,1,0,0:0:0:0:
83,148,8271,6,0,B|100:40|100:40|118:64|141:77,2,165
115,231,9589,2,0,P|169:234|214:205,1,110
240,120,10249,2,0,P|294:117|339:146,1,110
382,223,10908,6,0,P|461:228|511:166,2,165
339,146,12227,2,0,L|230:159,1,110
163,216,12886,1,0,0:0:0:0:
109,146,13216,1,0,0:0:0:0:
43,204,13545,6,0,P|40:258|69:303,1,110
110,320,14040,2,0,L|219:307,1,110
262,301,14534,1,0,0:0:0:0:
315,230,14864,2,0,L|369:236,1,55
397,270,15194,2,0,L|451:264,1,55
486,237,15523,1,0,0:0:0:0:
505,197,15688,2,0,L|502:170,2,27.5
108,175,17501,6,0,L|217:162,1,110
280,100,18161,2,0,L|444:119,2,165
217,161,19479,1,0,0:0:0:0:
159,94,19809,1,0,0:0:0:0:
97,157,20139,6,0,P|94:211|123:256,1,110
208,281,20798,2,0,B|316:254|316:254|364:282,1,165
399,304,21457,2,0,P|396:249|425:204,1,110
505,167,22117,1,0,0:0:0:0:
451,97,22446,1,0,0:0:0:0:
397,27,22776,6,0,L|288:40,1,110
218,94,23435,2,0,B|132:66|140:122|56:94,2,165
278,157,24754,1,0,0:0:0:0:
207,209,25084,1,0,0:0:0:0:
264,275,25413,6,0,L|373:262,1,110
435,198,26073,2,0,P|437:143|408:98,1,110
329,58,26732,1,0,0:0:0:0:
279,130,27062,1,0,0:0:0:0:
213,71,27391,2,0,L|104:84,1,110
41,146,28051,6,0,B|44:176|76:208|76:208|36:264|36:264|68:296|72:332,1,220
148,375,29040,1,0,0:0:0:0:
197,302,29369,2,0,L|306:315,1,110
378,264,30029,1,0,0:0:0:0:
439,327,30359,1,0,0:0:0:0:
466,243,30688,6,0,B|501:95|501:95|465:34,1,220
383,7,31677,1,0,0:0:0:0:
346,87,32007,2,0,P|300:116|246:113,1,110
177,58,32666,2,0,P|122:55|77:84,1,110
52,168,33326,6,0,B|84:252|20:252|52:336|52:336|76:296,1,220
150,249,34315,1,0,0:0:0:0:
210,312,34644,2,0,P|264:314|309:285,1,110
339,202,35304,1,0,0:0:0:0:
412,250,35633,1,0,0:0:0:0:
477,191,35963,6,0,B|497:111|497:111|477:31,1,165
436,13,36622,2,0,P|382:11|337:40,1,110
312,125,37282,1,0,0:0:0:0:
227,147,37611,2,0,L|118:134,1,110
41,179,38271,1,0,0:0:0:0:
117,222,38600,6,0,B|145:308|89:300|117:384,2,165
41,179,39919,2,0,B|13:95|69:103|41:17,2,165
117,222,41238,6,0,L|226:209,1,110
269,132,41897,2,0,L|378:145,1,110
442,205,42556,1,0,0:0:0:0:
408,286,42886,1,0,0:0:0:0:
374,367,43216,2,0,P|320:369|275:340,1,110
221,269,43875,6,0,B|174:241|174:241|66:268,2,165
274,339,45194,2,0,P|308:279|270:195,1,165
233,174,45853,2,0,L|220:65,1,110
214,20,46348,1,0,0:0:0:0:
127,4,46677,5,0,0:0:0:0:
88,26,46842,2,0,P|58:71|60:125,1,110
82,164,47337,2,0,L|88:218,1,55
95,262,47666,1,0,0:0:0:0:
176,295,47996,2,0,L|169:349,2,55
183,251,48490,1,0,0:0:0:0:
273,154,48985,5,0,0:0:0:0:
273,154,49150,2,0,L|382:167,2,110
246,118,49974,1,0,0:0:0:0:
224,79,50139,2,0,L|170:85,1,55
126,93,50468,6,0,P|96:138|98:192,1,110
158,257,51128,2,0,L|267:270,1,110
310,262,51622,1,0,0:0:0:0:
347,284,51787,2,0,P|401:285|446:256,1,110
473,172,52446,2,0,L|467:118,1,55
428,95,52776,2,0,L|422:41,1,55
382,19,53106,6,0,P|327:17|282:46,1,110
240,123,53765,2,0,P|185:124|140:95,1,110
103,70,54260,1,0,0:0:0:0:
60,81,54424,2,0,L|47:190,1,110
100,260,55084,2,0,L|154:266,1,55
197,255,55413,1,0,0:0:0:0:
235,277,55578,1,0,0:0:0:0:
278,271,55743,6,0,L|291:162,1,110
360,108,56402,2,0,P|313:77|260:80,1,110
200,143,57062,2,0,P|145:144|100:115,1,110
71,81,57556,1,0,0:0:0:0:
27,85,57721,2,0,P|-2:130|0:184,1,110
57,251,58380,6,0,B|171:199|156:302|266:251,1,220
325,185,59369,1,0,0:0:0:0:
325,185,59534,2,0,L|434:198,1,110
478,198,60029,2,0,P|507:152|505:98,1,110
449,30,60688,1,0,0:0:0:0:
374,76,61018,5,0,0:0:0:0:
318,7,61348,2,0,L|209:20,1,110
139,73,62007,1,0,0:0:0:0:
197,139,62337,2,0,P|198:193|169:238,1,110
133,319,62996,2,0,L|187:325,1,55
227,306,63326,2,0,L|281:312,1,55
312,343,63655,6,0,P|366:344|411:315,1,110
461,242,64315,2,0,B|489:158|433:166|461:80,2,165
411,315,65633,2,0,L|302:302,1,110
257,296,66128,1,0,0:0:0:0:
221,322,66293,6,0,P|166:323|121:294,1,110
96,210,66952,2,0,L|109:101,1,110
178,47,67611,2,0,P|232:45|277:74,1,110
301,111,68106,1,0,0:0:0:0:
320,150,68271,2,0,L|429:137,1,110
501,187,68930,6,0,P|470:285|367:288,1,220
309,221,69919,1,0,0:0:0:0:
309,221,70084,2,0,L|200:234,1,110
170,267,70578,2,0,P|115:268|70:239,1,110
47,154,71238,1,0,0:0:0:0:
103,87,71732,6,0,B|189:59|181:115|265:87,2,165
75,121,72886,2,0,L|69:175,1,55
86,216,73216,2,0,P|131:244|185:243,1,110
256,192,73875,2,0,L|365:205,1,110
256,192,76842,5,0,0:0:0:0:
256,192,79479,5,0,0:0:0:0:
256,192,82117,5,0,0:0:0:0:
331,273,84754,6,0,B|378:245|378:245|484:271,2,165
267,334,86073,2,0,P|244:285|253:232,1,110
315,168,86732,2,0,P|324:114|301:65,1,110
220,29,87391,6,0,B|134:56|142:0|58:28,1,165
28,60,88051,2,0,L|41:169,1,110
104,230,88710,2,0,B|131:276|131:276|104:384,2,165
41,169,90029,6,0,P|94:143|145:152,1,110
204,88,90688,2,0,P|230:141|221:192,1,110
286,250,91348,2,0,P|233:276|182:267,1,110
122,331,92007,2,0,P|96:283|104:230,1,110
142,150,92666,6,0,B|226:118|226:182|310:150|310:150|270:126,1,220
212,58,93655,1,0,0:0:0:0:
296,33,93985,2,0,B|402:6|402:6|449:34,2,165
212,58,95304,6,0,L|103:45,1,110
32,97,95963,2,0,P|24:150|50:198,1,110
136,215,96622,2,0,L|149:324,1,110
216,380,97282,1,0,0:0:0:0:
269,310,97611,1,0,0:0:0:0:
333,370,97941,6,0,P|436:367|467:269,1,220
404,208,98930,1,0,0:0:0:0:
486,176,99260,2,0,B|514:92|458:100|486:14,2,165
404,208,100578,6,0,L|295:195,1,110
236,128,101238,2,0,L|127:141,1,110
55,192,101897,2,0,P|47:245|73:293,1,110
153,329,102556,1,0,0:0:0:0:
208,261,102886,1,0,0:0:0:0:
282,307,103216,6,0,L|391:294,1,110
423,263,103710,2,0,P|430:209|404:161,1,110
365,141,104205,1,0,0:0:0:0:
279,162,104534,2,0,L|225:156,1,55
187,131,104864,2,0,L|133:137,1,55
97,164,105194,1,0,0:0:0:0:
65,194,105359,2,0,L|62:221,2,27.5
256,192,108490,5,0,0:0:0:0:
256,192,111128,5,0,0:0:0:0:
256,192,113765,5,0,0:0:0:0:
395,222,116402,6,0,B|367:308|423:300|395:384,2,165
471,179,117721,2,0,B|499:95|443:103|471:17,2,165
395,222,119040,6,0,L|286:209,1,110
243,132,119699,2,0,L|134:145,1,110
70,205,120358,1,0,0:0:0:0:
104,286,120688,1,0,0:0:0:0:
138,367,121018,2,0,P|192:369|237:340,1,110
291,269,121677,6,0,B|338:241|338:241|446:268,2,165
238,339,122996,2,0,P|204:279|242:195,1,165
279,174,123655,2,0,L|292:65,1,110
298,20,124150,1,0,0:0:0:0:
385,4,124479,5,0,0:0:0:0:
424,26,124644,2,0,P|454:71|452:125,1,110
430,164,125139,2,0,L|424:218,1,55
417,262,125468,1,0,0:0:0:0:
336,295,125798,2,0,L|343:349,2,55
329,251,126292,1,0,0:0:0:0:
239,154,126787,5,0,0:0:0:0:
239,154,126952,2,0,L|130:167,2,110
266,118,127776,1,0,0:0:0:0:
288,79,127941,2,0,L|342:85,1,55
380,108,128271,1,0,0:0:0:0:
420,90,128435,1,0,0:0:0:0:
460,108,128600,2,0,L|466:162,2,55
335,12,129589,6,0,P|280:9|235:39,1,110
226,128,130249,2,0,L|239:237,1,110
202,262,130743,1,0,0:0:0:0:
165,284,130908,2,0,P|111:285|66:256,1,110
39,172,131567,2,0,L|45:118,1,55
84,95,131897,2,0,L|90:41,1,55
130,19,132227,6,0,P|185:17|230:46,1,110
272,123,132886,2,0,P|327:124|372:95,1,110
409,70,133381,1,0,0:0:0:0:
452,81,133545,2,0,L|465:190,1,110
412,260,134205,2,0,L|358:266,1,55
315,255,134534,1,0,0:0:0:0:
277,277,134699,1,0,0:0:0:0:
234,271,134864,6,0,L|221:162,1,110
152,108,135523,2,0,P|199:77|252:80,1,110
312,143,136183,2,0,P|367:144|412:115,1,110
441,81,136677,1,0,0:0:0:0:
485,85,136842,2,0,P|514:130|512:184,1,110
455,251,137501,6,0,B|341:199|356:302|246:251,1,220
187,185,138490,1,0,0:0:0:0:
187,185,138655,2,0,L|78:198,1,110
34,198,139150,2,0,P|5:152|7:98,1,110
63,30,139809,1,0,0:0:0:0:
138,76,140139,5,0,0:0:0:0:
194,7,140469,2,0,L|303:20,1,110
373,73,141128,1,0,0:0:0:0:
315,139,141458,2,0,P|313:193|342:238,1,110
379,319,142117,2,0,L|325:325,1,55
285,306,142447,2,0,L|231:312,1,55
200,343,142776,6,0,P|145:344|100:315,1,110
51,242,143436,2,0,B|23:158|79:166|51:80,2,165
101,315,144754,2,0,L|210:302,1,110
255,296,145249,1,0,0:0:0:0:
291,322,145414,6,0,P|345:323|390:294,1,110
416,210,146073,2,0,L|403:101,1,110
334,47,146732,2,0,P|279:45|234:74,1,110
211,111,147227,1,0,0:0:0:0:
192,150,147392,2,0,L|83:137,1,110
11,187,148051,6,0,P|41:285|144:288,1,220
203,221,149040,1,0,0:0:0:0:
203,221,149205,2,0,L|312:234,1,110
342,267,149699,2,0,P|396:268|441:239,1,110
465,154,150359,1,0,0:0:0:0:
409,87,150853,6,0,B|323:59|331:115|247:87,2,165
437,121,152007,2,0,L|443:175,1,55
426,216,152337,2,0,P|380:244|326:243,1,110
256,192,152996,1,0,0:0:0:0:
129,230,153490,6,0,B|101:146|157:154|129:68,2,165
158,262,154644,2,0,L|212:268,1,55
240,302,154974,2,0,L|294:308,1,55
324,341,155304,1,0,0:0:0:0:
373,268,155633,1,0,0:0:0:0:
445,318,155963,5,0,0:0:0:0:
256,192,156128,12,0,158600,0:0:0:0:
