osu file format v14

[General]
AudioFilename: audio.mp3
AudioLeadIn: 0
PreviewTime: 177201
Countdown: 0
SampleSet: Soft
StackLeniency: 0.3
Mode: 0
LetterboxInBreaks: 0
WidescreenStoryboard: 0

[Editor]
DistanceSpacing: 0.1
BeatDivisor: 4
GridSize: 4
TimelineZoom: 3.299999

[Metadata]
Title:The Bleeding Inside
TitleUnicode:The Bleeding Inside
Artist:AKANI
ArtistUnicode:AKANI
Creator:terratropic
Version:Insane
Source:
Tags:breakcore dnb battle audio the unkn0wn element idm
BeatmapID:1569329
BeatmapSetID:744280

[Difficulty]
HPDrainRate:7
CircleSize:4.1
OverallDifficulty:8
ApproachRate:9
SliderMultiplier:1.7
SliderTickRate:1

[Events]
//Background and Video events
0,0,"bloodsplet1366b.jpg",0,0
//Break Periods
//Storyboard Layer 0 (Background)
//Storyboard Layer 1 (Fail)
//Storyboard Layer 2 (Pass)
//Storyboard Layer 3 (Foreground)
//Storyboard Sound Samples

[TimingPoints]
35,333.333333333333,7,2,1,60,1,0
35,-125,4,2,1,60,0,0
13951,-125,4,2,1,10,0,0
14034,-125,4,2,1,60,0,0
17201,-125,4,2,1,50,0,0
17701,-125,4,2,1,40,0,0
18701,-100,4,2,1,70,0,0
23118,-100,4,2,1,20,0,0
23201,-100,4,2,1,70,0,0
23284,-100,4,2,1,20,0,0
23368,-100,4,2,1,70,0,0
26034,-100,4,2,1,60,0,0
27368,-100,4,2,1,70,0,0
27784,-100,4,2,1,20,0,0
27868,-100,4,2,1,70,0,0
27951,-100,4,2,1,20,0,0
28034,-100,4,2,1,70,0,0
37118,-100,4,2,1,20,0,0
37201,-100,4,2,1,70,0,0
37284,-100,4,2,1,20,0,0
37368,-100,4,2,1,80,0,0
46451,-100,4,2,1,30,0,0
46534,-100,4,2,1,80,0,0
46618,-100,4,2,1,30,0,0
46701,-100,4,2,1,80,0,0
52701,-100,4,2,1,70,0,0
54034,-125,4,2,1,70,0,0
56034,-100,4,2,1,70,0,0
70034,-100,4,2,1,80,0,0
93368,-125,4,2,1,70,0,0
98034,-100,4,2,1,80,0,0
104368,-125,4,2,1,70,0,0
105034,-100,4,2,1,80,0,0
111368,-100,4,2,1,70,0,0
112034,-125,4,2,1,70,0,0
121368,-90.9090909090909,4,2,1,90,0,1
122701,-90.9090909090909,4,2,1,80,0,0
124034,-90.9090909090909,4,2,1,90,0,1
125368,-90.9090909090909,4,2,1,80,0,0
126034,-90.9090909090909,4,2,1,90,0,1
127368,-90.9090909090909,4,2,1,80,0,0
128701,-90.9090909090909,4,2,1,90,0,1
130034,-90.9090909090909,4,2,1,80,0,0
130701,-90.9090909090909,4,2,1,90,0,1
140034,-111.111111111111,4,2,1,70,0,0
146284,-111.111111111111,4,2,1,20,0,0
146368,-111.111111111111,4,2,1,70,0,0
150618,-111.111111111111,4,2,1,20,0,0
150701,-111.111111111111,4,2,1,70,0,0
158701,-100,4,2,1,80,0,0
166034,-100,4,2,1,70,0,0
167284,-100,4,2,1,20,0,0
167368,-100,4,2,1,70,0,0
168034,-100,4,2,1,80,0,0
175368,-125,4,2,1,70,0,0
177368,-90.9090909090909,4,2,1,80,0,0
190701,-90.9090909090909,4,2,1,70,0,0
191368,-90.9090909090909,4,2,1,80,0,0
196034,-90.9090909090909,4,2,1,90,0,1
200034,-90.9090909090909,4,2,1,80,0,0
200701,-90.9090909090909,4,2,1,90,0,1
204701,-90.9090909090909,4,2,1,80,0,0
205368,-90.9090909090909,4,2,1,90,0,1
208034,-90.9090909090909,4,2,1,80,0,1
208701,-90.9090909090909,4,2,1,70,0,1
209368,-90.9090909090909,4,2,1,70,0,0
209951,-90.9090909090909,4,2,1,20,0,0
210034,-90.9090909090909,4,2,1,90,0,1
214701,-333.333333333333,4,2,1,70,0,0
217034,-333.333333333333,4,2,1,20,0,0
217368,-333.333333333333,4,2,1,70,0,0
219034,-333.333333333333,4,2,1,20,0,0
219368,-333.333333333333,4,2,1,60,0,0
221701,-333.333333333333,4,2,1,10,0,0
222034,-333.333333333333,4,2,1,60,0,0
223701,-333.333333333333,4,2,1,10,0,0
224034,-333.333333333333,4,2,1,50,0,0
226368,-333.333333333333,4,2,1,5,0,0
226701,-333.333333333333,4,2,1,50,0,0
228368,-333.333333333333,4,2,1,5,0,0
228701,-333.333333333333,4,2,1,40,0,0
231034,-333.333333333333,4,2,1,5,0,0
231368,-333.333333333333,4,2,1,40,0,0
233034,-333.333333333333,4,2,1,5,0,0
233368,-333.333333333333,4,2,1,30,0,0
235701,-333.333333333333,4,2,1,5,0,0
236034,-333.333333333333,4,2,1,30,0,0
237701,-333.333333333333,4,2,1,5,0,0
238034,-333.333333333333,4,2,1,20,0,0
240368,-333.333333333333,4,2,1,5,0,0
240701,-333.333333333333,4,2,1,20,0,0
242368,-333.333333333333,4,2,1,5,0,0
242701,-333.333333333333,4,2,1,10,0,0
245368,-333.333333333333,4,2,1,5,0,0

[Colours]
Combo1 : 13,31,255
Combo2 : 254,63,139
Combo3 : 154,154,154
Combo4 : 251,104,55
Combo5 : 249,206,6

[HitObjects]
0,240,35,6,0,P|76:252|132:208,1,136
212,188,534,1,0,0:0:0:0:
216,188,618,1,0,0:0:0:0:
220,188,701,1,0,0:0:0:0:
144,124,868,1,0,0:0:0:0:
272,56,1034,2,0,P|312:56|364:68,1,68
500,120,1368,6,0,P|428:116|364:148,1,136
184,32,1868,1,0,0:0:0:0:
149,34,1951,1,0,0:0:0:0:
114,37,2034,1,0,0:0:0:0:
79,40,2118,1,0,0:0:0:0:
44,43,2201,1,0,0:0:0:0:
0,128,2368,2,0,P|32:152|56:192,1,68
168,284,2701,6,0,B|215:263|215:263|255:255|255:255|316:228,1,136
384,272,3201,1,0,0:0:0:0:
384,276,3284,1,0,0:0:0:0:
384,280,3368,1,0,0:0:0:0:
504,144,3534,1,0,0:0:0:0:
388,168,3701,2,0,P|352:156|320:132,1,68
256,192,4034,12,0,5034,0:0:0:0:
180,176,5201,5,0,0:0:0:0:
173,160,5284,1,0,0:0:0:0:
168,143,5368,1,0,0:0:0:0:
167,125,5451,1,0,0:0:0:0:
168,108,5534,1,0,0:0:0:0:
4,48,5701,2,0,L|8:132,1,68
232,40,6034,6,0,B|296:60|296:24|380:44,1,136
452,84,6534,1,0,0:0:0:0:
452,80,6618,1,0,0:0:0:0:
452,76,6701,1,0,0:0:0:0:
340,200,6868,1,0,0:0:0:0:
424,168,7034,1,0,0:0:0:0:
508,200,7201,1,0,0:0:0:0:
260,168,7368,6,0,P|308:224|288:304,1,136
92,284,7868,2,0,B|140:276|140:276|176:256|176:256|240:244,1,136
139,180,8368,2,0,P|75:200|11:180,1,136
88,56,8868,2,0,P|89:110|48:72,1,136
224,24,9368,6,0,B|276:24|276:24|316:40|316:40|372:40,1,136
512,120,9868,1,0,0:0:0:0:
481,104,9951,1,0,0:0:0:0:
446,99,10034,1,0,0:0:0:0:
412,107,10118,1,0,0:0:0:0:
383,126,10201,1,0,0:0:0:0:
240,244,10368,2,0,P|276:260|316:264,1,68
184,120,10701,6,0,P|116:92|52:108,1,136
0,176,11201,1,0,0:0:0:0:
0,180,11284,1,0,0:0:0:0:
0,184,11368,1,0,0:0:0:0:
136,272,11534,2,0,L|140:348,2,68
0,180,12034,6,0,B|8:132|8:132|4:88|4:88|8:28,1,136
180,8,12534,1,0,0:0:0:0:
173,24,12618,1,0,0:0:0:0:
163,38,12701,1,0,0:0:0:0:
152,52,12784,1,0,0:0:0:0:
139,63,12868,1,0,0:0:0:0:
236,178,13034,1,0,0:0:0:0:
88,204,13201,1,0,0:0:0:0:
260,76,13368,6,0,P|300:76|340:64,1,68
412,104,13701,2,0,P|456:84|488:16,1,102
512,36,14034,6,0,P|492:92|528:184,1,136
440,288,14534,1,0,0:0:0:0:
440,292,14618,1,0,0:0:0:0:
440,296,14701,1,0,0:0:0:0:
304,264,14868,1,0,0:0:0:0:
432,200,15034,2,0,P|404:168|360:144,1,68
288,156,15368,6,0,B|236:156|236:156|200:164|200:164|136:164,1,136
8,224,15868,2,0,P|12:244|8:272,3,34
0,292,16201,1,0,0:0:0:0:
84,336,16368,2,0,P|108:320|156:304,1,68
96,236,16701,6,0,P|40:200|32:112,1,136
152,56,17201,2,0,B|196:72|196:72|232:96|232:96|275:111,1,136
300,196,17701,2,0,P|304:132|372:108,2,136
300,196,18701,6,0,P|212:184|228:244,1,170
136,284,19201,1,0,0:0:0:0:
132,284,19284,1,0,0:0:0:0:
128,284,19368,1,0,0:0:0:0:
284,352,19534,2,0,L|384:352,1,85
452,308,19868,1,0,0:0:0:0:
368,172,20034,6,0,P|436:188|508:124,1,170
452,308,20534,1,0,0:0:0:0:
421,279,20618,1,0,0:0:0:0:
382,260,20701,1,0,0:0:0:0:
340,255,20784,1,0,0:0:0:0:
299,261,20868,1,0,0:0:0:0:
172,168,21034,1,0,0:0:0:0:
316,103,21201,1,0,0:0:0:0:
204,256,21368,6,0,B|144:276|144:276|108:312|108:312|32:340,1,170
188,352,21868,1,0,0:0:0:0:
192,352,21951,1,0,0:0:0:0:
196,352,22034,1,0,0:0:0:0:
0,260,22201,1,0,0:0:0:0:
40,176,22368,2,0,P|44:128|28:80,1,85
192,352,22701,2,0,B|240:352|240:352|268:348|268:348|332:348,1,127.5
332,336,23034,6,0,L|404:340,1,42.5
246,249,23201,2,0,L|190:257,1,42.5
372,200,23368,6,0,P|446:208|516:128,1,170
432,40,23868,1,0,0:0:0:0:
424,60,23951,1,0,0:0:0:0:
420,80,24034,1,0,0:0:0:0:
420,102,24118,1,0,0:0:0:0:
422,123,24201,1,0,0:0:0:0:
228,220,24368,1,0,0:0:0:0:
372,200,24534,1,0,0:0:0:0:
284,80,24701,6,0,B|220:84|220:84|172:76|172:76|96:84,1,170
28,120,25201,1,0,0:0:0:0:
24,120,25284,1,0,0:0:0:0:
20,120,25368,1,0,0:0:0:0:
164,168,25534,1,0,0:0:0:0:
0,236,25701,2,0,P|-4:284|16:336,1,85
80,352,25951,1,0,0:0:0:0:
84,356,26034,6,0,B|164:320|164:384|260:348,1,170
408,264,26534,2,0,L|316:256,2,85
436,348,27034,2,0,P|484:312|464:196,1,170
323,256,27534,1,0,0:0:0:0:
416,60,27701,6,0,L|420:8,1,42.5
475,168,27868,2,0,L|479:220,1,42.5
356,168,28034,6,0,P|292:180|192:116,1,170
16,264,28534,1,0,0:0:0:0:
42,230,28618,1,0,0:0:0:0:
78,209,28701,1,0,0:0:0:0:
120,204,28784,1,0,0:0:0:0:
161,215,28868,1,0,0:0:0:0:
280,92,29034,1,0,0:0:0:0:
114,52,29201,1,0,0:0:0:0:
276,200,29368,6,0,B|332:176|332:176|364:136|364:136|436:104,1,170
504,144,29868,1,0,0:0:0:0:
504,148,29951,1,0,0:0:0:0:
504,152,30034,1,0,0:0:0:0:
375,32,30201,2,0,P|327:32|271:16,1,85
292,24,30701,6,0,P|204:52|128:20,1,170
0,168,31201,1,0,0:0:0:0:
19,160,31284,1,0,0:0:0:0:
40,155,31368,1,0,0:0:0:0:
61,154,31451,1,0,0:0:0:0:
82,155,31534,1,0,0:0:0:0:
164,196,31701,1,0,0:0:0:0:
256,92,31868,1,0,0:0:0:0:
384,144,32034,6,0,B|432:144|432:144|468:148|468:148|520:144,1,127.5
512,164,32368,2,0,P|472:184|444:228,1,85
328,328,32701,6,0,P|412:344|488:296,1,170
448,215,33201,1,0,0:0:0:0:
452,216,33284,1,0,0:0:0:0:
456,216,33368,1,0,0:0:0:0:
507,59,33534,2,0,P|512:96|510:143,1,85
456,216,33868,1,0,0:0:0:0:
312,44,34034,5,0,0:0:0:0:
360,188,34201,1,0,0:0:0:0:
404,20,34368,1,0,0:0:0:0:
260,116,34534,1,0,0:0:0:0:
257,158,34618,1,0,0:0:0:0:
254,200,34701,1,0,0:0:0:0:
252,243,34784,1,0,0:0:0:0:
249,285,34868,1,0,0:0:0:0:
176,104,35034,2,0,P|164:56|124:8,1,85
36,196,35368,6,0,P|48:280|132:316,1,170
260,140,35868,2,0,B|212:176|212:176|164:192|164:192|108:236,1,170
304,280,36368,1,0,0:0:0:0:
444,244,36534,1,0,0:0:0:0:
344,136,36701,2,0,L|240:140,1,85
120,360,37034,6,0,L|116:294,1,42.5
224,260,37201,2,0,L|220:326,1,42.5
312,368,37368,6,0,P|368:328|480:352,1,170
392,280,37868,1,0,0:0:0:0:
392,276,37951,1,0,0:0:0:0:
392,272,38034,1,0,0:0:0:0:
508,192,38201,1,0,0:0:0:0:
472,56,38368,1,0,0:0:0:0:
476,52,38451,1,0,0:0:0:0:
480,48,38534,1,0,0:0:0:0:
380,24,38701,6,0,B|292:0|292:60|192:28,1,170
8,164,39201,1,0,0:0:0:0:
21,147,39284,1,0,0:0:0:0:
33,129,39368,1,0,0:0:0:0:
41,110,39451,1,0,0:0:0:0:
46,89,39534,1,0,0:0:0:0:
236,120,39701,1,0,0:0:0:0:
108,164,39868,1,0,0:0:0:0:
232,212,40034,6,0,P|300:196|388:260,1,170
332,324,40534,1,0,0:0:0:0:
332,328,40618,1,0,0:0:0:0:
332,332,40701,1,0,0:0:0:0:
508,292,40868,1,0,0:0:0:0:
456,172,41034,2,0,P|456:120|468:84,1,85
384,40,41368,2,0,B|336:44|336:44|296:36|296:36|236:40,2,127.5
168,20,42034,6,0,P|84:48|8:20,1,170
104,196,42534,2,0,P|144:164|200:148,1,85
272,168,42868,1,0,0:0:0:0:
276,168,42951,1,0,0:0:0:0:
280,168,43034,1,0,0:0:0:0:
336,296,43201,1,0,0:0:0:0:
504,236,43368,6,0,B|504:192|504:192|496:148|496:148|500:88,1,127.5
456,172,43701,1,0,0:0:0:0:
421,147,43784,1,0,0:0:0:0:
401,110,43868,1,0,0:0:0:0:
400,68,43951,1,0,0:0:0:0:
418,30,44034,1,0,0:0:0:0:
248,88,44201,1,0,0:0:0:0:
156,60,44368,2,0,P|108:64|60:80,1,85
248,88,44701,6,0,B|332:118|332:58|436:96,1,170
504,128,45201,1,0,0:0:0:0:
344,212,45368,1,0,0:0:0:0:
373,242,45451,1,0,0:0:0:0:
387,282,45534,1,0,0:0:0:0:
384,324,45618,1,0,0:0:0:0:
365,361,45701,1,0,0:0:0:0:
512,220,45868,5,0,0:0:0:0:
512,216,45951,1,0,0:0:0:0:
512,212,46034,2,0,P|488:160|504:76,1,127.5
480,76,46368,6,0,L|432:80,1,42.5
328,160,46534,2,0,L|396:164,1,42.5
252,88,46701,6,0,B|192:72|192:72|152:44|152:44|80:24,1,170
8,64,47201,1,0,0:0:0:0:
8,68,47284,1,0,0:0:0:0:
8,72,47368,1,0,0:0:0:0:
84,180,47534,1,0,0:0:0:0:
40,256,47701,2,0,P|80:296|88:372,1,127.5
120,368,48034,6,0,P|152:304|196:368,1,170
416,316,48534,1,0,0:0:0:0:
377,333,48618,1,0,0:0:0:0:
335,334,48701,1,0,0:0:0:0:
296,318,48784,1,0,0:0:0:0:
266,288,48868,1,0,0:0:0:0:
104,228,49034,2,0,L|0:232,1,85
264,176,49368,6,0,B|328:180|328:180|376:168|376:168|444:172,1,170
512,224,49868,1,0,0:0:0:0:
512,228,49951,1,0,0:0:0:0:
512,232,50034,1,0,0:0:0:0:
396,88,50201,2,0,P|416:48|464:16,1,85
512,232,50534,2,0,P|444:288|344:264,1,170
284,256,50951,1,0,0:0:0:0:
284,260,51034,2,0,P|240:260|184:280,1,85
0,140,51368,6,0,B|80:116|76:172|172:140,1,170
284,260,51868,2,0,P|248:172|284:104,1,170
116,40,52368,1,0,0:0:0:0:
176,112,52534,1,0,0:0:0:0:
336,16,52701,6,0,L|436:16,2,85
176,112,53201,1,0,0:0:0:0:
352,168,53368,2,0,P|312:192|244:204,1,85
99,77,53701,2,0,P|136:88|183:117,1,85
152,252,54034,5,0,0:0:0:0:
152,252,54368,1,0,0:0:0:0:
152,252,54701,5,0,0:0:0:0:
240,284,54868,1,0,0:0:0:0:
320,244,55034,1,0,0:0:0:0:
400,204,55201,1,0,0:0:0:0:
488,236,55368,1,0,0:0:0:0:
300,32,55701,1,0,0:0:0:0:
300,32,56034,6,0,P|252:44|204:40,1,85
0,56,56368,2,0,P|40:84|64:124,1,85
260,148,56701,1,0,0:0:0:0:
112,196,56868,1,0,0:0:0:0:
296,312,57034,1,0,0:0:0:0:
248,232,57201,1,0,0:0:0:0:
96,344,57368,6,0,L|-8:340,1,85
296,312,57701,2,0,L|380:308,1,85
508,152,58034,1,0,0:0:0:0:
472,280,58201,1,0,0:0:0:0:
340,184,58368,6,0,P|340:136|368:88,1,85
144,236,58701,2,0,P|188:248|240:280,1,85
216,64,59034,1,0,0:0:0:0:
104,100,59201,1,0,0:0:0:0:
0,56,59368,1,0,0:0:0:0:
48,220,59534,1,0,0:0:0:0:
196,40,59701,6,0,P|244:40|304:24,1,85
508,72,60034,2,0,P|464:92|436:128,1,85
316,244,60368,2,0,P|296:196|268:156,1,85
144,124,60618,1,0,0:0:0:0:
136,120,60701,6,0,L|28:116,1,85
0,304,61034,2,0,L|84:300,1,85
304,332,61368,1,0,0:0:0:0:
192,236,61534,1,0,0:0:0:0:
376,164,61701,1,0,0:0:0:0:
316,244,61868,1,0,0:0:0:0:
136,120,62034,6,0,P|168:84|220:64,1,85
432,92,62368,2,0,P|376:96|328:84,1,85
112,16,62701,2,0,L|8:16,1,85
324,64,63034,6,0,P|360:56|416:20,1,85
508,168,63368,2,0,P|500:216|504:272,1,85
345,287,63701,1,0,0:0:0:0:
393,135,63868,1,0,0:0:0:0:
432,316,64034,1,0,0:0:0:0:
393,135,64201,1,0,0:0:0:0:
248,224,64368,6,0,P|216:228|184:240,3,42.5
192,244,64701,1,0,0:0:0:0:
162,260,64784,1,0,0:0:0:0:
129,267,64868,1,0,0:0:0:0:
95,265,64951,1,0,0:0:0:0:
63,253,65034,1,0,0:0:0:0:
37,232,65118,1,0,0:0:0:0:
17,205,65201,1,0,0:0:0:0:
244,139,65368,6,0,L|248:235,1,85
96,160,65701,2,0,L|100:64,1,85
312,16,66034,1,0,0:0:0:0:
460,60,66201,1,0,0:0:0:0:
244,139,66368,1,0,0:0:0:0:
352,232,66534,1,0,0:0:0:0:
384,88,66701,6,0,P|423:88|472:104,1,85
504,312,67034,2,0,P|464:284|440:236,1,85
244,139,67368,1,0,0:0:0:0:
203,127,67451,1,0,0:0:0:0:
160,124,67534,1,0,0:0:0:0:
118,128,67618,1,0,0:0:0:0:
78,141,67701,5,0,0:0:0:0:
116,328,67868,1,0,0:0:0:0:
192,216,68034,5,0,0:0:0:0:
3,254,68201,1,0,0:0:0:0:
208,308,68368,5,0,0:0:0:0:
320,176,68534,1,0,0:0:0:0:
312,164,68618,1,0,0:0:0:0:
308,152,68701,1,0,0:0:0:0:
300,110,68784,1,0,0:0:0:0:
311,69,68868,1,0,0:0:0:0:
338,37,68951,1,0,0:0:0:0:
376,20,69034,6,0,L|472:24,1,85
216,96,69368,2,0,L|131:98,1,85
0,36,69701,1,0,0:0:0:0:
0,40,69784,1,0,0:0:0:0:
0,44,69868,1,0,0:0:0:0:
0,48,69951,1,0,0:0:0:0:
0,52,70034,6,0,P|16:100|12:144,1,85
104,308,70368,2,0,P|136:256|172:232,1,85
285,101,70701,1,0,0:0:0:0:
179,134,70868,1,0,0:0:0:0:
365,177,71034,1,0,0:0:0:0:
154,241,71201,1,0,0:0:0:0:
341,285,71368,6,0,L|440:280,1,85
512,108,71701,2,0,P|452:100|416:80,1,85
272,24,72034,1,0,0:0:0:0:
310,41,72118,1,0,0:0:0:0:
337,74,72201,1,0,0:0:0:0:
347,114,72284,1,0,0:0:0:0:
339,156,72368,6,0,P|296:180|264:212,1,85
84,260,72701,2,0,P|80:208|52:152,1,85
272,24,73034,1,0,0:0:0:0:
184,56,73201,1,0,0:0:0:0:
92,24,73368,1,0,0:0:0:0:
4,56,73534,1,0,0:0:0:0:
184,216,73701,5,0,0:0:0:0:
184,56,73868,1,0,0:0:0:0:
344,216,74034,1,0,0:0:0:0:
344,56,74201,1,0,0:0:0:0:
507,18,74368,1,0,0:0:0:0:
480,50,74451,1,0,0:0:0:0:
469,91,74534,1,0,0:0:0:0:
477,132,74618,1,0,0:0:0:0:
501,167,74701,6,0,L|496:276,1,85
328,328,75034,2,0,L|323:223,1,85
112,176,75368,1,0,0:0:0:0:
292,128,75534,1,0,0:0:0:0:
140,72,75701,1,0,0:0:0:0:
292,128,75868,1,0,0:0:0:0:
176,244,76034,6,0,P|136:264|64:260,1,85
18,31,76368,1,0,0:0:0:0:
51,28,76451,1,0,0:0:0:0:
85,34,76534,1,0,0:0:0:0:
115,49,76618,1,0,0:0:0:0:
140,72,76701,1,0,0:0:0:0:
68,136,76868,1,0,0:0:0:0:
292,128,77034,6,0,P|272:84|272:24,1,85
68,136,77368,2,0,P|40:176|8:200,1,85
236,204,77701,1,0,0:0:0:0:
270,180,77784,1,0,0:0:0:0:
311,170,77868,1,0,0:0:0:0:
353,175,77951,1,0,0:0:0:0:
391,195,78034,5,0,0:0:0:0:
411,201,78118,1,0,0:0:0:0:
432,203,78201,1,0,0:0:0:0:
453,202,78284,1,0,0:0:0:0:
474,198,78368,5,0,0:0:0:0:
451,153,78451,1,0,0:0:0:0:
449,102,78534,1,0,0:0:0:0:
468,55,78618,1,0,0:0:0:0:
505,21,78701,1,0,0:0:0:0:
376,64,78868,6,0,L|360:40,4,21.25
342,70,79118,1,0,0:0:0:0:
309,65,79201,1,0,0:0:0:0:
279,50,79284,1,0,0:0:0:0:
255,25,79368,6,0,L|144:20,1,85
0,140,79701,2,0,P|32:176|80:196,1,85
172,160,80034,1,0,0:0:0:0:
292,252,80201,1,0,0:0:0:0:
428,200,80368,2,0,L|540:196,1,85
172,160,80701,5,0,0:0:0:0:
149,164,80784,1,0,0:0:0:0:
129,166,80868,1,0,0:0:0:0:
107,162,80951,1,0,0:0:0:0:
87,157,81034,5,0,0:0:0:0:
93,198,81118,1,0,0:0:0:0:
83,239,81201,1,0,0:0:0:0:
56,272,81284,1,0,0:0:0:0:
19,292,81368,2,0,B|60:308|60:308|92:336|92:336|136:352,1,127.5
148,352,81701,5,0,0:0:0:0:
177,336,81784,1,0,0:0:0:0:
211,329,81868,1,0,0:0:0:0:
244,332,81951,1,0,0:0:0:0:
276,344,82034,5,0,0:0:0:0:
286,346,82118,1,0,0:0:0:0:
296,347,82201,1,0,0:0:0:0:
307,347,82284,1,0,0:0:0:0:
317,344,82368,5,0,0:0:0:0:
292,311,82451,1,0,0:0:0:0:
284,269,82534,1,0,0:0:0:0:
294,229,82618,1,0,0:0:0:0:
320,196,82701,1,0,0:0:0:0:
358,178,82784,1,0,0:0:0:0:
400,178,82868,1,0,0:0:0:0:
438,195,82951,1,0,0:0:0:0:
465,228,83034,6,0,L|464:288,1,42.5
508,112,83201,2,0,L|512:176,1,42.5
384,264,83368,2,0,L|385:323,1,42.5
428,64,83534,2,0,L|426:123,1,42.5
269,149,83701,2,0,L|133:137,1,127.5
120,128,84034,6,0,P|80:152|36:164,1,85
4,320,84368,2,0,P|56:328|104:352,1,85
256,288,84701,1,0,0:0:0:0:
440,328,84868,1,0,0:0:0:0:
344,148,85034,1,0,0:0:0:0:
344,244,85201,1,0,0:0:0:0:
512,84,85368,5,0,0:0:0:0:
496,69,85451,1,0,0:0:0:0:
479,57,85534,1,0,0:0:0:0:
459,49,85618,1,0,0:0:0:0:
438,44,85701,5,0,0:0:0:0:
400,62,85784,1,0,0:0:0:0:
358,67,85868,1,0,0:0:0:0:
316,60,85951,1,0,0:0:0:0:
279,40,86034,2,0,B|236:36|236:36|200:44|200:44|148:44,1,127.5
132,56,86368,6,0,P|80:44|48:20,1,85
0,192,86701,2,0,P|20:236|16:292,1,85
4,360,87034,1,0,0:0:0:0:
0,192,87201,6,0,P|16:176|32:144,1,42.5
116,80,87368,2,0,P|110:101|112:137,1,42.5
132,232,87534,2,0,P|114:213|84:192,1,42.5
54,26,87701,5,0,0:0:0:0:
72,36,87784,1,0,0:0:0:0:
92,43,87868,1,0,0:0:0:0:
113,45,87951,1,0,0:0:0:0:
136,40,88034,5,0,0:0:0:0:
177,47,88118,1,0,0:0:0:0:
213,69,88201,1,0,0:0:0:0:
239,103,88284,1,0,0:0:0:0:
251,143,88368,2,0,P|304:152|364:144,1,85
504,264,88701,6,0,P|460:284|424:320,1,85
328,352,89034,1,0,0:0:0:0:
324,352,89118,1,0,0:0:0:0:
320,352,89201,1,0,0:0:0:0:
148,296,89368,1,0,0:0:0:0:
264,200,89534,1,0,0:0:0:0:
264,204,89618,1,0,0:0:0:0:
264,208,89701,1,0,0:0:0:0:
224,356,89868,1,0,0:0:0:0:
16,220,90034,5,0,0:0:0:0:
55,234,90118,1,0,0:0:0:0:
97,232,90201,1,0,0:0:0:0:
135,213,90284,1,0,0:0:0:0:
163,181,90368,5,0,0:0:0:0:
182,173,90451,1,0,0:0:0:0:
203,168,90534,1,0,0:0:0:0:
224,167,90618,1,0,0:0:0:0:
245,169,90701,2,0,B|288:180|288:180|320:204|320:204|376:220,1,127.5
380,236,91034,5,0,0:0:0:0:
413,260,91118,1,0,0:0:0:0:
455,263,91201,1,0,0:0:0:0:
492,243,91284,1,0,0:0:0:0:
512,207,91368,1,0,0:0:0:0:
510,165,91451,1,0,0:0:0:0:
485,131,91534,1,0,0:0:0:0:
447,115,91618,1,0,0:0:0:0:
405,123,91701,5,0,0:0:0:0:
411,132,91784,1,0,0:0:0:0:
416,141,91868,1,0,0:0:0:0:
421,151,91951,1,0,0:0:0:0:
428,160,92034,1,0,0:0:0:0:
459,139,92118,1,0,0:0:0:0:
479,106,92201,1,0,0:0:0:0:
484,69,92284,1,0,0:0:0:0:
476,32,92368,5,0,0:0:0:0:
429,54,92451,1,0,0:0:0:0:
380,65,92534,1,0,0:0:0:0:
329,61,92618,1,0,0:0:0:0:
281,44,92701,1,0,0:0:0:0:
234,25,92784,1,0,0:0:0:0:
184,18,92868,1,0,0:0:0:0:
133,24,92951,1,0,0:0:0:0:
85,41,93034,2,0,P|44:44|-4:32,1,85
140,104,93284,1,0,0:0:0:0:
140,104,93368,6,0,P|72:100|92:168,1,136
148,200,93868,2,0,L|232:204,2,68
296,160,94368,2,0,L|444:152,1,136
508,200,94868,2,0,P|480:228|460:268,2,68
512,332,95368,6,0,P|452:292|368:300,1,136
390,291,96034,1,0,0:0:0:0:
390,291,96368,1,0,0:0:0:0:
304,328,96534,1,0,0:0:0:0:
216,292,96701,1,0,0:0:0:0:
140,348,96868,1,0,0:0:0:0:
0,256,97034,1,0,0:0:0:0:
18,227,97118,1,0,0:0:0:0:
27,195,97201,1,0,0:0:0:0:
25,161,97284,1,0,0:0:0:0:
13,129,97368,5,0,0:0:0:0:
9,113,97451,1,0,0:0:0:0:
7,96,97534,1,0,0:0:0:0:
10,79,97618,1,0,0:0:0:0:
15,63,97701,2,0,P|28:44|40:12,3,34
60,24,98034,6,0,P|124:40|160:36,1,85
320,112,98368,2,0,P|364:96|412:60,1,85
512,204,98701,1,0,0:0:0:0:
464,344,98868,1,0,0:0:0:0:
416,176,99034,1,0,0:0:0:0:
464,344,99201,1,0,0:0:0:0:
312,300,99368,6,0,L|196:296,1,85
108,180,99701,2,0,P|148:156|180:112,1,85
8,60,100034,1,0,0:0:0:0:
8,64,100118,1,0,0:0:0:0:
8,68,100201,1,0,0:0:0:0:
164,32,100368,6,0,P|216:44|272:36,1,85
456,68,100701,2,0,P|412:92|376:132,1,85
220,212,101034,1,0,0:0:0:0:
312,180,101201,1,0,0:0:0:0:
404,216,101368,1,0,0:0:0:0:
496,184,101534,1,0,0:0:0:0:
372,360,101701,5,0,0:0:0:0:
312,180,101868,1,0,0:0:0:0:
467,291,102034,1,0,0:0:0:0:
277,293,102201,1,0,0:0:0:0:
273,293,102284,1,0,0:0:0:0:
269,293,102368,1,0,0:0:0:0:
430,179,102534,1,0,0:0:0:0:
288,96,102701,6,0,L|192:104,1,85
16,228,103034,2,0,P|68:248|96:276,1,85
288,256,103368,1,0,0:0:0:0:
184,228,103534,1,0,0:0:0:0:
89,267,103701,1,0,0:0:0:0:
0,128,103868,1,0,0:0:0:0:
168,112,104034,6,0,P|200:76|224:24,1,85
0,128,104368,1,0,0:0:0:0:
2,136,104451,1,0,0:0:0:0:
3,144,104534,1,0,0:0:0:0:
3,153,104618,1,0,0:0:0:0:
3,161,104701,2,0,P|8:184|8:208,1,34
80,100,104868,2,0,P|85:77|85:53,1,34
168,112,105034,6,0,P|212:120|272:116,1,85
376,272,105368,2,0,P|416:248|484:236,1,85
511,116,105701,5,0,0:0:0:0:
330,177,105868,1,0,0:0:0:0:
452,237,106034,5,0,0:0:0:0:
387,54,106201,1,0,0:0:0:0:
244,204,106368,1,0,0:0:0:0:
223,208,106451,1,0,0:0:0:0:
202,208,106534,1,0,0:0:0:0:
181,204,106618,1,0,0:0:0:0:
161,196,106701,5,0,0:0:0:0:
137,152,106784,1,0,0:0:0:0:
96,122,106868,1,0,0:0:0:0:
46,113,106951,1,0,0:0:0:0:
0,125,107034,1,0,0:0:0:0:
52,208,107201,1,0,0:0:0:0:
140,48,107368,6,0,P|188:44|244:16,1,85
52,208,107701,2,0,P|24:248|8:304,1,85
172,368,108034,1,0,0:0:0:0:
336,308,108201,1,0,0:0:0:0:
161,196,108368,1,0,0:0:0:0:
224,296,108534,1,0,0:0:0:0:
364,176,108701,6,0,B|408:176|408:176|448:180|448:180|496:176,1,127.5
508,160,109034,2,0,P|488:148|472:132,2,42.5
376,80,109368,2,0,P|332:100|276:100,1,85
336,308,109701,6,0,P|364:272|400:244,1,85
295,102,110034,2,0,L|183:106,1,85
0,64,110368,1,0,0:0:0:0:
112,184,110534,1,0,0:0:0:0:
160,28,110701,1,0,0:0:0:0:
24,156,110868,1,0,0:0:0:0:
24,160,110951,1,0,0:0:0:0:
24,164,111034,6,0,P|44:232|20:292,1,127.5
72,352,111368,2,0,P|92:344|116:340,3,42.5
120,312,111701,1,0,0:0:0:0:
120,312,112034,6,0,B|168:320|168:320|200:336|200:336|256:348,1,136
340,328,112534,1,0,0:0:0:0:
340,324,112618,1,0,0:0:0:0:
340,320,112701,1,0,0:0:0:0:
428,352,112868,1,0,0:0:0:0:
512,200,113034,2,0,P|476:216|440:252,1,68
340,320,113368,6,0,B|268:300|268:344|188:316,1,136
120,364,113868,1,0,0:0:0:0:
98,338,113951,1,0,0:0:0:0:
69,322,114034,1,0,0:0:0:0:
36,317,114118,1,0,0:0:0:0:
2,323,114201,1,0,0:0:0:0:
32,232,114368,1,0,0:0:0:0:
0,148,114534,1,0,0:0:0:0:
160,160,114701,6,0,P|220:196|304:176,1,136
420,256,115201,1,0,0:0:0:0:
420,260,115284,1,0,0:0:0:0:
420,264,115368,1,0,0:0:0:0:
508,156,115534,1,0,0:0:0:0:
368,128,115701,2,0,P|368:84|376:52,1,68
420,264,116034,6,0,L|332:272,1,68
400,284,116284,2,0,L|312:292,1,68
380,304,116534,2,0,L|292:312,1,68
360,324,116784,2,0,L|272:332,1,68
216,364,117034,1,0,0:0:0:0:
216,360,117118,1,0,0:0:0:0:
216,356,117201,1,0,0:0:0:0:
216,352,117284,1,0,0:0:0:0:
216,348,117368,6,0,P|152:328|64:356,1,136
8,288,117868,1,0,0:0:0:0:
144,196,118034,2,0,P|104:140|20:132,1,136
8,288,118534,1,0,0:0:0:0:
8,305,118618,1,0,0:0:0:0:
8,322,118701,1,0,0:0:0:0:
8,339,118784,1,0,0:0:0:0:
8,356,118868,1,0,0:0:0:0:
168,224,119034,2,0,P|168:184|180:132,1,68
296,272,119368,6,0,P|304:296|312:324,1,34
384,292,119534,2,0,P|392:316|400:344,1,34
472,312,119701,1,0,0:0:0:0:
480,308,119868,1,0,0:0:0:0:
428,204,120034,6,0,P|436:180|452:156,1,34
512,128,120201,2,0,P|504:104|488:80,1,34
416,60,120368,2,0,P|364:64|296:40,1,102
304,36,120701,5,0,0:0:0:0:
273,21,120784,1,0,0:0:0:0:
240,25,120868,1,0,0:0:0:0:
214,47,120951,1,0,0:0:0:0:
204,79,121034,1,0,0:0:0:0:
213,111,121118,1,0,0:0:0:0:
238,134,121201,1,0,0:0:0:0:
271,139,121284,1,0,0:0:0:0:
302,125,121368,6,0,P|344:96|396:88,1,93.5000028533936
496,176,121618,1,0,0:0:0:0:
496,184,121701,2,0,L|496:288,1,93.5000028533936
360,348,121951,1,0,0:0:0:0:
356,344,122034,2,0,P|308:328|248:336,1,93.5000028533936
112,276,122284,1,0,0:0:0:0:
104,276,122368,2,0,P|56:296|12:336,1,93.5000028533936
265,330,122701,5,0,0:0:0:0:
290,109,122868,1,0,0:0:0:0:
388,232,123034,5,0,0:0:0:0:
167,207,123201,1,0,0:0:0:0:
388,232,123368,5,0,0:0:0:0:
431,217,123451,1,0,0:0:0:0:
463,183,123534,1,0,0:0:0:0:
474,138,123618,1,0,0:0:0:0:
462,93,123701,5,0,0:0:0:0:
455,116,123784,1,0,0:0:0:0:
456,139,123868,1,0,0:0:0:0:
466,160,123951,1,0,0:0:0:0:
483,175,124034,6,0,L|488:296,1,93.5000028533936
296,336,124368,2,0,L|300:215,1,93.5000028533936
344,92,124701,2,0,P|312:52|264:28,1,93.5000028533936
272,32,124951,1,0,0:0:0:0:
268,32,125034,5,0,0:0:0:0:
36,96,125201,1,0,0:0:0:0:
216,108,125368,5,0,0:0:0:0:
88,20,125534,1,0,0:0:0:0:
72,184,125701,5,0,0:0:0:0:
33,210,125784,1,0,0:0:0:0:
9,249,125868,1,0,0:0:0:0:
4,296,125951,1,0,0:0:0:0:
18,340,126034,5,0,0:0:0:0:
112,364,126201,1,0,0:0:0:0:
204,328,126368,1,0,0:0:0:0:
300,360,126534,1,0,0:0:0:0:
512,248,126701,1,0,0:0:0:0:
477,264,126784,1,0,0:0:0:0:
441,269,126868,1,0,0:0:0:0:
404,264,126951,1,0,0:0:0:0:
369,249,127034,2,0,P|324:248|276:260,1,93.5000028533936
452,360,127368,2,0,P|476:356|508:340,3,46.7500014266968
496,328,127701,5,0,0:0:0:0:
483,308,127784,1,0,0:0:0:0:
476,285,127868,1,0,0:0:0:0:
476,262,127951,1,0,0:0:0:0:
482,240,128034,5,0,0:0:0:0:
503,199,128118,1,0,0:0:0:0:
506,152,128201,1,0,0:0:0:0:
490,109,128284,1,0,0:0:0:0:
457,76,128368,1,0,0:0:0:0:
308,104,128534,1,0,0:0:0:0:
407,220,128701,6,0,P|359:244|307:244,1,93.5000028533936
144,304,129034,2,0,P|200:344|224:384,1,93.5000028533936
308,104,129368,1,0,0:0:0:0:
184,144,129534,1,0,0:0:0:0:
68,92,129701,2,0,L|68:56,2,23.3750007133484
0,148,129868,1,0,0:0:0:0:
0,160,129951,1,0,0:0:0:0:
4,172,130034,5,0,0:0:0:0:
50,169,130118,1,0,0:0:0:0:
92,188,130201,1,0,0:0:0:0:
123,223,130284,1,0,0:0:0:0:
134,268,130368,2,0,P|164:276|200:276,3,46.7500014266968
248,236,130701,5,0,0:0:0:0:
265,203,130784,1,0,0:0:0:0:
296,182,130868,1,0,0:0:0:0:
333,178,130951,1,0,0:0:0:0:
367,192,131034,1,0,0:0:0:0:
391,220,131118,1,0,0:0:0:0:
400,256,131201,1,0,0:0:0:0:
391,292,131284,1,0,0:0:0:0:
366,319,131368,5,0,0:0:0:0:
387,328,131451,1,0,0:0:0:0:
409,334,131534,1,0,0:0:0:0:
433,336,131618,1,0,0:0:0:0:
456,335,131701,5,0,0:0:0:0:
444,290,131784,1,0,0:0:0:0:
449,244,131868,1,0,0:0:0:0:
470,202,131951,1,0,0:0:0:0:
506,172,132034,6,0,P|504:140|508:114,1,46.7500014266968
428,28,132201,2,0,P|416:56|396:84,1,46.7500014266968
308,132,132368,2,0,P|288:104|264:84,1,46.7500014266968
172,52,132534,1,0,0:0:0:0:
156,52,132618,1,0,0:0:0:0:
144,56,132701,5,0,0:0:0:0:
117,82,132784,1,0,0:0:0:0:
84,98,132868,1,0,0:0:0:0:
47,104,132951,1,0,0:0:0:0:
10,97,133034,5,0,0:0:0:0:
24,115,133118,1,0,0:0:0:0:
33,136,133201,1,0,0:0:0:0:
37,159,133284,1,0,0:0:0:0:
35,183,133368,5,0,0:0:0:0:
78,165,133451,1,0,0:0:0:0:
124,158,133534,1,0,0:0:0:0:
170,166,133618,1,0,0:0:0:0:
213,184,133701,1,0,0:0:0:0:
257,200,133784,1,0,0:0:0:0:
303,205,133868,1,0,0:0:0:0:
349,196,133951,1,0,0:0:0:0:
393,179,134034,2,0,P|416:184|456:188,3,46.7500014266968
508,236,134368,5,0,0:0:0:0:
497,241,134451,1,0,0:0:0:0:
488,248,134534,1,0,0:0:0:0:
479,256,134618,1,0,0:0:0:0:
472,265,134701,6,0,P|440:272|408:284,1,46.7500014266968
328,264,134868,2,0,P|304:284|280:312,1,46.7500014266968
184,368,135034,2,0,L|244:364,1,46.7500014266968
64,312,135201,2,0,L|12:308,1,46.7500014266968
176,236,135368,5,0,0:0:0:0:
187,200,135451,1,0,0:0:0:0:
184,163,135534,1,0,0:0:0:0:
169,129,135618,1,0,0:0:0:0:
143,103,135701,1,0,0:0:0:0:
109,87,135784,1,0,0:0:0:0:
72,85,135868,1,0,0:0:0:0:
36,96,135951,1,0,0:0:0:0:
7,119,136034,5,0,0:0:0:0:
30,123,136118,1,0,0:0:0:0:
53,122,136201,1,0,0:0:0:0:
76,115,136284,1,0,0:0:0:0:
96,104,136368,2,0,P|100:72|112:32,1,46.7500014266968
231,14,136534,2,0,P|240:36|252:55,1,46.7500014266968
204,176,136701,5,0,0:0:0:0:
246,156,136784,1,0,0:0:0:0:
292,151,136868,1,0,0:0:0:0:
338,159,136951,1,0,0:0:0:0:
379,181,137034,2,0,P|408:172|448:172,3,46.7500014266968
440,160,137368,2,0,P|484:120|492:32,1,140.25000428009
512,120,137701,5,0,0:0:0:0:
497,154,137784,1,0,0:0:0:0:
492,191,137868,1,0,0:0:0:0:
494,228,137951,1,0,0:0:0:0:
506,264,138034,5,0,0:0:0:0:
495,268,138118,1,0,0:0:0:0:
484,273,138201,1,0,0:0:0:0:
474,279,138284,1,0,0:0:0:0:
465,286,138368,5,0,0:0:0:0:
425,262,138451,1,0,0:0:0:0:
381,247,138534,1,0,0:0:0:0:
335,243,138618,1,0,0:0:0:0:
288,250,138701,1,0,0:0:0:0:
245,268,138784,1,0,0:0:0:0:
207,295,138868,1,0,0:0:0:0:
177,331,138951,1,0,0:0:0:0:
155,372,139034,5,0,0:0:0:0:
176,362,139118,1,0,0:0:0:0:
199,357,139201,1,0,0:0:0:0:
222,355,139284,1,0,0:0:0:0:
245,358,139368,5,0,0:0:0:0:
284,319,139451,1,0,0:0:0:0:
299,265,139534,1,0,0:0:0:0:
284,212,139618,1,0,0:0:0:0:
244,173,139701,1,0,0:0:0:0:
190,160,139784,1,0,0:0:0:0:
137,176,139868,1,0,0:0:0:0:
99,216,139951,1,0,0:0:0:0:
87,270,140034,6,0,B|128:288|128:288|168:296|168:296|232:328,1,152.999995330811
389,293,140534,2,0,P|360:224|384:153,1,152.999995330811
512,92,141034,1,0,0:0:0:0:
396,12,141201,1,0,0:0:0:0:
320,72,141368,6,0,P|236:100|152:72,1,152.999995330811
64,24,141868,2,0,P|84:84|8:100,1,152.999995330811
175,86,142368,1,0,0:0:0:0:
64,204,142534,1,0,0:0:0:0:
152,288,142701,6,0,B|204:288|204:288|252:300|252:300|308:296,1,152.999995330811
376,232,143201,2,0,P|424:184|520:192,1,152.999995330811
420,144,143701,2,0,P|392:112|376:68,1,76.4999976654053
220,32,144034,2,0,B|176:36|176:36|136:32|136:32|100:32,2,114.749996498108
272,112,144701,6,0,P|188:152|112:132,1,152.999995330811
8,208,145201,2,0,L|-4:232,4,19.1249994163513
8,204,145451,1,0,0:0:0:0:
8,200,145534,1,0,0:0:0:0:
8,196,145618,1,0,0:0:0:0:
8,192,145701,1,0,0:0:0:0:
148,240,145868,1,0,0:0:0:0:
8,316,146034,6,0,P|56:324|104:368,1,114.749996498108
180,340,146368,1,0,0:0:0:0:
215,354,146451,1,0,0:0:0:0:
253,359,146534,1,0,0:0:0:0:
291,356,146618,1,0,0:0:0:0:
326,343,146701,1,0,0:0:0:0:
396,272,146868,1,0,0:0:0:0:
216,204,147034,2,0,L|212:96,1,76.4999976654053
268,56,147368,6,0,P|340:36|432:84,1,152.999995330811
320,180,147868,1,0,0:0:0:0:
512,204,148034,1,0,0:0:0:0:
507,185,148118,1,0,0:0:0:0:
499,167,148201,1,0,0:0:0:0:
490,151,148284,1,0,0:0:0:0:
479,135,148368,2,0,P|440:148|396:148,1,76.4999976654053
169,176,148701,6,0,B|241:196|240:148|333:184,1,152.999995330811
8,64,149368,6,0,P|36:124|0:212,1,152.999995330811
120,100,149868,2,0,B|172:88|172:88|208:64|208:64|268:48,1,152.999995330811
396,96,150368,2,0,P|460:84|516:40,1,114.749996498108
504,88,150701,6,0,P|456:148|524:192,1,152.999995330811
412,244,151201,2,0,P|348:200|256:228,1,152.999995330811
144,284,151701,2,0,L|52:288,1,76.4999976654053
264,360,152034,6,0,B|320:360|320:360|364:348|364:348|428:348,1,152.999995330811
504,204,152534,2,0,P|424:188|364:112,1,152.999995330811
284,168,153034,1,0,0:0:0:0:
192,136,153201,1,0,0:0:0:0:
56,240,153368,2,0,P|44:216|28:196,3,38.2499988327027
8,192,153701,2,0,L|4:96,1,76.4999976654053
64,44,154034,6,0,P|128:28|208:80,1,152.999995330811
420,108,154534,2,0,B|368:130|368:130|336:162|336:162|288:182,1,152.999995330811
344,252,155034,2,0,P|388:252|436:272,1,76.4999976654053
508,136,155368,6,0,P|448:88|444:4,1,152.999995330811
284,64,155868,1,0,0:0:0:0:
196,28,156034,2,0,B|116:56|116:4|32:32,1,152.999995330811
45,27,156701,5,0,0:0:0:0:
416,288,158368,1,0,0:0:0:0:
416,288,158701,6,0,P|380:304|324:308,1,85
228,192,158951,1,0,0:0:0:0:
224,188,159034,2,0,P|184:160|128:148,1,85
4,188,159284,1,0,0:0:0:0:
8,192,159368,2,0,P|8:216|4:248,2,42.5
44,36,159701,1,0,0:0:0:0:
76,46,159784,1,0,0:0:0:0:
110,48,159868,1,0,0:0:0:0:
143,42,159951,1,0,0:0:0:0:
174,29,160034,6,0,L|280:32,1,85
452,80,160284,1,0,0:0:0:0:
448,84,160368,2,0,P|400:104|368:132,1,85
220,176,160618,1,0,0:0:0:0:
224,180,160701,2,0,P|260:224|288:244,1,85
440,260,161034,1,0,0:0:0:0:
374,124,161201,1,0,0:0:0:0:
328,328,161368,6,0,P|276:328|224:344,1,85
88,276,161618,1,0,0:0:0:0:
84,280,161701,2,0,P|48:304|4:352,1,85
188,264,162034,1,0,0:0:0:0:
188,260,162118,1,0,0:0:0:0:
188,256,162201,1,0,0:0:0:0:
0,208,162368,2,0,L|4:108,1,85
188,260,162701,6,0,P|184:308|156:356,1,85
220,252,162951,2,0,P|216:300|188:348,1,85
252,244,163201,1,0,0:0:0:0:
144,112,163368,6,0,P|180:84|240:64,1,85
312,88,163701,1,0,0:0:0:0:
368,272,163868,2,0,L|368:304,4,21.25
407,287,164118,1,0,0:0:0:0:
449,284,164201,1,0,0:0:0:0:
486,264,164284,1,0,0:0:0:0:
511,230,164368,1,0,0:0:0:0:
384,172,164534,1,0,0:0:0:0:
496,88,164701,6,0,P|504:44|500:-4,1,85
384,172,165034,1,0,0:0:0:0:
360,127,165118,1,0,0:0:0:0:
320,95,165201,1,0,0:0:0:0:
271,82,165284,1,0,0:0:0:0:
221,89,165368,2,0,P|172:88|120:76,1,85
4,184,165701,2,0,P|24:220|32:272,1,85
168,364,166034,5,0,0:0:0:0:
176,356,166201,1,0,0:0:0:0:
184,348,166368,1,0,0:0:0:0:
192,340,166534,1,0,0:0:0:0:
260,280,166701,2,0,L|320:276,3,42.5
320,296,167034,2,0,B|364:304|364:304|396:324|396:324|456:336,1,127.5
500,256,167368,5,0,0:0:0:0:
457,256,167451,1,0,0:0:0:0:
418,240,167534,1,0,0:0:0:0:
390,209,167618,1,0,0:0:0:0:
376,169,167701,5,0,0:0:0:0:
367,163,167784,1,0,0:0:0:0:
358,158,167868,1,0,0:0:0:0:
348,155,167951,1,0,0:0:0:0:
338,152,168034,6,0,L|232:160,1,85
60,240,168368,2,0,L|166:248,1,85
328,328,168701,2,0,P|276:336|236:360,1,85
338,152,169034,2,0,P|360:188|408:228,1,85
500,360,169368,6,0,P|510:316|500:260,1,85
464,168,169701,1,0,0:0:0:0:
500,56,169868,1,0,0:0:0:0:
376,16,170034,2,0,P|323:23|276:24,1,85
76,112,170368,2,0,P|108:128|156:168,1,85
344,148,170701,5,0,0:0:0:0:
224,108,170868,1,0,0:0:0:0:
144,304,171034,1,0,0:0:0:0:
296,272,171201,1,0,0:0:0:0:
92,228,171368,2,0,L|-20:228,1,85
296,272,171701,2,0,L|388:268,1,85
512,212,172034,5,0,0:0:0:0:
364,176,172201,1,0,0:0:0:0:
360,176,172284,1,0,0:0:0:0:
356,176,172368,1,0,0:0:0:0:
465,58,172534,1,0,0:0:0:0:
512,212,172701,5,0,0:0:0:0:
512,212,173034,2,0,P|504:256|512:308,1,85
304,336,173368,2,0,P|332:304|348:248,1,85
164,204,173701,2,0,L|60:200,1,85
268,352,174034,6,0,L|372:348,1,85
472,232,174368,2,0,P|432:196|380:172,1,85
200,72,174701,2,0,P|212:120|240:160,1,85
380,76,175034,2,0,P|420:92|484:92,1,85
472,232,175368,5,0,0:0:0:0:
0,12,176701,1,0,0:0:0:0:
21,38,176784,1,0,0:0:0:0:
32,70,176868,1,0,0:0:0:0:
31,104,176951,1,0,0:0:0:0:
19,135,177034,2,0,P|40:144|64:160,3,34
72,168,177368,6,0,P|112:156|168:156,1,93.5000028533936
280,32,177701,2,0,P|322:50|372:60,1,93.5000028533936
512,160,178034,2,0,L|508:256,1,93.5000028533936
336,324,178368,2,0,L|332:228,1,93.5000028533936
152,124,178701,6,0,P|140:176|116:220,1,93.5000028533936
251,359,179034,2,0,P|287:335|347:323,1,93.5000028533936
508,224,179368,2,0,P|464:220|400:184,1,93.5000028533936
368,68,179701,2,0,P|416:52|476:48,1,93.5000028533936
324,296,180034,6,0,L|212:288,1,93.5000028533936
4,212,180368,2,0,L|116:204,1,93.5000028533936
232,116,180701,2,0,P|236:72|224:12,1,93.5000028533936
419,199,181034,2,0,P|436:248|480:288,1,93.5000028533936
248,328,181368,6,0,P|192:312|140:316,1,93.5000028533936
24,244,181701,2,0,L|28:132,1,93.5000028533936
224,192,182034,6,0,L|232:296,1,93.5000028533936
416,340,182368,2,0,P|460:320|520:312,1,93.5000028533936
418,150,182701,2,0,P|370:130|330:90,1,93.5000028533936
156,136,183034,2,0,P|140:184|112:224,1,93.5000028533936
264,264,183368,6,0,P|312:268|368:276,1,93.5000028533936
512,140,183701,2,0,P|466:147|414:151,1,93.5000028533936
264,32,184034,2,0,P|208:40|160:60,1,93.5000028533936
32,168,184368,2,0,L|36:268,1,93.5000028533936
220,344,184701,6,0,P|240:292|272:256,1,93.5000028533936
416,220,185034,2,0,P|420:268|436:312,1,93.5000028533936
220,172,185368,2,0,L|126:168,1,93.5000028533936
352,80,185701,2,0,L|445:76,1,93.5000028533936
416,220,186034,6,0,P|432:203|452:191,1,46.7500014266968
300,280,186201,2,0,P|306:257|317:236,1,46.7500014266968
400,324,186368,2,0,P|446:325|491:337,1,93.5000028533936
236,360,186701,5,0,0:0:0:0:
192,368,186784,1,0,0:0:0:0:
144,360,186868,2,0,P|120:356|96:356,1,46.7500014266968
12,240,187034,1,0,0:0:0:0:
16,240,187118,1,0,0:0:0:0:
20,240,187201,2,0,P|56:232|88:216,1,46.7500014266968
180,120,187368,5,0,0:0:0:0:
208,156,187451,1,0,0:0:0:0:
224,200,187534,2,0,P|216:224|212:256,1,46.7500014266968
64,100,187701,1,0,0:0:0:0:
64,96,187784,1,0,0:0:0:0:
64,92,187868,2,0,P|48:64|40:36,1,46.7500014266968
212,32,188034,5,0,0:0:0:0:
256,48,188118,1,0,0:0:0:0:
304,48,188201,2,0,P|332:64|352:88,1,46.7500014266968
448,144,188368,1,0,0:0:0:0:
452,144,188451,1,0,0:0:0:0:
456,144,188534,2,0,P|460:120|476:88,1,46.7500014266968
332,208,188701,5,0,0:0:0:0:
360,244,188784,1,0,0:0:0:0:
404,264,188868,2,0,P|436:260|468:260,1,46.7500014266968
232,144,189034,1,0,0:0:0:0:
232,148,189118,1,0,0:0:0:0:
232,152,189201,2,0,P|208:164|176:172,1,46.7500014266968
4,172,189368,6,0,P|60:176|112:196,1,93.5000028533936
192,348,189701,2,0,P|236:332|288:284,1,93.5000028533936
504,264,190034,2,0,L|500:152,1,93.5000028533936
312,116,190368,2,0,L|308:228,1,93.5000028533936
460,80,190701,6,0,B|428:76|428:76|396:80,2,62.3333352355958
320,24,191034,2,0,B|288:28|288:28|256:24,2,62.3333352355958
312,116,191368,5,0,0:0:0:0:
268,128,191451,1,0,0:0:0:0:
224,120,191534,2,0,P|196:128|172:140,1,46.7500014266968
72,76,191701,1,0,0:0:0:0:
68,76,191784,1,0,0:0:0:0:
64,76,191868,2,0,P|32:72|-8:80,1,46.7500014266968
72,208,192034,5,0,0:0:0:0:
100,244,192118,1,0,0:0:0:0:
144,264,192201,2,0,P|172:264|208:272,1,46.7500014266968
336,328,192368,1,0,0:0:0:0:
332,328,192451,1,0,0:0:0:0:
328,328,192534,2,0,P|296:336|264:348,1,46.7500014266968
432,232,192701,5,0,0:0:0:0:
392,212,192784,1,0,0:0:0:0:
364,176,192868,2,0,P|368:148|368:116,1,46.7500014266968
488,80,193034,1,0,0:0:0:0:
488,84,193118,1,0,0:0:0:0:
488,88,193201,2,0,P|492:116|496:152,1,46.7500014266968
320,32,193368,5,0,0:0:0:0:
276,48,193451,1,0,0:0:0:0:
228,44,193534,2,0,P|200:24|172:8,1,46.7500014266968
56,120,193701,1,0,0:0:0:0:
56,116,193784,1,0,0:0:0:0:
56,112,193868,2,0,P|84:108|112:96,1,46.7500014266968
280,136,194034,6,0,P|232:144|180:136,1,93.5000028533936
20,232,194284,1,0,0:0:0:0:
16,236,194368,2,0,P|60:256|96:300,1,93.5000028533936
220,352,194618,1,0,0:0:0:0:
224,352,194701,2,0,L|332:348,1,93.5000028533936
396,220,194951,1,0,0:0:0:0:
392,220,195034,2,0,L|296:216,1,93.5000028533936
472,296,195284,1,0,0:0:0:0:
476,296,195368,5,0,0:0:0:0:
501,257,195451,1,0,0:0:0:0:
507,211,195534,1,0,0:0:0:0:
494,166,195618,1,0,0:0:0:0:
464,132,195701,2,0,L|468:80,1,46.7500014266968
364,12,195868,2,0,L|368:76,1,46.7500014266968
276,120,196034,6,0,P|228:124|180:108,1,93.5000028533936
108,32,196368,1,0,0:0:0:0:
4,148,196534,1,0,0:0:0:0:
4,132,196618,1,0,0:0:0:0:
8,120,196701,5,0,0:0:0:0:
45,117,196784,1,0,0:0:0:0:
80,127,196868,1,0,0:0:0:0:
110,150,196951,1,0,0:0:0:0:
129,182,197034,1,0,0:0:0:0:
136,218,197118,1,0,0:0:0:0:
130,255,197201,1,0,0:0:0:0:
111,287,197284,1,0,0:0:0:0:
82,310,197368,6,0,L|88:368,3,46.7500014266968
216,328,197701,2,0,L|221:270,3,46.7500014266968
344,320,198034,2,0,L|349:377,3,46.7500014266968
472,332,198368,1,0,0:0:0:0:
462,286,198451,1,0,0:0:0:0:
464,239,198534,1,0,0:0:0:0:
479,195,198618,1,0,0:0:0:0:
504,156,198701,5,0,0:0:0:0:
388,12,198868,1,0,0:0:0:0:
356,200,199034,5,0,0:0:0:0:
472,56,199201,1,0,0:0:0:0:
300,124,199368,5,0,0:0:0:0:
289,119,199451,1,0,0:0:0:0:
279,113,199534,1,0,0:0:0:0:
269,106,199618,1,0,0:0:0:0:
261,98,199701,5,0,0:0:0:0:
220,76,199784,1,0,0:0:0:0:
174,72,199868,1,0,0:0:0:0:
129,85,199951,1,0,0:0:0:0:
93,114,200034,6,0,P|48:128|0:124,1,93.5000028533936
156,280,200368,1,0,0:0:0:0:
200,192,200534,2,0,L|228:184,2,23.3750007133484
156,280,200701,6,0,P|204:292|256:328,1,93.5000028533936
376,368,200951,1,0,0:0:0:0:
380,364,201034,2,0,L|492:360,1,93.5000028533936
512,220,201284,1,0,0:0:0:0:
508,216,201368,2,0,P|500:160|516:112,1,93.5000028533936
384,24,201618,1,0,0:0:0:0:
380,28,201701,2,0,P|348:80|308:100,1,93.5000028533936
184,168,201951,1,0,0:0:0:0:
180,164,202034,6,0,P|132:164|72:176,1,93.5000028533936
308,248,202284,1,0,0:0:0:0:
312,252,202368,2,0,P|358:259|404:259,1,93.5000028533936
180,332,202618,1,0,0:0:0:0:
176,328,202701,2,0,P|128:328|68:340,1,93.5000028533936
0,196,202951,1,0,0:0:0:0:
0,192,203034,2,0,P|40:152|60:108,1,93.5000028533936
120,56,203284,1,0,0:0:0:0:
128,56,203368,5,0,0:0:0:0:
240,100,203534,1,0,0:0:0:0:
348,52,203701,1,0,0:0:0:0:
460,96,203868,1,0,0:0:0:0:
360,300,204034,5,0,0:0:0:0:
512,248,204201,1,0,0:0:0:0:
308,148,204368,1,0,0:0:0:0:
460,96,204534,1,0,0:0:0:0:
328,316,204701,6,0,P|350:321|373:324,1,46.7500014266968
208,324,204868,2,0,P|223:341|242:355,1,46.7500014266968
120,268,205034,2,0,P|76:264|24:272,1,93.5000028533936
44,48,205368,5,0,0:0:0:0:
17,73,205451,1,0,0:0:0:0:
6,108,205534,1,0,0:0:0:0:
14,144,205618,1,0,0:0:0:0:
40,171,205701,1,0,0:0:0:0:
75,182,205784,1,0,0:0:0:0:
111,174,205868,1,0,0:0:0:0:
138,148,205951,1,0,0:0:0:0:
149,113,206034,5,0,0:0:0:0:
157,105,206118,1,0,0:0:0:0:
166,98,206201,1,0,0:0:0:0:
176,91,206284,1,0,0:0:0:0:
187,86,206368,1,0,0:0:0:0:
198,82,206451,1,0,0:0:0:0:
209,79,206534,1,0,0:0:0:0:
221,77,206618,1,0,0:0:0:0:
232,77,206701,5,0,0:0:0:0:
240,123,206784,1,0,0:0:0:0:
261,164,206868,1,0,0:0:0:0:
293,198,206951,1,0,0:0:0:0:
333,222,207034,1,0,0:0:0:0:
378,233,207118,1,0,0:0:0:0:
425,231,207201,1,0,0:0:0:0:
469,216,207284,1,0,0:0:0:0:
506,189,207368,6,0,L|504:128,3,46.7500014266968
412,24,207701,2,0,L|408:72,3,46.7500014266968
288,124,208034,5,0,0:0:0:0:
265,116,208118,1,0,0:0:0:0:
242,114,208201,1,0,0:0:0:0:
219,116,208284,1,0,0:0:0:0:
197,124,208368,1,0,0:0:0:0:
177,136,208451,1,0,0:0:0:0:
159,151,208534,1,0,0:0:0:0:
146,170,208618,1,0,0:0:0:0:
137,192,208701,5,0,0:0:0:0:
94,209,208784,1,0,0:0:0:0:
49,202,208868,1,0,0:0:0:0:
14,171,208951,1,0,0:0:0:0:
1,127,209034,1,0,0:0:0:0:
14,83,209118,1,0,0:0:0:0:
48,52,209201,1,0,0:0:0:0:
93,44,209284,1,0,0:0:0:0:
136,61,209368,5,0,0:0:0:0:
188,80,209451,1,0,0:0:0:0:
244,88,209534,1,0,0:0:0:0:
300,80,209618,1,0,0:0:0:0:
348,52,209701,2,0,B|392:68|392:68|424:100|424:100|492:124,1,140.25000428009
512,192,210034,5,0,0:0:0:0:
506,202,210118,1,0,0:0:0:0:
502,213,210201,1,0,0:0:0:0:
499,224,210284,1,0,0:0:0:0:
497,235,210368,1,0,0:0:0:0:
496,247,210451,1,0,0:0:0:0:
497,259,210534,1,0,0:0:0:0:
500,270,210618,1,0,0:0:0:0:
503,281,210701,5,0,0:0:0:0:
460,265,210784,1,0,0:0:0:0:
413,258,210868,1,0,0:0:0:0:
367,263,210951,1,0,0:0:0:0:
323,279,211034,1,0,0:0:0:0:
279,295,211118,1,0,0:0:0:0:
233,298,211201,1,0,0:0:0:0:
187,289,211284,1,0,0:0:0:0:
144,272,211368,6,0,P|92:272|32:296,1,93.5000028533936
0,136,211701,2,0,P|36:104|56:56,1,93.5000028533936
200,176,212034,2,0,L|260:180,3,46.7500014266968
344,104,212368,2,0,L|404:100,3,46.7500014266968
504,196,212701,5,0,0:0:0:0:
482,187,212784,1,0,0:0:0:0:
459,183,212868,1,0,0:0:0:0:
435,185,212951,1,0,0:0:0:0:
413,191,213034,1,0,0:0:0:0:
393,202,213118,1,0,0:0:0:0:
375,218,213201,1,0,0:0:0:0:
361,237,213284,1,0,0:0:0:0:
352,258,213368,5,0,0:0:0:0:
316,286,213451,1,0,0:0:0:0:
270,291,213534,1,0,0:0:0:0:
229,271,213618,1,0,0:0:0:0:
205,231,213701,1,0,0:0:0:0:
207,185,213784,1,0,0:0:0:0:
233,147,213868,1,0,0:0:0:0:
276,130,213951,1,0,0:0:0:0:
321,138,214034,5,0,2:0:0:0:
279,176,214118,1,0,2:0:0:0:
229,200,214201,1,0,2:0:0:0:
174,207,214284,1,0,2:0:0:0:
119,197,214368,1,0,2:0:0:0:
70,171,214451,1,0,2:0:0:0:
33,128,214534,1,0,2:0:0:0:
9,78,214618,1,0,2:0:0:0:
3,23,214701,6,0,B|32:36|72:28|72:28|104:72|104:72|132:64|164:72|164:72|192:28|192:28|220:36|256:28|256:28|280:52|312:52,1,356.999989105225,0|0,2:0|2:0,2:0:0:0:
395,40,217368,2,0,P|463:118|360:128,1,254.999992218018
268,140,219368,6,0,B|208:164|140:136|140:136|112:164|80:172|80:172|120:196|116:244|116:244|148:232|148:232|200:236,1,356.999989105225
248,304,222034,2,0,B|212:328|212:328|192:328|164:324|164:324|140:336|112:340|112:340|84:316|44:308|44:308|28:268,1,254.999992218018
4,196,224034,6,0,B|48:220|99:206|132:168|132:168|184:180|184:180|220:144|268:128|308:140|340:164,1,356.999989105225
424,172,226701,2,0,B|496:148|496:148|468:128|460:80|484:52|484:52|404:36,1,254.999992218018
340,88,228701,6,0,B|328:140|280:168|228:160|192:136|180:100|180:100|148:112|124:108|124:108|129:145|124:180|104:196,1,356.999989105225
24,220,231368,2,0,B|112:192|112:264|216:228|216:228|188:244|168:272,1,254.999992218018
248,312,233368,6,0,B|288:276|324:272|324:272|292:236|284:196|292:148|292:148|256:156|200:148|164:108,1,356.999989105225
216,44,236034,2,0,B|276:40|276:40|328:52|328:52|376:44|376:44|420:56|420:56|472:56,1,254.999992218018
512,136,238034,6,0,B|488:136|460:140|432:168|424:204|424:228|424:228|408:204|408:204|384:192|384:192|368:140|368:140|320:148|320:148|332:208,1,356.999989105225
344,288,240701,2,0,P|392:348|316:300,1,254.999992218018
228,260,242701,6,0,B|200:300|200:300|204:348|204:348|156:336|156:336|108:360|108:360|100:308|100:308|64:280|64:280|112:252|112:252|128:188,1,407.999987548829
256,192,245451,12,0,250701,0:0:0:0:
