osu file format v14

[General]
AudioFilename: audio.mp3
AudioLeadIn: 0
PreviewTime: 41394
Countdown: 0
SampleSet: Soft
StackLeniency: 0.7
Mode: 0
LetterboxInBreaks: 0
WidescreenStoryboard: 1

[Editor]
Bookmarks: 21937
DistanceSpacing: 1
BeatDivisor: 2
GridSize: 8
TimelineZoom: 2.9

[Metadata]
Title:Virtual Paradise
TitleUnicode:Virtual Paradise
Artist:AK x LYNX ft Veela
ArtistUnicode:AK x LYNX ft Veela
Creator:Roger06150
Version:Normal
Source:
Tags:
BeatmapID:1250997
BeatmapSetID:589642

[Difficulty]
HPDrainRate:4
CircleSize:3.7
OverallDifficulty:4
ApproachRate:5
SliderMultiplier:1.1
SliderTickRate:2

[Events]
//Background and Video events
0,0,"maxresdefault.jpg",0,0
//Break Periods
//Storyboard Layer 0 (Background)
//Storyboard Layer 1 (Fail)
//Storyboard Layer 2 (Pass)
//Storyboard Layer 3 (Foreground)
//Storyboard Sound Samples

[TimingPoints]
40,344.837209302326,4,2,0,100,1,0
44179,-100,4,2,0,100,0,1
49696,-100,4,2,0,100,0,0

[HitObjects]
48,56,21937,6,0,P|80:112|96:120,1,55
168,160,22454,2,0,L|288:152,1,110
400,80,23833,5,0,0:0:0:0:
456,176,24178,2,0,P|456:248|440:280,1,110
328,280,24868,6,0,P|272:296|208:288,1,110
176,264,25385,2,0,P|120:208|120:168,1,110
192,96,26075,1,0,0:0:0:0:
296,72,26420,1,0,0:0:0:0:
448,128,26937,6,0,P|449:195|420:248,1,110
344,304,27626,1,0,0:0:0:0:
240,336,27971,2,0,L|112:352,1,110
360,112,29351,5,0,0:0:0:0:
256,72,29696,1,0,0:0:0:0:
40,56,30385,5,0,0:0:0:0:
80,160,30730,1,0,0:0:0:0:
112,208,30902,2,0,P|159:273|207:290,1,110
288,312,31592,1,0,0:0:0:0:
384,264,31937,2,0,P|377:209|352:161,2,110
232,320,33144,5,0,0:0:0:0:
136,272,33489,2,0,L|112:160,1,110
432,80,34868,5,0,0:0:0:0:
360,160,35213,1,0,0:0:0:0:
152,88,35903,6,0,P|96:96|72:120,2,55
200,112,36420,1,0,0:0:0:0:
280,184,36765,1,0,0:0:0:0:
224,280,37110,2,0,L|384:264,1,110
432,232,37799,2,0,L|304:160,1,110
248,40,38661,6,0,L|320:56,1,55
400,112,39179,2,0,P|432:176|424:224,1,110
360,304,39868,1,0,0:0:0:0:
248,296,40213,2,0,P|191:327|119:319,2,110
128,176,41420,5,0,0:0:0:0:
184,80,41765,2,0,L|296:72,1,110
384,136,42454,2,0,L|400:192,1,55
368,296,42972,5,0,0:0:0:0:
272,344,43317,2,0,P|216:360|144:336,2,110
408,248,44524,6,0,P|439:195|438:143,2,110
360,280,45386,2,0,L|208:280,1,110
200,264,45903,5,0,0:0:0:0:
128,184,46248,1,0,0:0:0:0:
152,80,46593,2,0,L|272:72,1,110
368,64,47282,2,0,P|424:120|424:168,1,110
360,264,47972,2,0,P|280:288|248:280,1,110
184,200,48662,6,0,B|152:184|152:184|144:104,1,110
256,96,49351,2,0,L|368:120,1,110
432,208,50041,6,0,L|384:312,1,110
280,288,50731,2,0,P|291:213|324:177,1,110
400,128,51420,5,0,0:0:0:0:
312,64,51765,2,0,P|256:40|200:40,2,110
376,152,52800,6,0,L|264:176,1,110
168,216,53489,2,0,P|200:280|232:304,1,110
336,288,54179,5,0,0:0:0:0:
392,192,54524,2,0,P|376:128|344:96,2,110
280,176,55558,1,0,0:0:0:0:
208,96,55903,2,0,P|172:137|162:190,2,110
120,64,56938,5,0,0:0:0:0:
16,104,57282,2,0,L|24:216,1,110
64,256,57800,1,0,0:0:0:0:
104,288,57972,2,0,P|153:333|215:341,2,110
360,72,59696,5,0,0:0:0:0:
424,160,60041,2,0,P|424:232|400:264,1,110
360,296,60558,2,0,L|232:312,1,110
224,264,61076,1,0,0:0:0:0:
224,152,61421,2,0,P|272:88|272:56,2,110
64,64,62455,5,0,0:0:0:0:
88,168,62800,2,0,L|216:184,1,110
248,160,63317,1,0,0:0:0:0:
304,144,63490,2,0,P|349:100|406:100,2,110
384,184,64524,1,0,0:0:0:0:
288,232,64869,2,0,L|168:240,2,110
392,256,65903,1,0,0:0:0:0:
440,320,66248,6,0,P|368:360|328:360,2,110
424,208,67283,1,0,0:0:0:0:
336,144,67628,6,0,P|268:120|231:123,1,110
184,144,68145,2,0,L|176:208,1,55
128,296,68662,2,0,P|80:256|72:240,2,55
232,272,69352,5,0,0:0:0:0:
280,176,69697,1,0,0:0:0:0:
360,104,70041,2,0,P|424:160|432:192,1,110
408,232,70559,5,0,0:0:0:0:
368,272,70731,2,0,L|248:280,1,110
368,88,71766,5,0,0:0:0:0:
264,56,72110,2,0,P|212:44|146:68,1,110
96,152,72800,1,0,0:0:0:0:
160,240,73145,6,0,P|212:255|265:243,2,110
80,96,74352,2,0,P|136:64|200:56,1,110
232,72,74869,5,0,0:0:0:0:
296,160,75214,1,0,0:0:0:0:
344,256,75559,2,0,P|416:224|440:200,1,110
392,104,76249,5,0,0:0:0:0:
296,160,76593,2,0,P|232:136|200:88,1,110
312,72,77283,5,0,0:0:0:0:
408,120,77628,1,0,0:0:0:0:
440,224,77973,2,0,P|405:294|355:318,1,110
331,211,78662,6,0,L|293:166,1,55
256,130,79180,2,0,P|200:164|165:229,1,110
248,288,79869,2,0,P|282:318|306:323,1,55
408,240,80387,5,0,0:0:0:0:
336,320,80731,2,0,P|280:328|216:312,1,110
184,288,81249,2,0,P|136:256|128:240,1,55
104,144,81766,5,0,0:0:0:0:
184,72,82111,2,0,P|248:48|304:56,1,110
344,72,82628,2,0,L|384:120,1,55
416,208,83145,5,0,0:0:0:0:
352,296,83490,2,0,P|264:320|224:320,1,110
192,304,84007,2,0,L|128:272,1,55
224,200,84525,5,0,0:0:0:0:
304,96,84869,2,0,L|184:72,1,110
144,96,85387,2,0,L|120:208,1,110
264,288,86249,6,0,L|376:320,1,110
256,192,86938,12,0,90732,0:0:0:0:
256,192,91077,5,0,0:0:0:0:
