osu file format v14

[General]
AudioFilename: audio.mp3
AudioLeadIn: 0
PreviewTime: 41394
Countdown: 0
SampleSet: Soft
StackLeniency: 0.7
Mode: 0
LetterboxInBreaks: 0
WidescreenStoryboard: 0

[Editor]
Bookmarks: 21911
DistanceSpacing: 1.4
BeatDivisor: 4
GridSize: 4
TimelineZoom: 4.399998

[Metadata]
Title:Virtual Paradise
TitleUnicode:Virtual Paradise
Artist:AK x LYNX ft Veela
ArtistUnicode:AK x LYNX ft Veela
Creator:Roger06150
Version:Hard
Source:
Tags:
BeatmapID:1248063
BeatmapSetID:589642

[Difficulty]
HPDrainRate:6
CircleSize:4
OverallDifficulty:7
ApproachRate:8
SliderMultiplier:1.5
SliderTickRate:2

[Events]
//Background and Video events
0,0,"maxresdefault.jpg",0,0
//Break Periods
//Storyboard Layer 0 (Background)
//Storyboard Layer 1 (Fail)
//Storyboard Layer 2 (Pass)
//Storyboard Layer 3 (Foreground)
//Storyboard Sound Samples

[TimingPoints]
40,344.827586206897,4,2,0,100,1,0
44179,-100,4,2,0,100,0,1
49524,-100,4,2,0,100,0,0
68143,-133.333333333333,4,2,0,100,0,0
69695,-100,4,2,0,100,0,0
79154,-133.333333333333,4,2,0,100,0,0
80189,-100,4,2,0,100,0,0

[HitObjects]
104,304,21937,5,0,0:0:0:0:
64,224,22110,2,0,P|66:187|120:144,1,75
168,104,22454,1,8,0:0:0:0:
264,112,22627,2,0,L|272:208,2,75
344,104,23144,2,0,P|376:64|416:56,1,75,8|0,0:0|0:0,0:0:0:0:
464,128,23489,6,0,P|432:168|392:176,1,75
288,168,23834,1,8,0:0:0:0:
288,168,24006,1,0,0:0:0:0:
216,248,24179,2,0,L|192:344,2,75
312,208,24695,1,0,0:0:0:0:
376,296,24868,1,0,0:0:0:0:
462,247,25041,6,0,B|454:207|454:207|422:151,1,75,0|8,0:0|0:0,0:0:0:0:
368,232,25385,1,0,0:0:0:0:
376,312,25558,2,0,P|320:296|296:264,1,75
280,184,25903,1,8,0:0:0:0:
192,132,26075,6,0,B|176:176|176:176|172:232,2,75
284,64,26592,1,8,0:0:0:0:
284,64,26765,1,0,0:0:0:0:
364,136,26937,2,0,P|400:192|392:232,1,75
324,200,27282,2,0,L|236:240,1,75,8|0,0:0|0:0,0:0:0:0:
88,304,27627,6,0,P|64:256|71:210,1,75
72,144,27971,2,0,P|132:176|148:204,1,75,8|0,0:0|0:0,0:0:0:0:
176,272,28317,1,0,0:0:0:0:
176,272,28489,1,0,0:0:0:0:
280,248,28661,2,0,P|328:224|352:192,2,75,8|0|0,0:0|0:0|0:0,0:0:0:0:
208,168,29178,1,0,0:0:0:0:
240,64,29351,6,0,P|312:88|328:112,1,75,8|0,0:0|0:0,0:0:0:0:
256,136,29696,2,0,P|201:131|172:92,2,75
364,160,30213,1,0,0:0:0:0:
416,248,30386,6,0,P|368:280|324:276,1,75
272,244,30730,1,8,0:0:0:0:
184,240,30903,2,0,P|203:300|240:324,2,75
192,160,31420,1,8,0:0:0:0:
224,80,31593,6,0,L|324:120,1,75
404,160,31937,1,0,0:0:0:0:
368,260,32110,1,8,0:0:0:0:
268,296,32282,2,0,P|212:280|188:248,1,75
188,148,32627,2,0,P|220:118|264:110,2,75,0|8|0,0:0|0:0|0:0,0:0:0:0:
152,272,33144,6,0,L|260:288,1,75
344,264,33489,1,8,0:0:0:0:
384,144,33661,2,0,P|347:112|303:105,2,75
316,176,34179,2,0,P|259:155|238:114,1,75,8|0,0:0|0:0,0:0:0:0:
247,61,34524,6,0,P|192:84|176:124,1,75
112,264,34868,1,8,0:0:0:0:
112,264,35041,1,0,0:0:0:0:
190,293,35213,2,0,P|193:249|176:208,1,75
120,144,35558,1,8,0:0:0:0:
196,68,35730,1,0,0:0:0:0:
304,64,35903,5,0,0:0:0:0:
376,136,36075,2,0,B|384:176|384:176|384:240,1,75,0|8,0:0|0:0,0:0:0:0:
376,304,36420,1,0,0:0:0:0:
280,240,36593,1,0,0:0:0:0:
184,304,36765,1,0,0:0:0:0:
184,216,36938,2,0,L|196:112,1,75,8|0,0:0|0:0,0:0:0:0:
272,136,37282,6,0,L|264:240,2,75,0|0|8,0:0|0:0|0:0,0:0:0:0:
280,56,37800,1,0,0:0:0:0:
280,56,37972,1,0,0:0:0:0:
376,96,38144,2,0,P|376:152|360:192,1,75,0|8,0:0|0:0,0:0:0:0:
260,128,38488,1,0,0:0:0:0:
156,164,38662,6,0,P|148:228|164:268,1,75
224,280,39007,1,8,0:0:0:0:
224,280,39179,2,0,P|227:219|256:184,1,75
264,140,39524,2,0,P|307:200|300:232,1,75,0|8,0:0|0:0,0:0:0:0:
272,280,39869,5,0,0:0:0:0:
160,192,40041,1,0,0:0:0:0:
272,96,40213,2,0,L|380:80,1,75,0|8,0:0|0:0,0:0:0:0:
440,72,40558,1,0,0:0:0:0:
440,72,40731,1,0,0:0:0:0:
456,216,40903,2,0,L|352:232,2,75,0|8|0,0:0|0:0|0:0,0:0:0:0:
400,64,41420,5,0,0:0:0:0:
336,152,41592,2,0,L|240:172,1,75,0|8,0:0|0:0,0:0:0:0:
168,184,41937,2,0,B|168:232|168:232|176:280,2,75
168,104,42454,1,8,0:0:0:0:
232,16,42627,2,0,P|288:32|312:56,1,75
240,136,42972,5,0,0:0:0:0:
344,152,43145,1,8,0:0:0:0:
440,184,43317,2,0,P|416:248|400:264,1,75
305,230,43662,2,0,P|329:166|345:150,1,75,0|8,0:0|0:0,0:0:0:0:
432,92,44006,1,0,0:0:0:0:
432,92,44179,6,0,L|344:52,1,75
392,232,44524,1,8,0:0:0:0:
392,232,44696,2,0,P|352:264|312:280,1,75
216,312,45041,1,0,0:0:0:0:
216,312,45213,1,8,0:0:0:0:
144,232,45386,6,0,L|112:136,2,75
176,312,45903,1,8,0:0:0:0:
264,320,46076,2,0,P|296:280|296:232,1,75
280,160,46421,1,0,0:0:0:0:
280,160,46593,1,8,0:0:0:0:
376,176,46765,6,0,L|400:264,2,75
352,96,47283,1,8,0:0:0:0:
256,144,47455,1,0,0:0:0:0:
176,216,47627,2,0,L|72:192,1,75
16,168,47972,1,8,0:0:0:0:
16,168,48145,5,0,0:0:0:0:
72,104,48317,2,0,B|112:88|112:88|168:80,1,75
240,72,48662,2,0,P|272:112|320:136,1,75,8|0,0:0|0:0,0:0:0:0:
384,136,49007,1,0,0:0:0:0:
384,136,49179,1,0,0:0:0:0:
448,184,49351,2,0,L|440:288,2,75,8|0|0,0:0|0:0|0:0,0:0:0:0:
448,104,49869,5,0,0:0:0:0:
448,104,50041,2,0,B|408:96|408:96|344:104,1,75,8|0,0:0|0:0,0:0:0:0:
312,184,50386,1,0,0:0:0:0:
240,256,50557,6,0,P|195:257|153:239,1,75
153,87,50903,6,0,P|198:86|240:104,2,75
80,192,51421,1,8,0:0:0:0:
80,192,51593,1,0,0:0:0:0:
168,288,51766,2,0,L|216:208,2,75,0|0|8,0:0|0:0|0:0,0:0:0:0:
252,320,52283,6,0,P|300:316|336:284,2,75
264,232,52800,1,8,0:0:0:0:
264,232,52972,1,0,0:0:0:0:
184,200,53145,2,0,P|209:161|268:144,1,75
328,136,53490,1,8,0:0:0:0:
328,136,53662,5,0,0:0:0:0:
392,204,53835,2,0,P|368:260|328:284,1,75
272,296,54179,1,8,0:0:0:0:
208,248,54352,1,0,0:0:0:0:
208,248,54524,2,0,L|140:168,1,75
96,120,54869,2,0,L|176:56,1,75,8|0,0:0|0:0,0:0:0:0:
260,40,55214,6,0,P|316:80|324:112,1,75
356,184,55559,1,8,0:0:0:0:
317,285,55731,2,0,P|289:320|248:336,2,75
240,256,56248,2,0,L|184:168,1,75,8|0,0:0|0:0,0:0:0:0:
152,112,56593,5,0,0:0:0:0:
152,112,56766,1,0,0:0:0:0:
232,80,56938,2,0,B|268:68|268:68|336:76,1,75,8|0,0:0|0:0,0:0:0:0:
384,120,57283,2,0,L|376:224,1,75
296,280,57628,1,8,0:0:0:0:
296,280,57800,5,0,0:0:0:0:
192,248,57973,1,0,0:0:0:0:
192,248,58145,1,0,0:0:0:0:
240,152,58317,1,8,0:0:0:0:
240,152,58490,1,0,0:0:0:0:
328,184,58662,2,0,L|344:280,2,75,0|0|8,0:0|0:0|0:0,0:0:0:0:
312,104,59180,5,0,0:0:0:0:
232,120,59352,2,0,L|144:136,2,75,0|0|8,0:0|0:0|0:0,0:0:0:0:
304,200,59869,1,0,0:0:0:0:
256,296,60042,2,0,P|208:280|176:248,1,75
136,152,60386,1,8,0:0:0:0:
136,152,60559,5,0,0:0:0:0:
224,88,60731,1,0,0:0:0:0:
328,112,60903,2,0,L|340:216,2,75,0|8|0,0:0|0:0|0:0,0:0:0:0:
224,120,61421,1,0,0:0:0:0:
168,208,61593,1,0,0:0:0:0:
224,304,61766,1,8,0:0:0:0:
328,264,61938,6,0,L|344:168,1,75
360,72,62283,1,0,0:0:0:0:
360,72,62455,1,8,0:0:0:0:
448,40,62628,1,0,0:0:0:0:
448,128,62800,2,0,L|424:224,1,75
352,168,63145,2,0,L|328:256,1,75,8|0,0:0|0:0,0:0:0:0:
400,296,63490,5,0,0:0:0:0:
400,296,63662,1,0,0:0:0:0:
328,352,63835,2,0,P|256:376|224:368,1,75,8|0,0:0|0:0,0:0:0:0:
168,344,64180,1,0,0:0:0:0:
112,280,64352,2,0,P|98:218|115:180,1,75,0|8,0:0|0:0,0:0:0:0:
152,128,64697,5,0,0:0:0:0:
152,128,64869,1,0,0:0:0:0:
224,168,65042,2,0,L|232:272,1,75,0|8,0:0|0:0,0:0:0:0:
320,316,65387,1,0,0:0:0:0:
320,316,65559,1,0,0:0:0:0:
396,240,65731,1,0,0:0:0:0:
396,240,65904,1,8,0:0:0:0:
388,132,66076,1,0,0:0:0:0:
300,72,66249,5,0,0:0:0:0:
224,224,66594,1,8,0:0:0:0:
232,240,66938,2,0,L|332:248,1,75
420,224,67283,2,0,L|420:136,1,75,8|0,0:0|0:0,0:0:0:0:
376,88,67628,5,0,0:0:0:0:
376,88,67800,1,0,0:0:0:0:
296,128,67973,1,8,0:0:0:0:
232,64,68145,2,0,L|100:112,1,112.5
120,200,68663,1,8,0:0:0:0:
176,288,68835,6,0,P|237:318|304:312,1,112.5
380,288,69352,1,8,0:0:0:0:
380,288,69525,1,0,0:0:0:0:
344,200,69697,2,0,B|320:192|320:192|240:200,2,75,0|0|8,0:0|0:0|0:0,0:0:0:0:
408,256,70214,5,0,0:0:0:0:
408,256,70387,1,0,0:0:0:0:
440,336,70559,2,0,L|344:352,1,75,0|8,0:0|0:0,0:0:0:0:
320,272,70904,2,0,L|232:256,1,75
160,176,71249,1,0,0:0:0:0:
160,176,71421,1,8,0:0:0:0:
240,104,71594,5,0,0:0:0:0:
240,104,71766,2,0,P|299:118|332:147,1,75
392,200,72111,1,8,0:0:0:0:
392,200,72283,1,0,0:0:0:0:
321,248,72456,2,0,P|284:273|240:280,1,75
256,200,72801,1,8,0:0:0:0:
224,128,72973,6,0,B|192:156|192:156|176:220,2,75
296,88,73490,1,8,0:0:0:0:
376,96,73663,2,0,P|421:160|420:240,1,150
376,312,74180,1,8,0:0:0:0:
288,248,74352,6,0,P|240:248|196:278,2,75
264,316,74870,2,0,P|211:340|168:320,1,75,8|0,0:0|0:0,0:0:0:0:
120,284,75214,1,0,0:0:0:0:
120,284,75387,1,0,0:0:0:0:
128,192,75559,2,0,P|133:142|163:105,2,75,8|0|0,0:0|0:0|0:0,0:0:0:0:
205,210,76077,6,0,P|228:172|232:128,2,75,0|8|0,0:0|0:0|0:0,0:0:0:0:
120,280,76594,1,0,0:0:0:0:
120,280,76766,1,0,0:0:0:0:
224,312,76939,2,0,P|281:318|326:301,1,75,8|0,0:0|0:0,0:0:0:0:
400,248,77283,5,0,0:0:0:0:
384,140,77456,1,0,0:0:0:0:
300,72,77628,2,0,L|196:112,1,75,8|0,0:0|0:0,0:0:0:0:
116,140,77973,1,0,0:0:0:0:
32,208,78146,2,0,P|47:272|80:296,2,75,0|8|0,0:0|0:0|0:0,0:0:0:0:
128,212,78663,5,0,0:0:0:0:
128,212,78835,1,0,0:0:0:0:
188,120,79008,1,8,0:0:0:0:
296,128,79180,2,0,L|320:264,1,112.500004291535
236,312,79697,1,8,0:0:0:0:
152,268,79870,5,0,0:0:0:0:
152,268,80042,1,0,0:0:0:0:
152,176,80215,2,0,B|168:160|168:160|240:152,1,75,0|8,0:0|0:0,0:0:0:0:
320,144,80559,2,0,P|344:200|328:240,2,75
240,72,81077,1,8,0:0:0:0:
240,72,81249,5,0,0:0:0:0:
144,128,81422,2,0,P|162:187|187:208,1,75
280,240,81766,1,8,0:0:0:0:
280,240,81939,1,0,0:0:0:0:
304,136,82111,2,0,L|208:128,2,75,0|0|8,0:0|0:0|0:0,0:0:0:0:
408,144,82628,5,0,0:0:0:0:
408,144,82801,1,0,0:0:0:0:
432,248,82973,2,0,P|393:294|359:304,1,75,0|8,0:0|0:0,0:0:0:0:
264,272,83318,1,0,0:0:0:0:
264,272,83491,1,0,0:0:0:0:
320,176,83663,2,0,L|232:160,1,75,0|8,0:0|0:0,0:0:0:0:
128,136,84008,6,0,L|104:240,2,75
216,72,84525,1,8,0:0:0:0:
216,72,84697,1,0,0:0:0:0:
320,112,84870,2,0,B|331:147|331:147|371:202,1,75
416,264,85215,1,8,0:0:0:0:
312,288,85387,5,0,0:0:0:0:
312,288,85560,1,0,0:0:0:0:
216,240,85732,2,0,P|160:205|152:164,1,75,0|8,0:0|0:0,0:0:0:0:
216,120,86077,2,0,P|272:155|288:188,1,75
304,280,86422,1,0,0:0:0:0:
304,280,86594,1,8,0:0:0:0:
392,224,86766,6,0,P|368:168|328:144,1,75
256,88,87111,1,0,0:0:0:0:
256,88,87284,1,8,0:0:0:0:
152,120,87456,1,0,0:0:0:0:
72,192,87629,2,0,P|104:248|128:264,1,75
216,200,87973,2,0,P|184:144|160:128,1,75,8|0,0:0|0:0,0:0:0:0:
256,192,88318,12,0,90732,0:0:0:0:
256,192,91077,5,0,0:0:0:0:
