osu file format v14

[General]
AudioFilename: VP.mp3
AudioLeadIn: 0
PreviewTime: 41530
Countdown: 0
SampleSet: Soft
StackLeniency: 0.7
Mode: 0
LetterboxInBreaks: 0
WidescreenStoryboard: 0

[Editor]
DistanceSpacing: 1
BeatDivisor: 4
GridSize: 4
TimelineZoom: 1

[Metadata]
Title:Virtual Paradise
TitleUnicode:Virtual Paradise
Artist:AK X LYNX ft. Veela
ArtistUnicode:AK X LYNX ft. Veela
Creator:alacat
Version:Normal
Source:
Tags:thzz Cah-m drum and bass dnb liquidfunk xkito chillout Aljosha Konstanty
BeatmapID:1056415
BeatmapSetID:477725

[Difficulty]
HPDrainRate:3
CircleSize:3
OverallDifficulty:4
ApproachRate:4.5
SliderMultiplier:0.999999999999999
SliderTickRate:1

[Events]
//Background and Video events
0,0,"BG.jpg",0,0
//Break Periods
2,91386,109176
//Storyboard Layer 0 (Background)
//Storyboard Layer 1 (Fail)
//Storyboard Layer 2 (Pass)
//Storyboard Layer 3 (Foreground)
//Storyboard Sound Samples

[TimingPoints]
11186,344.827586206897,4,2,3,30,1,0
44289,-100,4,2,2,70,0,1
44375,-100,4,2,2,70,0,0
54634,-100,4,2,3,50,0,0
55323,-100,4,2,2,70,0,0
65668,-100,4,2,3,50,0,0
67737,-100,4,2,2,70,0,0
76703,-100,4,2,3,50,0,0
77392,-100,4,2,2,70,0,0
87737,-100,4,2,3,40,0,0
88254,-100,4,2,2,40,0,0
88427,-100,4,2,2,20,0,0
91186,-100,4,2,3,20,0,0
110323,-100,4,2,2,40,0,0
113772,-100,4,2,3,40,0,0
115323,-100,4,2,2,40,0,0
119289,-100,4,2,3,40,0,0
121186,-100,4,2,2,40,0,0
124806,-100,4,2,3,40,0,0
126186,-100,4,2,2,40,0,0
127565,-100,4,2,3,40,0,0
128944,-100,4,2,2,40,0,0
132565,-100,4,2,2,70,0,1
142910,-100,4,2,3,50,0,1
143599,-100,4,2,2,70,0,0
153944,-100,4,2,3,50,0,0
154461,-100,4,2,2,70,0,0
154634,-100,4,2,2,70,0,1
164979,-100,4,2,3,50,0,1
165668,-100,4,2,2,70,0,0
176013,-100,4,2,3,40,0,0
176530,-100,4,2,2,60,0,0

[Colours]
Combo1 : 111,183,255
Combo2 : 194,134,255
Combo3 : 166,255,255

[HitObjects]
24,80,22220,6,0,B|124:64|124:64|168:92,1,150,2|0,0:0|0:0,0:0:0:0:
192,132,22910,2,0,L|180:232,1,99.9999999999999,2|0,0:0|0:0,0:0:0:0:
256,300,23599,1,0,0:0:0:0:
332,232,23944,2,0,L|320:132,1,99.9999999999999,2|2,0:0|0:0,0:0:0:0:
500,220,24979,6,0,B|488:320|488:320|452:360,1,150,2|2,0:0|0:0,0:0:0:0:
360,332,25841,2,0,L|260:344,1,99.9999999999999,2|2,0:0|0:0,0:0:0:0:
176,292,26530,2,0,B|124:292|84:324|84:324|48:288,1,150,2|2,0:0|0:0,0:0:0:0:
24,192,27392,1,0,0:0:0:0:
120,164,27737,6,0,P|172:176|220:168,2,99.9999999999999,2|0|2,0:0|0:0|0:0,0:0:0:0:
52,92,28772,1,0,0:0:0:0:
120,20,29117,1,0,0:0:0:0:
208,64,29461,2,0,L|308:52,1,99.9999999999999,2|2,0:0|0:0,0:0:0:0:
444,200,30496,6,0,P|368:176|296:176,1,150,2|2,0:0|0:0,0:0:0:0:
212,124,31358,2,0,P|164:136|120:164,1,99.9999999999999,2|2,0:0|0:0,0:0:0:0:
68,248,32048,1,2,0:0:0:0:
132,324,32392,2,0,L|284:304,1,150,2|0,0:0|0:0,0:0:0:0:
368,352,33254,6,0,P|420:352|468:332,1,99.9999999999999,2|0,0:0|0:0,0:0:0:0:
504,244,33944,1,2,0:0:0:0:
432,172,34289,1,0,0:0:0:0:
336,204,34634,1,0,0:0:0:0:
272,128,34979,2,0,L|288:24,1,99.9999999999999,2|2,0:0|0:0,0:0:0:0:
92,68,36013,6,0,L|108:220,1,150,2|2,0:0|0:0,0:0:0:0:
196,264,36875,2,0,L|184:368,2,99.9999999999999,2|2|2,0:0|0:0|0:0,0:0:0:0:
276,204,37910,2,0,P|348:204|424:240,1,150,2|0,0:0|0:0,0:0:0:0:
496,176,38772,6,0,L|472:28,1,150,2|2,0:0|0:0,0:0:0:0:
384,72,39634,1,0,0:0:0:0:
292,32,39979,2,0,P|240:32|192:52,1,99.9999999999999,2|0,0:0|0:0,0:0:0:0:
156,140,40668,2,0,P|84:152|28:96,1,150,2|0,0:0|0:0,0:0:0:0:
56,8,41530,5,2,0:0:0:0:
56,8,44289,6,0,L|156:20,1,99.9999999999999,2|8,0:0|0:0,0:0:0:0:
232,84,44979,2,0,L|332:72,1,99.9999999999999,0|8,0:0|0:0,0:0:0:0:
416,20,45668,2,0,P|496:76|492:176,1,200,2|0,0:0|0:0,0:0:0:0:
412,224,46703,1,8,0:0:0:0:
320,188,47048,6,0,P|268:200|228:232,1,99.9999999999999,2|8,0:0|0:0,0:0:0:0:
156,292,47737,2,0,L|56:284,2,99.9999999999999,0|8|2,0:0|0:0|0:0,0:0:0:0:
248,328,48772,2,0,B|300:316|344:344|344:344|376:304|428:292,1,200,8|8,0:0|0:0,0:0:0:0:
484,208,49806,6,0,L|468:108,1,99.9999999999999,2|8,0:0|0:0,0:0:0:0:
376,152,50496,2,0,L|360:52,1,99.9999999999999,0|8,0:0|0:0,0:0:0:0:
264,32,51186,2,0,B|168:12|168:80|68:48,1,200,2|0,0:0|0:0,0:0:0:0:
4,124,52220,1,8,0:0:0:0:
52,212,52565,6,0,L|40:312,1,99.9999999999999,2|8,0:0|0:0,0:0:0:0:
120,372,53254,1,0,0:0:0:0:
200,308,53599,1,8,0:0:0:0:
288,352,53944,2,0,P|340:360|388:344,1,99.9999999999999,2|8,0:0|0:0,0:0:0:0:
428,256,54634,2,0,P|376:248|328:264,1,99.9999999999999,2|2,0:0|0:0,0:0:0:0:
244,212,55323,6,0,P|148:244|56:216,1,200,2|0,0:0|0:0,0:0:0:0:
12,124,56358,1,8,0:0:0:0:
76,44,56703,2,0,P|124:40|176:52,1,99.9999999999999,2|8,0:0|0:0,0:0:0:0:
272,28,57392,2,0,P|320:39|370:35,1,99.9999999999999,0|8,0:0|0:0,0:0:0:0:
464,72,58082,6,0,P|496:164|472:260,1,200,2|0,0:0|0:0,0:0:0:0:
380,304,59117,1,8,0:0:0:0:
300,244,59461,2,0,P|200:256|132:332,1,200,2|0,0:0|0:0,0:0:0:0:
40,360,60496,1,8,0:0:0:0:
8,264,60841,6,0,L|44:68,1,200,2|0,0:0|0:0,0:0:0:0:
132,116,61875,1,8,0:0:0:0:
224,76,62220,2,0,P|276:88|316:116,1,99.9999999999999,2|8,0:0|0:0,0:0:0:0:
304,212,62910,2,0,P|252:200|212:172,1,99.9999999999999,0|8,0:0|0:0,0:0:0:0:
132,116,63599,6,0,L|104:316,1,200,2|0,0:0|0:0,0:0:0:0:
188,368,64634,1,8,0:0:0:0:
276,320,64979,2,0,B|332:320|372:352|372:352|404:304|384:260,1,200,2|2,0:0|0:0,0:0:0:0:
332,176,66013,1,2,0:0:0:0:
244,132,66358,6,0,L|44:160,2,200,2|2|2,0:0|0:0|0:0,0:0:0:0:
304,52,68082,1,8,0:0:0:0:
404,52,68427,2,0,P|444:84|464:132,1,99.9999999999999,0|8,0:0|0:0,0:0:0:0:
404,208,69117,6,0,B|424:312|424:312|388:348|336:348,1,200,2|0,0:0|0:0,0:0:0:0:
256,296,70151,1,8,0:0:0:0:
172,347,70496,2,0,B|124:348|88:312|88:312|108:208,1,200,2|0,0:0|0:0,0:0:0:0:
180,140,71530,1,8,0:0:0:0:
276,164,71875,6,0,P|324:176|376:164,1,99.9999999999999,2|8,0:0|0:0,0:0:0:0:
440,92,72565,1,0,0:0:0:0:
400,0,72910,1,8,0:0:0:0:
312,44,73254,2,0,P|260:48|212:36,1,99.9999999999999,2|8,0:0|0:0,0:0:0:0:
136,96,73944,2,0,P|87:84|37:88,1,99.9999999999999,0|8,0:0|0:0,0:0:0:0:
4,184,74634,6,0,B|24:332|24:332|68:360,1,200,2|0,0:0|0:0,0:0:0:0:
144,296,75668,1,8,0:0:0:0:
232,344,76013,2,0,B|332:372|332:312|432:344,1,200,2|2,0:0|0:0,0:0:0:0:
512,288,77048,1,2,0:0:0:0:
428,236,77392,6,0,B|328:264|328:204|228:236,1,200,2|0,0:0|0:0,0:0:0:0:
148,292,78427,1,8,0:0:0:0:
60,244,78772,2,0,P|48:196|60:144,1,99.9999999999999,2|8,0:0|0:0,0:0:0:0:
124,72,79461,1,0,0:0:0:0:
220,100,79806,1,8,0:0:0:0:
304,44,80151,6,0,P|400:36|476:108,1,200,2|0,0:0|0:0,0:0:0:0:
492,200,81186,1,8,0:0:0:0:
408,256,81530,2,0,P|312:264|236:192,1,200,2|0,0:0|0:0,0:0:0:0:
220,100,82565,1,8,0:0:0:0:
120,108,82910,6,0,B|44:172|44:172|44:272,1,200,2|0,0:0|0:0,0:0:0:0:
108,352,83944,1,8,0:0:0:0:
196,308,84289,2,0,B|284:308|284:308|312:324|312:324|396:324,1,200,2|0,0:0|0:0,0:0:0:0:
480,276,85323,1,8,0:0:0:0:
396,224,85668,6,0,B|368:124|428:124|396:24,2,200,2|0|2,0:0|0:0|0:0,0:0:0:0:
324,292,87392,1,8,0:0:0:0:
236,244,87737,2,0,P|180:252|140:280,1,99.9999999999999,2|2,0:0|0:0,0:0:0:0:
256,192,88427,12,2,91186,0:0:0:0:
12,336,110496,6,0,P|48:272|36:200,1,150,2|0,0:0|0:0,0:0:0:0:
8,156,111186,2,0,L|112:164,1,99.9999999999999,2|2,0:0|0:0,0:0:0:0:
172,88,111875,1,2,0:0:0:0:
264,128,112220,2,0,L|368:120,1,99.9999999999999,2|2,0:0|0:0,0:0:0:0:
420,36,112910,1,2,0:0:0:0:
500,96,113254,6,0,B|524:168|476:168|496:244,1,150,2|0,0:0|0:0,0:0:0:0:
436,324,114117,2,0,L|336:336,1,99.9999999999999,2|0,0:0|0:0,0:0:0:0:
248,292,114806,2,0,P|172:300|116:344,1,150,2|2,0:0|0:0,0:0:0:0:
32,292,115668,1,2,0:0:0:0:
88,208,116013,6,0,P|96:152|84:108,1,99.9999999999999,2|2,0:0|0:0,0:0:0:0:
168,56,116703,2,0,P|212:90|256:102,1,99.9999999999999,2|2,0:0|0:0,0:0:0:0:
348,64,117393,1,2,0:0:0:0:
424,132,117737,2,0,L|436:232,1,99.9999999999999,2|2,0:0|0:0,0:0:0:0:
356,296,118427,1,2,0:0:0:0:
296,216,118772,6,0,P|220:192|148:192,1,150,2|0,0:0|0:0,0:0:0:0:
56,224,119634,2,0,L|36:328,1,99.9999999999999,2|0,0:0|0:0,0:0:0:0:
124,368,120324,1,2,0:0:0:0:
208,312,120668,2,0,L|360:332,1,150,0|2,0:0|0:0,0:0:0:0:
444,280,121530,6,0,P|456:232|444:184,1,99.9999999999999,2|2,0:0|0:0,0:0:0:0:
352,140,122220,1,2,0:0:0:0:
276,204,122565,2,0,L|176:224,1,99.9999999999999,2|2,0:0|0:0,0:0:0:0:
88,180,123255,2,0,P|84:132|104:76,1,99.9999999999999,2|2,0:0|0:0,0:0:0:0:
180,20,123944,1,2,0:0:0:0:
268,68,124289,6,0,B|324:72|368:44|368:44|404:76,1,150,2|0,0:0|0:0,0:0:0:0:
476,140,125151,2,0,L|464:244,2,99.9999999999999,2|0|2,0:0|0:0|0:0,0:0:0:0:
380,164,126186,2,0,P|308:164|232:200,1,150,0|2,0:0|0:0,0:0:0:0:
196,284,127048,6,0,L|48:260,1,150,2|0,0:0|0:0,0:0:0:0:
12,168,127910,1,2,0:0:0:0:
88,100,128254,2,0,L|188:84,1,99.9999999999999,0|2,0:0|0:0,0:0:0:0:
276,128,128944,2,0,P|329:79|401:91,1,150,0|2,0:0|0:0,0:0:0:0:
468,164,129806,5,2,0:0:0:0:
400,296,130323,2,0,B|356:320|356:320|256:296,1,150,2|2,0:0|0:0,0:0:0:0:
180,232,131186,2,0,L|32:256,2,150,2|2|2,0:0|0:0|0:0,0:0:0:0:
248,160,132565,6,0,P|260:108|248:60,1,99.9999999999999,2|8,0:0|0:0,0:0:0:0:
164,12,133255,2,0,L|64:24,1,99.9999999999999,0|8,0:0|0:0,0:0:0:0:
8,108,133944,2,0,P|80:176|84:272,1,200,2|0,0:0|0:0,0:0:0:0:
12,344,134979,1,8,0:0:0:0:
112,368,135323,6,0,P|164:356|216:356,1,99.9999999999999,2|8,0:0|0:0,0:0:0:0:
284,288,136013,2,0,L|276:188,2,99.9999999999999,0|8|2,0:0|0:0|0:0,0:0:0:0:
356,360,137048,2,0,P|436:320|380:260,1,200,8|8,0:0|0:0,0:0:0:0:
284,288,138082,6,0,L|184:276,1,99.9999999999999,2|8,0:0|0:0,0:0:0:0:
100,224,138772,2,0,P|92:168|100:124,1,99.9999999999999,0|8,0:0|0:0,0:0:0:0:
172,56,139462,2,0,B|268:36|268:104|368:72,1,200,2|0,0:0|0:0,0:0:0:0:
444,12,140496,1,8,0:0:0:0:
512,88,140841,6,0,L|500:188,1,99.9999999999999,2|8,0:0|0:0,0:0:0:0:
420,248,141530,1,0,0:0:0:0:
336,192,141875,1,8,0:0:0:0:
284,276,142220,2,0,P|232:284|184:268,1,99.9999999999999,2|8,0:0|0:0,0:0:0:0:
148,176,142910,2,0,P|96:168|48:184,1,99.9999999999999,2|2,0:0|0:0,0:0:0:0:
12,276,143599,6,0,B|44:372|44:372|88:352|144:356,1,200,2|0,0:0|0:0,0:0:0:0:
228,308,144634,1,8,0:0:0:0:
308,368,144979,2,0,L|408:352,1,99.9999999999999,2|8,0:0|0:0,0:0:0:0:
420,252,145668,2,0,L|321:267,1,99.9999999999999,0|8,0:0|0:0,0:0:0:0:
236,220,146358,6,0,P|217:121|286:62,1,200,2|0,0:0|0:0,0:0:0:0:
384,84,147392,1,8,0:0:0:0:
316,160,147737,2,0,P|220:128|120:128,1,200,2|0,0:0|0:0,0:0:0:0:
72,216,148772,1,8,0:0:0:0:
140,288,149117,6,0,P|236:256|336:256,1,200,2|0,0:0|0:0,0:0:0:0:
396,336,150151,1,8,0:0:0:0:
492,304,150496,2,0,P|504:252|496:204,1,99.9999999999999,2|8,0:0|0:0,0:0:0:0:
416,148,151186,2,0,P|404:96|412:48,1,99.9999999999999,0|8,0:0|0:0,0:0:0:0:
316,80,151875,6,0,L|116:52,1,200,2|0,0:0|0:0,0:0:0:0:
24,92,152910,1,8,0:0:0:0:
108,148,153254,2,0,B|144:244|68:244|112:348,1,200,2|2,0:0|0:0,0:0:0:0:
196,288,154289,1,2,0:0:0:0:
292,260,154634,6,0,L|492:288,2,200,2|2|2,0:0|0:0|0:0,0:0:0:0:
272,356,156358,1,8,0:0:0:0:
196,288,156703,2,0,L|96:276,1,99.9999999999999,0|8,0:0|0:0,0:0:0:0:
44,192,157392,6,0,P|100:116|196:128,1,200,2|0,0:0|0:0,0:0:0:0:
256,208,158427,1,8,0:0:0:0:
316,127,158772,2,0,P|410:115|468:192,1,200,2|0,0:0|0:0,0:0:0:0:
440,288,159806,1,8,0:0:0:0:
352,336,160151,6,0,L|152:312,1,200,2|0,0:0|0:0,0:0:0:0:
100,228,161186,1,8,0:0:0:0:
172,160,161530,2,0,P|184:112|172:60,1,99.9999999999999,2|8,0:0|0:0,0:0:0:0:
264,20,162220,2,0,P|299:54|350:70,1,99.9999999999999,0|8,0:0|0:0,0:0:0:0:
436,24,162910,6,0,B|478:51|478:51|498:199,1,200,2|0,0:0|0:0,0:0:0:0:
476,296,163944,1,8,0:0:0:0:
400,228,164289,2,0,B|300:200|300:260|200:228,1,200,2|2,0:0|0:0,0:0:0:0:
112,272,165324,1,2,0:0:0:0:
32,212,165668,6,0,B|4:112|64:112|32:12,2,200,2|2|2,0:0|0:0|0:0,0:0:0:0:
112,272,167392,1,8,0:0:0:0:
200,228,167737,2,0,L|300:244,1,99.9999999999999,0|8,0:0|0:0,0:0:0:0:
356,328,168427,6,0,P|452:336|500:252,1,200,2|0,0:0|0:0,0:0:0:0:
464,164,169462,1,8,0:0:0:0:
384,104,169806,2,0,B|284:76|284:136|184:104,1,200,2|0,0:0|0:0,0:0:0:0:
108,44,170841,1,8,0:0:0:0:
40,120,171186,6,0,L|72:320,1,200,2|0,0:0|0:0,0:0:0:0:
164,356,172220,1,8,0:0:0:0:
228,280,172565,2,0,B|316:280|316:280|344:264|344:264|428:264,1,200,2|0,0:0|0:0,0:0:0:0:
496,196,173599,1,8,0:0:0:0:
420,132,173944,6,0,B|320:132|320:132|232:188,1,200,2|0,0:0|0:0,0:0:0:0:
156,248,174979,1,8,0:0:0:0:
72,196,175323,2,0,L|72:96,1,99.9999999999999,2|8,0:0|0:0,0:0:0:0:
164,56,176013,2,0,P|216:72|264:72,1,99.9999999999999,2|2,0:0|0:0,0:0:0:0:
348,20,176703,5,2,0:0:0:0:
