osu file format v14

[General]
AudioFilename: audio.mp3
AudioLeadIn: 0
PreviewTime: 91263
Countdown: 0
SampleSet: Soft
StackLeniency: 0.7
Mode: 0
LetterboxInBreaks: 0
WidescreenStoryboard: 0

[Editor]
Bookmarks: 27791,43659,59527,75395,91263,107130,122998
DistanceSpacing: 1
BeatDivisor: 4
GridSize: 8
TimelineZoom: 1

[Metadata]
Title:Digital Angel
TitleUnicode:Digital Angel
Artist:AK & Veela
ArtistUnicode:AK & Veela
Creator:Waku
Version:ReFaller's Easy
Source:
Tags:ambient chill cut ReFaller
BeatmapID:1377462
BeatmapSetID:645515

[Difficulty]
HPDrainRate:2
CircleSize:3
OverallDifficulty:2
ApproachRate:3
SliderMultiplier:1.1
SliderTickRate:1

[Events]
//Background and Video events
0,0,"OUeTgKU.png",0,0
//Break Periods
2,56552,58081
//Storyboard Layer 0 (Background)
//Storyboard Layer 1 (Fail)
//Storyboard Layer 2 (Pass)
//Storyboard Layer 3 (Foreground)
//Storyboard Sound Samples

[TimingPoints]
27786,495.867768595041,4,2,0,15,1,0
27786,-142.857142857143,4,2,0,15,0,0
59521,-100,4,2,0,22,0,0
60513,-100,4,2,0,31,0,0
61009,-100,4,2,0,22,0,0
62496,-100,4,2,0,31,0,0
62992,-100,4,2,0,22,0,0
64480,-100,4,2,0,31,0,0
64976,-100,4,2,0,22,0,0
66463,-100,4,2,0,31,0,0
66959,-100,4,2,0,22,0,0
68447,-100,4,2,0,25,0,0
68943,-100,4,2,0,22,0,0
70430,-100,4,2,0,31,0,0
70926,-100,4,2,0,22,0,0
72414,-100,4,2,0,31,0,0
73405,-100,4,2,0,22,0,0
74397,-100,4,2,0,31,0,0
74893,-100,4,2,0,22,0,0
76381,-100,4,2,0,31,0,0
77372,-100,4,2,0,22,0,0
78364,-100,4,2,0,31,0,0
78860,-100,4,2,0,22,0,0
80347,-100,4,2,0,31,0,0
81339,-100,4,2,0,22,0,0
82331,-100,4,2,0,31,0,0
82827,-100,4,2,0,22,0,0
84314,-100,4,2,0,31,0,0
84810,-100,4,2,0,22,0,0
86298,-100,4,2,0,31,0,0
86794,-100,4,2,0,22,0,0
88281,-100,4,2,0,31,0,0
89273,-100,4,2,0,22,0,0
90265,-100,4,2,0,31,0,0
90761,-100,4,2,0,22,0,0
92248,-100,4,2,0,41,0,0
93240,-100,4,2,0,34,0,0
94232,-100,4,2,0,41,0,0
95224,-100,4,2,0,34,0,0
96215,-100,4,2,0,41,0,0
97207,-100,4,2,0,34,0,0
98199,-100,4,2,0,41,0,0
98695,-100,4,2,0,34,0,0
100182,-100,4,2,0,41,0,0
101174,-100,4,2,0,34,0,0
102166,-100,4,2,0,41,0,0
103157,-100,4,2,0,34,0,0
104149,-100,4,2,0,41,0,0
104645,-100,4,2,0,34,0,0
106133,-100,4,2,0,41,0,0
106628,-100,4,2,0,20,0,0
107124,-100,4,2,0,34,0,0
108116,-100,4,2,0,41,0,0
109108,-100,4,2,0,34,0,0
110100,-100,4,2,0,41,0,0
111091,-100,4,2,0,34,0,0
112083,-100,4,2,0,41,0,0
113075,-100,4,2,0,34,0,0
114066,-100,4,2,0,41,0,0
114562,-100,4,2,0,34,0,0
116050,-100,4,2,0,41,0,0
117042,-100,4,2,0,34,0,0
118033,-100,4,2,0,41,0,0
119025,-100,4,2,0,34,0,0
120017,-100,4,2,0,41,0,0
120513,-100,4,2,0,34,0,0
122000,-100,4,2,0,41,0,0
122496,-100,4,2,0,20,0,0
122992,-100,4,2,0,10,0,0
123488,-100,4,2,0,5,0,0

[Colours]
Combo1 : 219,207,191
Combo2 : 196,225,203
Combo3 : 132,166,176
Combo4 : 226,201,184
Combo5 : 63,89,150
Combo6 : 223,223,223

[HitObjects]
112,48,27786,6,0,L|87:200,1,153.999995300293,2|0,0:0|0:0,0:0:0:0:
240,272,29769,2,0,L|264:119,1,153.999995300293
392,16,31752,1,2,0:0:0:0:
424,176,32744,1,0,0:0:0:0:
263,119,33736,2,0,L|183:111,2,76.9999976501466
368,256,35719,6,0,P|304:296|224:288,1,153.999995300293,2|0,0:0|0:0,0:0:0:0:
123,152,37703,2,0,P|187:112|267:120,1,153.999995300293
336,160,39190,1,0,0:0:0:0:
392,224,39686,2,0,B|408:280|408:280|402:313|402:313|416:376,1,153.999995300293,2|0,0:0|0:0,0:0:0:0:
248,336,41670,2,0,B|235:275|235:275|241:243|241:243|225:187,1,153.999995300293
88,88,43653,6,0,L|8:72,2,76.9999976501466,2|0|0,0:0|0:0|0:0,0:0:0:0:
224,186,45637,2,0,L|299:170,2,76.9999976501466
144,208,47124,1,0,0:0:0:0:
64,240,47620,2,0,P|64:312|112:376,1,153.999995300293,2|0,0:0|0:0,0:0:0:0:
231,257,49604,2,0,P|232:216|215:177,2,76.9999976501466,2|0|0,0:0|0:0|0:0,0:0:0:0:
360,368,51587,6,0,L|512:328,1,153.999995300293,2|0,0:0|0:0,0:0:0:0:
379,217,53571,2,0,L|231:256,1,153.999995300293,2|0,0:0|0:0,0:0:0:0:
80,176,55554,1,2,0:0:0:0:
96,32,59521,6,0,P|116:137|63:231,1,220,4|10,0:3|0:0,0:0:0:0:
16,312,61009,1,0,0:0:0:0:
104,312,61505,2,0,L|328:296,1,220,4|10,0:3|0:0,0:0:0:0:
408,320,62992,1,0,0:0:0:0:
384,232,63488,2,0,P|352:192|360:120,1,110,4|0,0:3|0:0,0:0:0:0:
440,160,64480,2,0,P|440:104|408:56,1,110,10|0,0:0|0:0,0:0:0:0:
320,48,65471,2,0,L|96:24,1,220,4|10,0:3|0:0,0:0:0:0:
16,48,66959,1,2,0:0:0:0:
0,136,67455,6,0,P|8:192|52:239,2,110,4|0|10,0:3|0:0|0:0,0:0:0:0:
96,152,68943,1,0,0:0:0:0:
184,192,69438,2,0,P|216:235|229:288,2,110,4|0|10,0:3|0:0|0:0,0:0:0:0:
96,152,70926,1,0,0:0:0:0:
176,104,71422,2,0,B|272:80|272:80|303:84|303:84|400:64,1,220,4|10,0:3|0:0,0:0:0:0:
488,216,73405,2,0,B|400:234|400:234|369:230|369:230|273:254,1,220,4|10,0:3|0:0,0:0:0:0:
200,304,74893,1,4,0:0:0:0:
112,304,75389,6,0,P|80:261|67:208,2,110,4|0|10,0:3|0:0|0:0,0:0:0:0:
288,344,77372,1,4,0:3:0:0:
376,320,77868,1,0,0:0:0:0:
448,264,78364,2,0,P|464:208|456:152,1,110,10|0,0:0|0:0,0:0:0:0:
392,96,79356,2,0,L|280:96,2,110,4|0|10,0:3|0:0|0:0,0:0:0:0:
315,257,81339,2,0,P|221:310|115:289,1,220,4|10,0:3|0:0,0:0:0:0:
59,217,82827,1,2,0:0:0:0:
83,129,83323,6,0,P|176:75|282:96,1,220,4|10,0:3|0:0,0:0:0:0:
336,168,84810,1,0,0:0:0:0:
312,256,85306,2,0,B|248:312|248:312|112:288,1,220,4|10,0:3|0:0,0:0:0:0:
32,248,86794,1,0,0:0:0:0:
112,200,87290,2,0,L|221:220,2,110,4|0|10,0:3|0:0|0:0,0:0:0:0:
240,328,89273,2,0,L|348:312,1,110,4|0,0:3|0:0,0:0:0:0:
368,224,90265,1,10,0:0:0:0:
456,248,90761,1,4,0:3:0:0:
432,336,91257,5,4,1:0:0:0:
280,232,92248,2,0,P|226:138|247:32,1,220,2|0,0:0|1:0,0:0:0:0:
336,32,93735,1,0,0:0:0:0:
352,120,94232,2,0,P|258:173|152:152,1,220,2|0,0:0|1:0,0:0:0:0:
96,320,96215,2,0,P|189:266|295:287,2,220,2|0|2,0:0|1:0|0:0,0:0:0:0:
24,264,98695,1,0,0:0:0:0:
24,176,99190,5,0,1:0:0:0:
152,48,100182,2,0,B|216:48|256:80|256:80|296:48|360:48,1,220,2|0,0:0|1:0,0:0:0:0:
448,64,101670,1,0,0:0:0:0:
504,136,102166,2,0,P|524:241|471:335,1,220,2|0,0:0|1:0,0:0:0:0:
296,320,104149,2,0,L|184:336,2,110,2|0|0,0:0|0:0|1:0,0:0:0:0:
464,264,106133,2,0,P|484:213|476:160,1,110,2|4,0:0|0:0,0:0:0:0:
448,80,107124,5,4,1:0:0:0:
272,152,108116,2,0,P|166:173|72:120,1,220,2|0,0:0|1:0,0:0:0:0:
88,31,109603,1,0,0:0:0:0:
176,32,110099,2,0,P|196:138|143:232,1,220,2|0,0:0|1:0,0:0:0:0:
0,312,112083,2,0,P|-21:207|32:113,2,220,2|0|2,0:0|1:0|0:0,0:0:0:0:
80,360,114562,1,0,0:0:0:0:
160,320,115058,5,0,1:0:0:0:
312,232,116050,2,0,B|328:144|328:144|320:104|320:104|336:8,1,220,2|0,0:0|1:0,0:0:0:0:
424,48,117538,1,0,0:0:0:0:
424,136,118033,2,0,P|318:156|224:103,1,220,2|0,0:0|1:0,0:0:0:0:
56,160,120017,2,0,L|40:280,2,110,2|0|0,0:0|0:0|1:0,0:0:0:0:
224,103,122000,1,2,0:0:0:0:
320,111,122496,1,0,1:0:0:0:
264,191,122992,5,4,1:0:0:0:
256,192,123488,12,0,126959,0:0:0:0:
