osu file format v14

[General]
AudioFilename: audio.mp3
AudioLeadIn: 0
PreviewTime: 91263
Countdown: 0
SampleSet: Soft
StackLeniency: 0.7
Mode: 0
LetterboxInBreaks: 0
WidescreenStoryboard: 0

[Editor]
DistanceSpacing: 1
BeatDivisor: 4
GridSize: 4
TimelineZoom: 1

[Metadata]
Title:Digital Angel
TitleUnicode:Digital Angel
Artist:AK & Veela
ArtistUnicode:AK & Veela
Creator:Waku
Version:Normal
Source:
Tags:ambient chill cut ReFaller
BeatmapID:1367865
BeatmapSetID:645515

[Difficulty]
HPDrainRate:5
CircleSize:4
OverallDifficulty:4
ApproachRate:5
SliderMultiplier:1.4
SliderTickRate:1

[Events]
//Background and Video events
0,0,"OUeTgKU.png",0,0
//Break Periods
2,57544,58321
//Storyboard Layer 0 (Background)
//Storyboard Layer 1 (Fail)
//Storyboard Layer 2 (Pass)
//Storyboard Layer 3 (Foreground)
//Storyboard Sound Samples

[TimingPoints]
27786,495.867768595041,4,2,0,25,1,0
27786,-100,4,2,0,25,0,0
43653,-100,4,2,0,30,0,0
56050,-125,4,2,0,15,0,0
57042,-125,4,2,0,15,0,0
59521,-100,4,2,0,30,0,0
67455,-100,4,2,0,30,0,0
75265,-100,4,2,0,30,0,0
83323,-100,4,2,0,30,0,0
122992,-100,4,2,0,40,0,0
123488,-100,4,2,0,5,0,0
126959,-100,4,2,0,5,0,0

[Colours]
Combo1 : 219,207,191
Combo2 : 196,225,203
Combo3 : 132,166,176
Combo4 : 226,201,184
Combo5 : 63,89,150
Combo6 : 223,223,223

[HitObjects]
74,290,27786,6,0,B|142:299|182:264|182:264|212:289|212:289|275:253|340:291,1,280,2|2,0:0|0:0,0:0:0:0:
332,286,29769,2,0,P|439:342|468:224,1,280,2|2,0:0|0:0,0:0:0:0:
271,26,31752,6,0,B|270:76|318:120|318:120|222:72|140:103,1,280,2|2,0:0|0:0,0:0:0:0:
152,98,33736,2,0,P|96:89|5:149,2,140,2|0|2,0:0|0:0|0:0,0:0:0:0:
338,352,35719,6,0,B|329:284|364:244|364:244|339:214|339:214|375:151|337:86,1,280,2|2,0:0|0:0,0:0:0:0:
342,93,37703,2,0,B|206:20|206:160|47:94,1,280,2|2,0:0|0:0,0:0:0:0:
132,230,39190,1,0,0:0:0:0:
239,319,39686,6,0,P|323:337|412:188,1,280,2|2,0:0|0:0,0:0:0:0:
413,192,41670,2,0,P|383:73|276:130,1,280,2|2,0:0|0:0,0:0:0:0:
276,129,43653,6,0,L|130:118,1,140,2|0,0:0|0:0,0:0:0:0:
45,225,44645,2,0,L|191:214,1,140,2|0,0:0|0:0,0:0:0:0:
275,321,45637,1,2,0:0:0:0:
135,309,46133,1,0,0:0:0:0:
254,235,46628,2,0,P|307:235|365:316,1,140,2|0,0:0|0:0,0:0:0:0:
490,353,47620,6,0,L|500:213,1,140,2|0,0:0|0:0,0:0:0:0:
374,155,48612,1,2,0:0:0:0:
362,295,49108,1,0,0:0:0:0:
288,176,49604,2,0,P|288:123|369:65,2,140,2|0|2,0:0|0:0|0:0,0:0:0:0:
362,295,51091,1,0,0:0:0:0:
233,240,51587,6,0,L|93:229,1,140,2|0,0:0|0:0,0:0:0:0:
2,139,52579,2,0,L|141:128,1,140,2|0,0:0|0:0,0:0:0:0:
280,109,53571,1,2,0:0:0:0:
292,248,54066,1,2,0:0:0:0:
192,149,54562,2,0,P|182:81|225:29,1,140,2|0,0:0|0:0,0:0:0:0:
364,20,55554,5,2,0:0:0:0:
461,71,56050,2,0,P|424:171|319:189,1,224
471,73,59521,6,0,L|402:80,1,70,2|0,0:0|0:0,0:0:0:0:
342,117,60017,2,0,L|272:110,1,70
230,54,60513,2,0,P|252:94|199:195,1,140,8|0,0:0|0:0,0:0:0:0:
147,296,61505,6,0,P|133:255|144:204,1,70,2|0,0:0|0:0,0:0:0:0:
144,159,62000,2,0,P|158:118|147:67,1,70
91,64,62496,2,0,L|230:53,1,140,8|0,0:0|0:0,0:0:0:0:
361,3,63488,6,0,L|354:72,1,70,2|0,0:0|0:0,0:0:0:0:
317,132,63984,2,0,L|323:201,1,70
380,244,64480,2,0,P|340:222|239:275,1,140,8|0,0:0|0:0,0:0:0:0:
138,327,65471,6,0,P|179:341|230:330,1,70,2|0,0:0|0:0,0:0:0:0:
274,330,65967,1,0,0:0:0:0:
343,318,66215,1,0,0:0:0:0:
370,383,66463,2,0,L|380:243,1,140,8|0,0:0|0:0,0:0:0:0:
463,130,67455,6,0,L|393:123,1,70,2|0,0:0|0:0,0:0:0:0:
334,86,67951,2,0,L|264:92,1,70
204,129,68447,2,0,L|64:118,1,140,8|0,0:0|0:0,0:0:0:0:
15,249,69438,6,0,P|56:263|107:252,1,70,2|0,0:0|0:0,0:0:0:0:
152,252,69934,1,0,0:0:0:0:
220,237,70182,1,0,0:0:0:0:
280,274,70430,2,0,P|341:303|405:278,1,140,8|0,0:0|0:0,0:0:0:0:
479,160,71422,6,0,L|409:166,1,70,2|0,0:0|0:0,0:0:0:0:
350,204,71918,2,0,L|280:197,1,70
220,160,72414,2,0,L|80:170,1,140,8|0,0:0|0:0,0:0:0:0:
9,291,73405,6,0,P|50:305|101:294,1,70,2|0,0:0|0:0,0:0:0:0:
145,293,73901,1,0,0:0:0:0:
213,280,74149,1,0,0:0:0:0:
274,316,74397,2,0,P|335:345|399:320,1,140,8|0,0:0|0:0,0:0:0:0:
495,218,75389,6,0,L|425:211,1,70,2|0,0:0|0:0,0:0:0:0:
365,174,75885,2,0,L|295:180,1,70
253,237,76381,2,0,P|275:197|222:96,1,140,8|0,0:0|0:0,0:0:0:0:
170,0,77373,6,0,P|156:41|167:92,1,70,2|0,0:0|0:0,0:0:0:0:
171,135,77868,2,0,P|185:176|174:227,1,70
116,223,78364,2,0,L|255:233,1,140,8|0,0:0|0:0,0:0:0:0:
364,322,79356,6,0,L|370:252,1,70,2|0,0:0|0:0,0:0:0:0:
408,193,79852,2,0,L|401:123,1,70
353,71,80347,2,0,P|289:95|227:66,1,140,8|0,0:0|0:0,0:0:0:0:
90,35,81339,6,0,L|83:104,1,70,2|0,0:0|0:0,0:0:0:0:
45,164,81835,1,0,0:0:0:0:
51,233,82083,1,0,0:0:0:0:
97,286,82331,2,0,P|160:261|222:290,1,140,8|0,0:0|0:0,0:0:0:0:
362,296,83323,6,0,L|372:156,1,140,2|0,0:0|0:0,0:0:0:0:
347,18,84314,2,0,L|277:24,1,70,8|0,0:0|0:0,0:0:0:0:
222,71,84810,2,0,L|152:64,1,70
115,4,85306,6,0,L|104:143,1,140,2|0,0:0|0:0,0:0:0:0:
101,213,86050,1,0,0:0:0:0:
127,277,86298,2,0,P|168:291|219:280,1,70,8|0,0:0|0:0,0:0:0:0:
263,278,86794,2,0,P|304:264|355:275,1,70
359,329,87289,6,0,L|369:189,1,140,2|0,0:0|0:0,0:0:0:0:
258,102,88281,2,0,P|223:101|190:114,1,70,8|0,0:0|0:0,0:0:0:0:
136,159,88777,2,0,L|66:152,1,70
40,86,89273,6,0,L|29:225,1,140,2|0,0:0|0:0,0:0:0:0:
76,277,90017,1,0,0:0:0:0:
136,312,90265,2,0,L|205:305,1,70,8|0,0:0|0:0,0:0:0:0:
268,272,90761,2,0,P|302:271|335:284,1,70
401,261,91257,6,0,P|413:228|413:193,1,70,2|0,0:0|0:0,0:0:0:0:
392,127,91752,2,0,P|379:94|379:59,1,70
441,26,92248,2,0,L|287:51,1,140,8|0,0:0|0:0,0:0:0:0:
238,22,92992,1,0,0:0:0:0:
185,68,93240,6,0,L|191:137,1,70,2|0,0:0|0:0,0:0:0:0:
226,198,93736,2,0,L|219:267,1,70
263,322,94232,2,0,P|221:297|126:351,1,140,8|0,0:0|0:0,0:0:0:0:
26,242,95224,6,0,P|38:209|38:174,1,70,2|0,0:0|0:0,0:0:0:0:
17,108,95719,2,0,P|4:75|4:40,1,70
65,7,96215,1,8,0:0:0:0:
185,77,96711,1,0,0:0:0:0:
317,32,97207,6,0,P|329:64|329:99,1,70,2|0,0:0|0:0,0:0:0:0:
310,167,97703,1,0,0:0:0:0:
294,235,97951,1,0,0:0:0:0:
356,267,98199,1,8,0:0:0:0:
398,133,98695,2,0,L|341:93,1,70
274,65,99190,6,0,P|241:53|206:53,1,70,2|0,0:0|0:0,0:0:0:0:
140,74,99686,2,0,P|107:87|72:87,1,70
39,25,100182,2,0,L|64:179,1,140,8|0,0:0|0:0,0:0:0:0:
35,228,100925,1,0,0:0:0:0:
73,286,101174,6,0,L|142:280,1,70,2|0,0:0|0:0,0:0:0:0:
203,245,101670,1,0,0:0:0:0:
272,254,101918,1,0,0:0:0:0:
327,208,102166,2,0,P|302:250|356:345,1,140,8|0,0:0|0:0,0:0:0:0:
454,266,103157,6,0,P|442:233|442:198,1,70,2|0,0:0|0:0,0:0:0:0:
463,132,103653,2,0,P|476:99|476:64,1,70
424,17,104149,1,8,0:0:0:0:
302,86,104644,1,0,0:0:0:0:
170,41,105141,6,0,P|158:73|158:108,1,70,2|0,0:0|0:0,0:0:0:0:
179,175,105637,1,0,0:0:0:0:
192,243,105885,1,0,0:0:0:0:
131,276,106132,1,8,0:0:0:0:
62,153,106628,2,0,P|61:118|74:85,1,70
138,55,107124,6,0,L|207:61,1,70,2|0,0:0|0:0,0:0:0:0:
268,96,107620,2,0,L|337:89,1,70
392,133,108116,2,0,P|367:91|421:-4,1,140,8|0,0:0|0:0,0:0:0:0:
461,33,108860,1,0,0:0:0:0:
496,93,109108,6,0,L|490:162,1,70,2|0,0:0|0:0,0:0:0:0:
455,223,109604,2,0,L|462:292,1,70
407,336,110100,2,0,L|268:313,1,140,8|0,0:0|0:0,0:0:0:0:
133,275,111091,6,0,L|139:206,1,70,2|0,0:0|0:0,0:0:0:0:
174,145,111587,2,0,L|167:76,1,70
222,32,112083,2,0,L|360:54,1,140,8|0,0:0|0:0,0:0:0:0:
381,193,113075,6,0,P|348:205|313:205,1,70,2|0,0:0|0:0,0:0:0:0:
246,183,113571,1,0,0:0:0:0:
177,169,113819,1,0,0:0:0:0:
146,233,114066,2,0,L|171:79,1,140,8|0,0:0|0:0,0:0:0:0:
307,78,115058,6,0,P|319:111|319:146,1,70,2|0,0:0|0:0,0:0:0:0:
298,212,115554,2,0,P|284:245|285:280,1,70
347,312,116050,2,0,L|193:287,1,140,8|0,0:0|0:0,0:0:0:0:
138,280,116794,1,0,0:0:0:0:
69,263,117042,6,0,P|57:230|57:195,1,70,2|0,0:0|0:0,0:0:0:0:
78,129,117538,1,0,0:0:0:0:
127,80,117785,1,0,0:0:0:0:
184,120,118033,2,0,L|338:95,1,140,8|0,0:0|0:0,0:0:0:0:
457,59,119025,6,0,P|469:92|469:127,1,70,2|0,0:0|0:0,0:0:0:0:
448,193,119521,2,0,P|434:226|435:261,1,70
497,293,120017,2,0,L|343:268,1,140,8|0,0:0|0:0,0:0:0:0:
256,174,121009,6,0,P|244:141|244:106,2,70,2|0|0,0:0|0:0|0:0,0:0:0:0:
317,208,121752,1,0,0:0:0:0:
385,191,122000,5,8,0:0:0:0:
468,78,122496,1,0,0:0:0:0:
328,64,122992,1,4,0:0:0:0:
256,192,123488,12,0,126959,0:0:0:0:
