osu file format v14

[General]
AudioFilename: audio.mp3
AudioLeadIn: 0
PreviewTime: 91263
Countdown: 0
SampleSet: Soft
StackLeniency: 0.7
Mode: 0
LetterboxInBreaks: 0
WidescreenStoryboard: 0

[Editor]
DistanceSpacing: 1
BeatDivisor: 4
GridSize: 16
TimelineZoom: 1

[Metadata]
Title:Digital Angel
TitleUnicode:Digital Angel
Artist:AK & Veela
ArtistUnicode:AK & Veela
Creator:Waku
Version:Born
Source:
Tags:ambient chill cut ReFaller
BeatmapID:1367864
BeatmapSetID:645515

[Difficulty]
HPDrainRate:5
CircleSize:4.5
OverallDifficulty:6
ApproachRate:8
SliderMultiplier:1.4
SliderTickRate:1

[Events]
//Background and Video events
0,0,"OUeTgKU.png",0,0
//Break Periods
//Storyboard Layer 0 (Background)
//Storyboard Layer 1 (Fail)
//Storyboard Layer 2 (Pass)
//Storyboard Layer 3 (Foreground)
//Storyboard Sound Samples

[TimingPoints]
27786,495.867768595041,4,2,0,25,1,0
27786,-200,4,2,0,25,0,0
31752,-200,4,2,0,25,0,0
43653,-100,4,2,0,30,0,0
56050,-100,4,2,0,15,0,0
57785,-100,4,2,0,20,0,0
58529,-100,4,2,0,25,0,0
59521,-100,4,2,0,30,0,0
67455,-100,4,2,0,30,0,0
75265,-100,4,2,0,30,0,0
83323,-100,4,2,0,35,0,0
122992,-100,4,2,0,40,0,0
123116,-100,4,2,0,5,0,0
126959,-100,4,2,0,5,0,0

[Colours]
Combo1 : 219,207,191
Combo2 : 196,225,203
Combo3 : 132,166,176
Combo4 : 226,201,184
Combo5 : 63,89,150
Combo6 : 223,223,223

[HitObjects]
162,351,27786,6,0,P|187:285|178:217,1,140,2|2,0:0|0:0,0:0:0:0:
179,218,29768,1,2,0:0:0:0:
179,218,30760,1,2,0:0:0:0:
349,32,31752,6,0,P|332:65|333:167,1,140,2|2,0:0|0:0,0:0:0:0:
333,166,33735,1,2,0:0:0:0:
376,223,34231,1,0,0:0:0:0:
376,293,34727,1,2,0:0:0:0:
141,235,35719,6,0,L|-10:226,1,140,2|2,0:0|0:0,0:0:0:0:
1,226,37702,1,2,0:0:0:0:
1,226,38694,1,2,0:0:0:0:
41,150,39189,1,0,0:0:0:0:
141,235,39686,6,0,L|292:226,1,140,2|2,0:0|0:0,0:0:0:0:
280,226,41669,1,2,0:0:0:0:
280,226,42661,1,2,0:0:0:0:
468,333,43653,6,0,P|453:307|451:252,1,70,2|0,0:0|0:0,0:0:0:0:
466,196,44148,1,0,0:0:0:0:
475,188,44644,5,2,0:0:0:0:
416,226,44892,1,0,0:0:0:0:
345,224,45140,1,0,0:0:0:0:
286,184,45389,2,0,P|269:153|265:118,1,70,0|2,0:0|0:0,0:0:0:0:
226,60,45885,2,0,P|203:86|194:120,1,70
206,188,46381,2,0,P|171:185|141:168,1,70,0|2,0:0|0:0,0:0:0:0:
99,111,46875,1,0,0:0:0:0:
44,155,47124,2,0,P|21:181|12:215,1,70
0,285,47619,5,2,0:0:0:0:
43,347,47868,1,0,0:0:0:0:
43,347,48116,2,0,P|73:330|108:326,1,70
176,321,48612,2,0,P|210:317|241:300,1,70,2|0,0:0|0:0,0:0:0:0:
286,246,49107,1,0,0:0:0:0:
296,231,49603,5,2,0:0:0:0:
339,358,50099,1,0,0:0:0:0:
288,244,50594,1,2,0:0:0:0:
349,350,51090,1,0,0:0:0:0:
296,231,51587,6,0,P|279:200|275:165,1,70,2|0,0:0|0:0,0:0:0:0:
345,178,52083,2,0,P|361:147|365:112,1,70
339,47,52578,1,2,0:0:0:0:
280,11,52826,1,0,0:0:0:0:
209,11,53074,1,0,0:0:0:0:
150,51,53323,2,0,P|133:81|129:116,1,70,0|2,0:0|0:0,0:0:0:0:
170,179,53818,1,0,0:0:0:0:
170,179,54066,2,0,P|166:213|149:244,1,70
112,301,54561,5,2,0:0:0:0:
171,337,54809,1,0,0:0:0:0:
242,337,55057,1,0,0:0:0:0:
301,297,55305,1,0,0:0:0:0:
236,323,55553,5,2,0:0:0:0:
296,287,55801,1,0,0:0:0:0:
349,241,56050,6,0,P|393:179|252:115,1,280
255,111,57537,6,0,L|169:97,1,70
180,29,58032,1,0,0:0:0:0:
180,29,58280,1,0,0:0:0:0:
118,62,58529,6,0,L|32:48,1,70
37,120,59024,1,0,0:0:0:0:
80,174,59272,1,0,0:0:0:0:
183,216,59521,5,2,0:0:0:0:
119,255,59768,1,0,0:0:0:0:
119,255,60017,2,0,P|111:288|116:323,1,70
81,188,60513,2,0,P|17:150|-1:81,1,140,8|0,0:0|0:0,0:0:0:0:
81,26,61257,1,0,0:0:0:0:
81,26,61505,6,0,P|114:33|149:28,1,70,2|0,0:0|0:0,0:0:0:0:
171,103,62000,2,0,P|200:85|221:56,1,70
331,105,62496,2,0,P|271:138|248:203,1,140,8|0,0:0|0:0,0:0:0:0:
310,337,63239,1,0,0:0:0:0:
310,337,63488,6,0,P|317:303|312:268,1,70,2|0,0:0|0:0,0:0:0:0:
382,245,63984,2,0,P|365:215|337:195,1,70
227,275,64480,2,0,P|161:294|99:265,1,140,8|0,0:0|0:0,0:0:0:0:
53,166,65223,1,0,0:0:0:0:
53,166,65471,6,0,P|46:132|51:97,2,70,2|0|0,0:0|0:0|0:0,0:0:0:0:
114,200,66214,1,0,0:0:0:0:
203,95,66463,2,0,P|268:75|330:104,1,140,8|0,0:0|0:0,0:0:0:0:
261,170,67207,1,0,0:0:0:0:
191,248,67455,6,0,L|330:239,1,140,2|0,0:0|0:0,0:0:0:0:
268,324,68199,1,0,0:0:0:0:
63,260,68447,2,0,P|124:229|191:248,1,140,8|0,0:0|0:0,0:0:0:0:
89,129,69190,1,0,0:0:0:0:
89,129,69438,6,0,P|127:145|229:94,1,140,2|0,0:0|0:0,0:0:0:0:
199,45,70182,1,0,0:0:0:0:
9,61,70430,2,0,L|17:201,1,140,8|0,0:0|0:0,0:0:0:0:
37,304,71174,1,0,0:0:0:0:
37,304,71422,6,0,P|71:309|105:301,1,70,2|0,0:0|0:0,0:0:0:0:
157,253,71918,2,0,P|162:219|154:185,1,70,2|0,0:0|0:0,0:0:0:0:
167,370,72414,2,0,P|232:350|294:379,1,140,8|0,0:0|0:0,0:0:0:0:
382,299,73157,1,0,0:0:0:0:
382,299,73405,6,0,P|347:305|313:297,2,70,2|0|0,0:0|0:0|0:0,0:0:0:0:
429,246,74149,1,0,0:0:0:0:
367,115,74397,2,0,P|301:134|239:105,1,140,8|0,0:0|0:0,0:0:0:0:
204,30,75141,1,0,0:0:0:0:
138,74,75389,6,0,L|-1:66,1,140,2|0,0:0|0:0,0:0:0:0:
66,146,76133,1,0,0:0:0:0:
212,14,76381,2,0,P|232:79|203:141,1,140,8|0,0:0|0:0,0:0:0:0:
290,235,77124,1,0,0:0:0:0:
290,234,77372,6,0,P|255:238|221:230,1,70,2|0,0:0|0:0,0:0:0:0:
195,300,77868,2,0,P|167:279|149:249,1,70
274,339,78364,2,0,P|336:310|402:331,1,140,8|0,0:0|0:0,0:0:0:0:
337,232,79108,1,0,0:0:0:0:
337,232,79356,6,0,P|342:197|334:163,1,70,2|0,0:0|0:0,0:0:0:0:
403,137,79852,2,0,P|382:108|352:90,1,70
139,127,80347,2,0,P|204:146|266:117,1,140,8|0,0:0|0:0,0:0:0:0:
141,58,81091,1,0,0:0:0:0:
141,58,81339,6,0,P|146:92|138:126,1,70,2|0,0:0|0:0,0:0:0:0:
82,167,81835,1,0,0:0:0:0:
0,296,82083,1,0,0:0:0:0:
0,296,82331,2,0,P|62:266|127:286,1,140,8|0,0:0|0:0,0:0:0:0:
183,342,83075,1,0,0:0:0:0:
245,285,83323,6,0,P|307:256|330:262,2,70,2|0|0,0:0|0:0|0:0,0:0:0:0:
314,346,84065,1,0,0:0:0:0:
382,171,84314,2,0,L|242:179,1,140,8|0,0:0|0:0,0:0:0:0:
226,37,85057,1,0,0:0:0:0:
226,37,85306,6,0,P|231:71|223:105,2,70,2|0|0,0:0|0:0|0:0,0:0:0:0:
160,12,86049,1,0,0:0:0:0:
39,152,86298,2,0,P|104:132|166:161,1,140,8|0,0:0|0:0,0:0:0:0:
116,362,87041,1,0,0:0:0:0:
116,362,87290,6,0,P|110:327|118:293,1,70,2|0,0:0|0:0,0:0:0:0:
49,265,87785,2,0,P|69:237|99:219,1,70
307,253,88281,2,0,P|241:272|179:243,1,140,8|0,0:0|0:0,0:0:0:0:
224,118,89025,1,0,0:0:0:0:
224,118,89273,6,0,P|189:113|155:121,2,70,2|0|0,0:0|0:0|0:0,0:0:0:0:
280,159,90016,1,0,0:0:0:0:
392,298,90265,2,0,L|386:200,1,70,8|0,0:0|0:0,0:0:0:0:
463,101,90761,2,0,L|457:199,1,70
317,276,91256,5,2,0:0:0:0:
256,310,91504,1,0,0:0:0:0:
186,305,91751,1,2,0:0:0:0:
125,339,91999,1,0,0:0:0:0:
162,175,92248,2,0,P|191:113|172:48,1,140,8|0,0:0|0:0,0:0:0:0:
88,112,92991,1,0,0:0:0:0:
195,108,93239,5,2,0:0:0:0:
256,74,93487,1,0,0:0:0:0:
321,49,93736,2,0,P|350:69|368:99,1,70
300,301,94232,2,0,P|281:236|310:174,1,140,8|0,0:0|0:0,0:0:0:0:
415,171,94976,1,0,0:0:0:0:
280,235,95224,6,0,P|246:242|211:237,1,70,2|0,0:0|0:0,0:0:0:0:
155,182,95719,2,0,P|121:174|86:179,1,70
11,372,96215,2,0,L|19:232,1,140,8|0,0:0|0:0,0:0:0:0:
33,127,96959,1,0,0:0:0:0:
106,52,97207,6,0,P|171:32|198:39,2,70,2|0|0,0:0|0:0|0:0,0:0:0:0:
166,138,97950,1,0,0:0:0:0:
379,202,98199,2,0,L|239:210,1,140,8|0,0:0|0:0,0:0:0:0:
304,127,98942,1,0,0:0:0:0:
317,276,99189,5,2,0:0:0:0:
256,310,99437,1,0,0:0:0:0:
186,305,99686,1,2,0:0:0:0:
125,339,99934,1,0,0:0:0:0:
162,175,100182,2,0,P|191:113|172:48,1,140,8|0,0:0|0:0,0:0:0:0:
88,112,100926,1,0,0:0:0:0:
191,112,101173,5,2,0:0:0:0:
252,78,101421,1,0,0:0:0:0:
322,83,101670,1,2,0:0:0:0:
384,52,101918,1,0,0:0:0:0:
345,212,102166,2,0,P|315:275|335:340,1,140,8|0,0:0|0:0,0:0:0:0:
420,276,102908,1,0,0:0:0:0:
339,72,103157,6,0,P|305:65|270:70,1,70,2|0,0:0|0:0,0:0:0:0:
214,125,103653,2,0,P|180:133|145:128,1,70
57,257,104149,2,0,P|123:237|185:266,1,140,8|0,0:0|0:0,0:0:0:0:
115,344,104892,1,0,0:0:0:0:
241,193,105140,5,2,0:0:0:0:
302,159,105388,1,0,0:0:0:0:
363,191,105637,1,2,0:0:0:0:
429,167,105884,1,0,0:0:0:0:
468,331,106133,2,0,P|403:350|341:321,1,140,8|0,0:0|0:0,0:0:0:0:
411,242,106875,1,0,0:0:0:0:
263,319,107123,5,2,0:0:0:0:
202,353,107371,1,0,0:0:0:0:
144,313,107620,1,2,0:0:0:0:
83,347,107868,1,0,0:0:0:0:
36,179,108116,2,0,P|102:159|164:188,1,140,8|0,0:0|0:0,0:0:0:0:
94,265,108860,1,0,0:0:0:0:
229,284,109107,5,2,0:0:0:0:
263,223,109355,1,0,0:0:0:0:
288,158,109604,2,0,P|268:129|238:111,1,70
36,179,110100,2,0,P|101:198|163:169,1,140,8|0,0:0|0:0,0:0:0:0:
166,64,110842,1,0,0:0:0:0:
334,116,111091,6,0,P|340:151|332:185,1,70,2|0,0:0|0:0,0:0:0:0:
400,211,111587,2,0,P|380:240|350:258,1,70
143,225,112083,2,0,P|209:206|271:235,1,140,8|0,0:0|0:0,0:0:0:0:
294,357,112827,1,0,0:0:0:0:
192,331,113075,6,0,L|95:337,2,70,2|0|0,0:0|2:0|0:0,0:0:0:0:
159,230,113818,1,0,0:0:0:0:
228,34,114066,2,0,P|257:96|238:162,1,140,8|0,0:0|0:0,0:0:0:0:
150,104,114810,1,0,0:0:0:0:
237,245,115057,5,2,0:0:0:0:
298,279,115305,1,0,0:0:0:0:
368,274,115554,1,2,0:0:0:0:
429,308,115802,1,0,0:0:0:0:
391,144,116050,2,0,P|362:81|381:16,1,140,8|0,0:0|0:0,0:0:0:0:
466,81,116794,1,0,0:0:0:0:
281,133,117041,5,2,0:0:0:0:
220,99,117289,1,0,0:0:0:0:
150,104,117538,1,2,0:0:0:0:
89,70,117784,1,0,0:0:0:0:
126,233,118033,2,0,P|154:295|135:360,1,140,8|0,0:0|0:0,0:0:0:0:
52,297,118777,1,0,0:0:0:0:
92,160,119025,6,0,P|126:153|161:158,1,70,2|0,0:0|0:0,0:0:0:0:
217,213,119521,2,0,P|251:221|286:216,1,70
361,23,120017,2,0,L|353:163,1,140,8|0,0:0|0:0,0:0:0:0:
348,268,120760,1,0,0:0:0:0:
156,286,121008,5,2,0:0:0:0:
217,320,121256,1,0,0:0:0:0:
287,315,121505,1,2,0:0:0:0:
348,349,121751,1,0,0:0:0:0:
311,186,121999,5,8,0:0:0:0:
303,173,122495,1,0,0:0:0:0:
248,44,122991,5,4,0:0:0:0:
256,192,123116,12,0,126959,0:0:0:0:
