osu file format v14

[General]
AudioFilename: audio.mp3
AudioLeadIn: 0
PreviewTime: 157759
Countdown: 0
SampleSet: Normal
StackLeniency: 0.9
Mode: 0
LetterboxInBreaks: 0
WidescreenStoryboard: 1

[Editor]
Bookmarks: 31808,47676,63544,95279,112139,127015,158750,178585,190486,222221,239081,253957
DistanceSpacing: 1
BeatDivisor: 2
GridSize: 8
TimelineZoom: 1

[Metadata]
Title:Digital Angel
TitleUnicode:Digital Angel
Artist:AK & Veela
ArtistUnicode:AK & Veela
Creator:Hanabi Project
Version:Easy
Source:
Tags:ambiant
BeatmapID:1357865
BeatmapSetID:638205

[Difficulty]
HPDrainRate:3
CircleSize:3
OverallDifficulty:3
ApproachRate:3
SliderMultiplier:0.8
SliderTickRate:1

[Events]
//Background and Video events
0,0,"jjkjkjkjkj.png",0,0
//Break Periods
2,129200,157312
//Storyboard Layer 0 (Background)
//Storyboard Layer 1 (Fail)
//Storyboard Layer 2 (Pass)
//Storyboard Layer 3 (Foreground)
//Storyboard Sound Samples

[TimingPoints]
8009,495.867768595041,4,1,0,20,1,0
61562,-100,4,1,0,10,0,0
63546,-100,4,1,0,20,0,0
129000,-100,4,1,0,5,0,0
158752,-100,4,1,0,25,0,1
187513,-100,4,1,0,20,0,1
188504,-100,4,1,0,10,0,0
190488,-100,4,1,0,30,0,1
222223,-100,4,1,0,30,0,0
255942,-100,4,1,0,5,0,0

[Colours]
Combo1 : 255,255,255
Combo2 : 0,128,255

[HitObjects]
306,85,31810,6,0,P|384:100|414:173,1,160
414,328,33794,2,0,P|345:363|277:326,1,160
164,213,35777,2,0,P|96:176|27:211,1,160
94,355,37761,1,0,0:0:0:0:
173,355,38256,1,0,0:0:0:0:
229,298,38752,1,0,0:0:0:0:
342,184,39744,6,0,P|319:110|246:86,1,160
132,199,41728,2,0,P|95:131|130:62,1,160
185,5,43215,1,0,0:0:0:0:
241,61,43711,2,0,P|304:135|268:203,1,160
127,185,45694,6,0,P|129:261|194:303,1,160
354,303,47678,2,0,P|418:261|421:184,1,160
307,70,49661,1,0,0:0:0:0:
146,70,50653,1,0,0:0:0:0:
32,183,51645,6,0,P|34:260|99:302,1,160
258,301,53628,1,0,0:0:0:0:
314,244,54124,1,0,0:0:0:0:
314,163,54620,1,0,0:0:0:0:
200,49,55612,6,0,P|126:24|64:69,1,160
200,154,57595,2,0,P|282:156|338:104,1,160
450,0,59579,1,0,0:0:0:0:
256,192,61562,12,0,63546,0:0:0:0:
238,191,64537,5,8,0:0:0:0:
351,77,65529,2,0,P|427:66|479:123,1,160,4|8,0:0|0:0,0:0:0:0:
478,283,67513,2,0,P|426:339|349:329,1,160,4|8,0:0|0:0,0:0:0:0:
235,215,69496,1,4,0:0:0:0:
178,158,69992,1,0,0:0:0:0:
97,158,70488,2,0,P|60:183|51:233,1,80,8|0,0:0|0:0,0:0:0:0:
49,295,71480,6,0,P|116:331|185:297,1,160,4|8,0:0|0:0,0:0:0:0:
298,182,73463,2,0,P|365:145|434:179,1,160,4|8,0:0|0:0,0:0:0:0:
360,321,75447,2,0,P|335:358|285:367,1,80,4|0,0:0|0:0,0:0:0:0:
246,312,76438,2,0,P|206:312|175:336,1,80,8|0,0:0|0:0,0:0:0:0:
95,335,77430,1,4,0:0:0:0:
38,278,77926,1,0,0:0:0:0:
38,197,78422,1,8,0:0:0:0:
151,83,79413,6,0,P|218:46|287:80,1,160,4|8,0:0|0:0,0:0:0:0:
287,240,81397,2,0,P|356:273|423:236,1,160,4|8,0:0|0:0,0:0:0:0:
423,76,83380,2,0,P|392:51|352:52,1,80,4|0,0:0|0:0,0:0:0:0:
296,109,84372,1,8,0:0:0:0:
135,109,85364,2,0,P|106:135|99:174,1,80,4|0,0:0|0:0,0:0:0:0:
155,230,86356,1,8,0:0:0:0:
268,343,87347,6,0,P|316:282|293:208,1,160,4|8,0:0|0:0,0:0:0:0:
133,208,89331,2,0,P|111:134|158:73,1,160,4|8,0:0|0:0,0:0:0:0:
318,73,91314,1,4,0:0:0:0:
431,186,92306,1,8,0:0:0:0:
317,299,93298,6,0,P|277:295|249:268,1,80,4|0,0:0|0:0,0:0:0:0:
249,188,94289,2,0,P|288:192|316:219,1,80,8|4,0:0|0:0,0:0:0:0:
388,254,95281,1,0,0:0:0:0:
501,140,96273,6,0,P|505:62|446:14,1,160,8|4,0:0|0:0,0:0:0:0:
285,13,98256,2,0,P|227:64|234:140,1,160,8|4,0:0|0:0,0:0:0:0:
351,249,100240,2,0,B|326:335|242:277|209:357,1,160,8|4,0:0|0:0,0:0:0:0:
108,221,102223,6,0,P|178:167|252:137,1,160,8|4,0:0|0:0,0:0:0:0:
394,85,104207,2,0,B|432:112|445:146|445:146|429:178|385:198,1,160,8|4,0:0|0:0,0:0:0:0:
327,346,106190,2,0,B|295:306|257:305|257:305|221:341|161:339,1,160,8|4,0:0|0:0,0:3:0:0:
165,179,108174,2,0,P|223:128|298:144,1,160,8|4,0:0|0:0,0:3:0:0:
299,304,110157,2,0,P|223:320|165:269,1,160,8|4,0:0|0:0,0:3:0:0:
299,180,112141,6,0,P|241:128|165:145,1,160,8|4,0:0|0:0,0:3:0:0:
190,303,114124,2,0,P|112:302|67:240,1,160,8|4,0:0|0:0,0:3:0:0:
133,94,116108,2,0,B|165:29|242:91|291:30,1,160,8|4,0:0|0:0,0:3:0:0:
415,123,118091,6,0,P|370:185|293:185,1,160,8|4,0:0|0:0,0:3:0:0:
165,282,120075,2,0,B|173:311|206:325|206:325|261:305|312:334,1,160,8|4,0:0|0:0,0:3:0:0:
445,258,122058,2,0,B|462:211|446:181|446:181|410:153|367:154,1,160,8|4,0:0|0:0,0:3:0:0:
222,213,124042,2,0,B|159:245|159:245|161:148,1,160,8|4,0:0|0:0,0:3:0:0:
288,58,126025,1,8,0:0:0:0:
367,46,126521,1,4,0:0:0:0:
256,192,127017,12,0,129000,0:0:0:0:
206,299,158752,6,0,P|128:284|98:211,1,160
211,102,160736,2,0,P|242:78|281:78,1,80
338,134,161728,2,0,P|377:134|408:110,1,80
408,29,162719,1,0,0:0:0:0:
247,29,163711,1,0,0:0:0:0:
86,29,164703,6,0,P|48:40|25:71,1,80
24,151,165694,2,0,P|47:182|84:193,1,80
165,193,166686,1,0,0:0:0:0:
325,193,167678,1,0,0:0:0:0:
438,79,168670,6,0,P|414:47|377:36,1,80
320,92,169661,2,0,P|295:122|256:131,1,80
176,131,170653,2,0,P|108:167|98:243,1,160
258,243,172637,6,0,P|326:208|394:244,1,160
281,357,174620,1,0,0:0:0:0:
120,357,175612,1,0,0:0:0:0:
6,243,176604,6,0,P|-6:204|7:168,1,80
77,205,177595,2,0,P|106:178|114:140,1,80
170,82,178587,2,0,P|238:47|306:83,1,160
419,196,180570,6,0,P|456:208|493:197,1,80
457,125,181562,2,0,P|439:89|404:71,1,80
324,71,182554,2,0,P|250:93|226:166,1,160
339,279,184537,6,0,P|368:304|377:342,1,80
297,350,185529,2,0,P|265:373|226:374,1,80
168,317,186521,2,0,P|130:249|164:180,2,160
394,90,190488,5,4,0:0:0:0:
280,203,191480,2,0,P|206:179|184:105,1,160,8|4,0:0|0:0,0:0:0:0:
297,0,193463,1,8,0:0:0:0:
410,113,194455,2,0,P|459:171|438:245,1,160,4|8,0:0|0:0,0:0:0:0:
325,358,196438,1,4,0:0:0:0:
164,358,197430,1,8,0:0:0:0:
50,244,198422,6,0,P|107:192|182:210,1,160,4|8,0:0|0:0,0:0:0:0:
294,322,200405,2,0,P|343:262|322:188,1,160,0|8,0:0|0:0,0:0:0:0:
209,75,202389,1,4,0:0:0:0:
95,188,203380,1,8,0:0:0:0:
208,301,204372,2,0,P|284:308|334:250,1,160,4|8,0:0|0:0,0:0:0:0:
220,136,206356,6,0,P|273:80|349:91,1,160,4|8,0:0|0:0,0:0:0:0:
462,204,208339,1,4,0:0:0:0:
462,364,209331,1,8,0:0:0:0:
301,364,210323,2,0,P|232:330|221:254,1,160,4|8,0:0|0:0,0:0:0:0:
379,228,212306,2,0,P|365:152|295:119,1,160,4|8,0:0|0:0,0:0:0:0:
135,119,214289,6,0,P|81:173|95:249,1,160,0|8,0:0|0:0,0:0:0:0:
208,362,216273,1,4,0:0:0:0:
368,362,217265,1,8,0:0:0:0:
481,248,218256,2,0,P|495:172|441:117,1,160,4|8,0:0|0:0,0:0:0:0:
325,227,220240,2,0,P|271:172|285:96,1,160,4|8,0:0|0:0,0:0:0:0:
284,16,221728,1,4,0:0:0:0:
204,16,222223,6,0,P|133:46|117:121,1,160,4|8,0:0|0:0,0:0:0:0:
230,234,224207,1,4,0:0:0:0:
343,347,225199,6,0,P|370:373|408:381,2,80,8|0|4,2:0|0:0|2:0,0:0:0:0:
343,186,227182,1,8,0:0:0:0:
286,129,227678,2,0,P|257:103|218:97,1,80,0|4,2:0|0:0,0:0:0:0:
104,210,229166,1,8,0:0:0:0:
104,289,229661,2,0,P|114:326|144:352,1,80,0|4,2:0|0:0,0:0:0:0:
304,352,231149,1,8,0:0:0:0:
304,191,232141,6,0,P|274:120|199:104,1,160,4|8,0:0|0:0,0:0:0:0:
142,160,233628,1,0,0:0:0:0:
85,216,234124,2,0,P|115:287|190:303,1,160,4|8,0:0|0:0,0:0:0:0:
350,302,236108,1,4,0:0:0:0:
463,188,237099,2,0,P|433:117|358:101,1,160,8|4,0:0|0:0,0:0:0:0:
244,214,239083,6,0,P|168:197|138:127,1,160,8|4,0:0|0:0,0:0:0:0:
289,74,241066,2,0,P|278:37|241:8,2,80,8|0|4,2:0|0:0|2:0,0:0:0:0:
289,234,243050,2,0,P|298:272|327:299,1,80,8|0,2:0|0:0,0:0:0:0:
397,259,244042,6,0,P|400:335|338:379,1,160,4|8,0:0|0:0,0:0:0:0:
258,378,245529,1,0,0:0:0:0:
201,321,246025,2,0,P|188:244|244:191,1,160,4|8,0:0|0:0,0:0:0:0:
402,191,248008,1,4,0:0:0:0:
288,77,249000,5,8,0:0:0:0:
207,77,249496,1,0,0:0:0:0:
150,133,249992,2,0,P|159:171|188:198,1,80,4|0,2:0|0:0,0:0:0:0:
268,198,250984,2,0,P|283:272|231:328,1,160,8|4,0:0|0:0,0:0:0:0:
83,261,252967,1,8,0:0:0:0:
83,180,253463,1,4,0:0:0:0:
256,192,253959,12,0,255942,0:0:0:0:
