osu file format v14

[General]
AudioFilename: AK ft Veela - Digital Angel.mp3
AudioLeadIn: 0
PreviewTime: 91140
Countdown: 0
SampleSet: Soft
StackLeniency: 0.7
Mode: 0
LetterboxInBreaks: 0
EpilepsyWarning: 1
WidescreenStoryboard: 1

[Editor]
Bookmarks: 27793,43661,59529,91264
DistanceSpacing: 1
BeatDivisor: 2
GridSize: 8
TimelineZoom: 0.7999998

[Metadata]
Title:Digital Angel
TitleUnicode:Digital Angel
Artist:AK & Veela
ArtistUnicode:AK & Veela
Creator:Fursum
Version:Easy
Source:
Tags:chill vocals refaller cut version lilyanna
BeatmapID:1367404
BeatmapSetID:638882

[Difficulty]
HPDrainRate:1
CircleSize:2
OverallDifficulty:2
ApproachRate:1
SliderMultiplier:0.5
SliderTickRate:1

[Events]
//Background and Video events
0,0,"some chick.jpg",0,0
//Break Periods
//Storyboard Layer 0 (Background)
//Storyboard Layer 1 (Fail)
//Storyboard Layer 2 (Pass)
//Storyboard Layer 3 (Foreground)
//Storyboard Sound Samples

[TimingPoints]
27850,495.867768595041,4,2,3,15,1,0
59586,-100,4,2,2,25,0,0
91321,-100,4,2,2,30,0,1
91569,-100,4,2,2,30,0,0

[Colours]
Combo1 : 205,205,205
Combo2 : 69,203,136
Combo3 : 175,75,96
Combo4 : 253,67,57
Combo5 : 74,247,221
Combo6 : 134,126,98

[HitObjects]
92,71,27849,86,0,P|133:58|197:67,1,100,2|0,0:0|0:0,0:0:0:0:
149,155,29833,2,0,P|198:161|245:147,1,100
310,71,31816,2,0,P|345:125|343:167,1,100,2|0,0:0|0:0,0:0:0:0:
277,232,33800,1,2,0:0:0:0:
289,280,34296,2,0,L|304:352,1,50,2|0,0:0|0:0,0:0:0:0:
388,283,35783,70,0,P|428:254|446:208,1,100,2|0,0:0|0:0,0:0:0:0:
407,116,37767,2,0,P|366:144|348:190,1,100
345,239,39254,1,2,0:0:0:0:
340,288,39750,2,0,P|321:333|281:361,1,100,2|0,0:0|0:0,0:0:0:0:
179,356,41734,2,0,P|138:328|120:282,1,100
108,183,43717,6,0,L|171:196,2,50,2|0|0,0:0|0:0|0:0,0:0:0:0:
25,125,45701,2,0,P|67:89|123:83,1,100
201,38,47684,2,0,L|215:137,1,100,2|0,0:0|0:0,0:0:0:0:
314,130,49668,1,2,0:0:0:0:
304,179,50164,2,0,L|292:245,1,50,2|0,0:0|0:0,0:0:0:0:
195,218,51651,70,0,L|202:267,2,50,2|0|0,0:0|0:0|0:0,0:0:0:0:
117,154,53635,2,0,P|179:118|216:120,1,100
263,36,55618,1,2,0:0:0:0:
300,69,56114,2,0,B|317:103|309:140|309:140|300:178|322:220,1,150
319,214,59585,22,0,B|319:259|319:259|310:278|310:278|310:322,1,100,4|8,0:0|0:0,0:0:0:0:
214,284,61569,2,0,B|214:249|214:249|223:230|223:230|223:186,1,100,4|8,0:0|0:0,0:0:0:0:
195,89,63552,1,4,0:0:0:0:
294,77,64544,1,8,0:0:0:0:
394,65,65535,2,0,L|417:130,1,50,4|0,0:0|0:0,0:0:0:0:
440,152,66527,2,0,L|417:217,1,50,8|0,0:0|0:0,0:0:0:0:
380,224,67519,6,0,B|380:275|380:275|366:329,1,100,4|8,0:0|0:0,0:0:0:0:
282,374,69502,2,0,B|269:326|269:326|269:275,1,100,4|8,0:0|0:0,0:0:0:0:
345,210,71486,2,0,P|278:173|237:181,1,100,4|8,0:0|0:0,0:0:0:0:
186,104,73469,2,0,L|168:153,1,50,4|0,0:0|0:0,0:0:0:0:
132,185,74461,2,0,L|114:234,1,50,8|0,0:0|0:0,0:0:0:0:
87,273,75453,70,0,P|143:286|218:274,1,100,4|8,0:0|0:0,0:0:0:0:
266,224,77436,2,0,P|315:222|364:234,1,100,4|8,0:0|0:0,0:0:0:0:
456,272,79420,1,4,0:0:0:0:
448,172,80411,1,8,0:0:0:0:
365,116,81403,1,4,0:0:0:0:
265,120,82395,2,0,L|228:162,1,50,8|0,0:0|0:0,0:0:0:0:
199,195,83387,5,4,0:0:0:0:
236,287,84378,2,0,L|174:313,1,50,8|0,0:0|0:0,0:0:0:0:
140,300,85370,2,0,L|94:280,1,50,4|0,0:0|0:0,0:0:0:0:
67,237,86362,1,8,0:0:0:0:
90,140,87354,2,0,P|132:105|189:92,1,100,4|8,0:0|0:0,0:0:0:0:
272,82,89337,1,4,0:0:0:0:
341,155,90329,5,8,0:0:0:0:
349,204,90825,1,4,0:0:0:0:
358,253,91321,1,4,0:0:0:0:
301,335,92312,6,0,P|267:293|262:244,1,100,10|4,0:0|0:0,0:0:0:0:
161,249,94296,2,0,P|153:297|121:335,1,100,10|4,0:0|0:0,0:0:0:0:
61,255,96279,1,10,0:0:0:0:
61,155,97271,2,0,B|119:156|119:156|164:143,1,100,4|10,0:0|0:0,0:0:0:0:
240,86,99254,1,4,0:0:0:0:
329,40,100246,6,0,P|341:88|326:140,1,100,10|4,0:0|0:0,0:0:0:0:
338,240,102230,2,0,P|346:286|329:337,1,100,10|4,0:0|0:0,0:0:0:0:
246,279,104213,2,0,L|224:223,1,50,10|0,0:0|0:0,0:0:0:0:
203,188,105205,1,4,0:0:0:0:
127,122,106197,2,0,P|181:88|226:90,1,100,10|4,0:0|0:0,0:0:0:0:
316,97,108180,70,0,B|323:143|323:143|323:196,1,100,10|4,0:0|0:0,0:0:0:0:
423,196,110164,2,0,B|423:143|423:143|430:97,1,100,10|4,0:0|0:0,0:0:0:0:
373,14,112147,1,10,0:0:0:0:
308,90,113139,2,0,B|269:106|269:106|209:106,1,100,4|10,0:0|0:0,0:0:0:0:
111,104,115122,1,4,0:0:0:0:
162,189,116114,6,0,B|178:228|178:228|178:288,1,100,10|4,0:0|0:0,0:0:0:0:
278,286,118097,2,0,B|278:228|278:228|294:189,1,100,10|4,0:0|0:0,0:0:0:0:
392,170,120081,2,0,L|392:98,1,50,10|0,0:0|0:0,0:0:0:0:
405,71,121073,1,4,0:0:0:0:
305,69,122064,1,10,0:0:0:0:
254,69,122560,1,4,0:0:0:0:
203,69,123056,5,0,0:0:0:0:
