osu file format v14

[General]
AudioFilename: audio.mp3
AudioLeadIn: 0
PreviewTime: 73522
Countdown: 0
SampleSet: Soft
StackLeniency: 0.7
Mode: 0
LetterboxInBreaks: 0
WidescreenStoryboard: 0

[Editor]
Bookmarks: 70800
DistanceSpacing: 0.9
BeatDivisor: 8
GridSize: 8
TimelineZoom: 1.9

[Metadata]
Title:A Grain of Sand 1st
TitleUnicode:A Grain of Sand 1st
Artist:AJURIKA
ArtistUnicode:AJURIKA
Creator:rosario wknd
Version:The King of Iron Fist
Source:TEKKEN 7
Tags:鉄拳7 video game ost instrumental electronic vgm vg souq first round fated retribution 遠山明孝 toyama tohyama akitaka fighting arcade 株式会社バンダイナムコエンターテインメント bandai namco entertainment inc.
BeatmapID:3865985
BeatmapSetID:1878093

[Difficulty]
HPDrainRate:5
CircleSize:4.6
OverallDifficulty:8
ApproachRate:9.5
SliderMultiplier:2
SliderTickRate:1

[Events]
//Background and Video events
0,0,"tekken7.jpg",0,0
//Break Periods
//Storyboard Layer 0 (Background)
//Storyboard Layer 1 (Fail)
//Storyboard Layer 2 (Pass)
//Storyboard Layer 3 (Foreground)
//Storyboard Layer 4 (Overlay)
//Storyboard Sound Samples

[TimingPoints]
398,365.853658536585,4,2,1,60,1,0
398,-142.857142857143,4,2,1,60,0,0
2410,-100,4,2,1,70,0,0
3324,-76.9230769230769,4,2,1,85,0,0
25824,-71.4285714285714,4,2,1,85,0,0
26739,-100,4,2,1,70,0,0
36983,-86.9565217391304,4,2,1,85,0,0
38446,-100,4,2,1,80,0,0
48690,-86.9565217391304,4,2,1,85,0,0
50154,-125,4,2,1,60,0,0
61861,-105.263157894737,4,2,1,75,0,0
70641,-90.9090909090909,4,2,1,85,0,0
73568,-71.4285714285714,4,2,1,95,0,1
102837,-66.6666666666667,4,2,1,95,0,1
108690,-142.857142857143,4,2,1,60,0,0
114544,-166.666666666667,4,2,1,50,0,0
115641,-200,4,2,1,40,0,0
116739,-200,4,2,1,30,0,0
117471,-250.000000000001,4,2,1,20,0,0
118568,-250.000000000001,4,2,1,10,0,0

[Colours]
Combo1 : 206,0,0
Combo2 : 255,0,0

[HitObjects]
91,187,398,6,0,P|79:138|68:99,2,69.9999978637696,2|0|0,0:0|0:0|0:0,0:0:0:0:
148,232,946,2,0,P|136:281|125:320,2,69.9999978637696,2|0|0,0:0|0:0|0:0,0:0:0:0:
217,173,1495,2,0,P|255:179|315:195,1,69.9999978637696,2|0,0:0|0:0,0:0:0:0:
364,127,1861,1,0,0:0:0:0:
364,127,2044,2,0,P|313:117|272:107,1,69.9999978637696,2|0,0:0|0:0,0:0:0:0:
189,45,2410,1,2,0:0:0:0:
264,233,2776,1,2,0:0:0:0:
71,288,3141,1,2,0:0:0:0:
21,93,3324,5,6,3:0:0:0:
128,147,3507,2,0,P|72:155|-4:170,1,129.999994049073,2|8,0:0|0:3,0:0:0:0:
209,213,3873,2,0,P|227:118|255:-8,1,194.999991073609,2|0,0:0|0:0,0:0:0:0:
236,15,4239,6,0,P|204:23|153:37,1,64.9999970245363,2|0,3:0|0:0,0:0:0:0:
308,170,4422,1,10,0:3:0:0:
427,33,4605,2,0,B|492:45|492:45|472:142,1,129.999994049073,2|0,0:0|3:0,0:0:0:0:
221,160,4971,1,2,0:0:0:0:
278,301,5154,1,10,0:3:0:0:
466,247,5337,1,2,0:0:0:0:
466,247,5428,1,0,0:0:0:0:
466,247,5519,1,2,0:0:0:0:
301,110,5702,1,2,3:0:0:0:
361,258,5885,6,0,P|380:153|405:34,1,194.999991073609,10|0,0:3|0:0,0:0:0:0:
402,54,6251,1,2,3:0:0:0:
172,189,6434,2,0,P|236:176|300:165,1,129.999994049073,2|8,0:0|0:3,0:0:0:0:
467,354,6800,2,0,B|404:338|404:338|381:278|381:278|263:241,1,194.999991073609,2|0,0:0|0:0,0:0:0:0:
305,254,7166,1,2,3:0:0:0:
184,352,7349,2,0,B|152:336|121:322|121:322|159:237,1,129.999994049073,10|2,0:3|0:0,0:0:0:0:
152,255,7623,5,0,0:0:0:0:
152,255,7715,1,0,3:0:0:0:
254,151,7897,1,2,0:0:0:0:
95,61,8080,1,10,0:3:0:0:
258,156,8263,1,2,0:0:0:0:
30,214,8446,2,0,P|123:231|250:267,1,194.999991073609,2|0,0:0|0:0,0:0:0:0:
290,279,8812,2,0,B|217:240|201:292|180:362|86:291,1,194.999991073609,10|0,0:3|0:0,0:0:0:0:
102,313,9178,6,0,P|114:353|122:386,1,64.9999970245363,2|0,3:0|0:0,0:0:0:0:
196,202,9361,2,0,L|243:44,1,129.999994049073,2|8,0:0|0:3,0:0:0:0:
1,70,9727,2,0,P|98:40|216:3,1,194.999991073609,2|0,0:0|0:0,0:0:0:0:
200,11,10093,1,2,3:0:0:0:
76,124,10276,1,10,0:3:0:0:
263,54,10458,6,0,P|327:84|309:147,1,129.999994049073,2|0,0:0|3:0,0:0:0:0:
223,242,10824,1,2,0:0:0:0:
398,145,11007,1,10,0:3:0:0:
188,163,11190,1,2,0:0:0:0:
188,163,11282,1,0,0:0:0:0:
188,163,11373,1,2,0:0:0:0:
390,61,11556,1,2,3:0:0:0:
151,73,11739,2,0,P|257:92|379:123,1,194.999991073609,10|0,0:3|0:0,0:0:0:0:
343,125,12105,6,0,P|331:165|323:194,1,64.9999970245363,2|0,3:0|0:0,0:0:0:0:
452,117,12288,2,0,P|476:35|494:-23,1,129.999994049073,2|8,0:0|0:3,0:0:0:0:
250,177,12654,2,0,B|228:258|284:265|341:275|302:369,1,194.999991073609,2|0,0:0|0:0,0:0:0:0:
317,356,13019,2,0,P|354:347|407:340,1,64.9999970245363,2|0,3:0|0:0,0:0:0:0:
187,262,13202,2,0,P|150:271|97:278,1,64.9999970245363,10|0,0:3|0:0,0:0:0:0:
330,134,13385,1,2,0:0:0:0:
455,309,13568,1,2,3:0:0:0:
491,242,13751,1,2,0:0:0:0:
438,181,13934,1,10,0:3:0:0:
257,221,14117,6,0,P|160:197|51:180,1,194.999991073609,2|0,0:0|0:0,0:0:0:0:
126,267,14483,2,0,P|143:154|166:38,1,194.999991073609,2|0,3:0|0:0,0:0:0:0:
146,72,14849,1,2,0:0:0:0:
141,341,15032,5,6,3:0:0:0:
52,263,15215,2,0,P|70:341|82:395,1,129.999994049073,2|8,0:0|0:3,0:0:0:0:
145,156,15580,2,0,P|246:154|239:248,1,194.999991073609,2|0,0:0|0:0,0:0:0:0:
246,238,15946,1,2,3:0:0:0:
87,214,16129,1,10,0:3:0:0:
294,298,16312,6,0,P|398:277|447:270,1,129.999994049073,2|0,0:0|3:0,0:0:0:0:
445,163,16678,1,2,0:0:0:0:
337,374,16861,1,10,0:3:0:0:
497,305,17044,1,2,0:0:0:0:
497,305,17135,1,0,0:0:0:0:
497,305,17227,1,2,0:0:0:0:
332,230,17410,1,2,3:0:0:0:
512,193,17593,2,0,P|407:168|305:142,1,194.999991073609,10|0,0:3|0:0,0:0:0:0:
312,138,17958,6,0,P|353:128|411:110,1,64.9999970245363,2|0,3:0|0:0,0:0:0:0:
473,273,18141,2,0,B|485:302|502:334|502:334|453:372,1,129.999994049073,2|8,0:0|0:3,0:0:0:0:
254,233,18507,2,0,B|243:197|229:160|229:160|245:102|245:102|237:21,1,194.999991073609,2|0,0:0|0:0,0:0:0:0:
231,34,18873,2,0,P|196:45|132:62,1,64.9999970245363,2|0,3:0|0:0,0:0:0:0:
340,54,19056,1,10,0:3:0:0:
140,159,19239,1,2,0:0:0:0:
340,54,19422,6,0,P|404:85|388:145,1,129.999994049073,0|2,3:0|0:0,0:0:0:0:
391,145,19696,1,0,0:0:0:0:
391,145,19788,1,10,0:3:0:0:
259,21,19971,1,2,0:0:0:0:
54,158,20154,2,0,P|202:123|269:113,1,194.999991073609,2|0,0:0|0:0,0:0:0:0:
242,193,20519,2,0,B|188:172|188:172|162:110|162:110|61:72,1,194.999991073609,10|0,0:3|0:0,0:0:0:0:
87,76,20885,6,0,P|77:40|66:0,1,64.9999970245363,2|0,3:0|0:0,0:0:0:0:
98,199,21068,2,0,P|77:279|59:358,1,129.999994049073,2|8,0:0|0:3,0:0:0:0:
333,154,21434,2,0,B|344:121|365:91|365:91|210:122,1,194.999991073609,2|0,0:0|0:0,0:0:0:0:
230,120,21800,5,2,3:0:0:0:
313,30,21983,1,10,0:3:0:0:
166,239,22166,6,0,B|116:196|116:196|160:120,1,129.999994049073,2|0,0:0|3:0,0:0:0:0:
359,254,22532,1,2,0:0:0:0:
145,306,22715,1,10,0:3:0:0:
368,250,22897,1,2,0:0:0:0:
368,250,22989,1,0,0:0:0:0:
368,250,23080,1,2,0:0:0:0:
212,168,23263,1,2,3:0:0:0:
240,353,23446,2,0,B|223:280|267:272|324:262|291:168,1,194.999991073609,10|0,0:3|0:0,0:0:0:0:
303,171,23812,6,0,P|344:161|399:149,1,64.9999970245363,2|0,3:0|0:0,0:0:0:0:
182,263,23995,2,0,P|94:283|39:298,1,129.999994049073,2|8,0:0|0:3,0:0:0:0:
401,347,24361,2,0,P|422:258|453:135,1,194.999991073609,2|0,0:0|0:0,0:0:0:0:
435,152,24727,2,0,P|425:114|413:62,1,64.9999970245363,2|0,3:0|0:0,0:0:0:0:
495,282,24910,2,0,P|505:320|517:372,1,64.9999970245363,10|0,0:3|0:0,0:0:0:0:
361,134,25093,2,0,P|351:96|339:44,1,64.9999970245363,10|0,0:3|0:0,0:0:0:0:
257,344,25276,5,2,3:0:0:0:
196,199,25458,1,2,0:0:0:0:
340,147,25641,1,2,0:0:0:0:
493,303,25824,2,0,P|377:271|256:244,1,209.999993591309,2|0,0:0|0:0,0:0:0:0:
280,240,26190,2,0,P|246:249|198:260,1,69.9999978637696,2|0,3:0|0:0,0:0:0:0:
320,372,26373,1,10,0:3:0:0:
479,224,26556,1,10,0:3:0:0:
242,104,26739,6,0,P|281:9|366:55,1,200,4|8,3:0|0:3,0:0:0:0:
450,222,27288,1,0,0:0:0:0:
484,158,27471,1,0,0:0:0:0:
435,105,27654,2,0,P|410:113|355:130,1,50,0|0,3:0|0:0,0:0:0:0:
271,182,27837,2,0,P|203:166|141:155,1,100,8|0,0:3|0:0,0:0:0:0:
297,115,28202,6,0,P|309:38|318:-2,2,100,0|0|8,3:0|0:0|0:3,0:0:0:0:
452,190,28751,1,0,0:0:0:0:
359,258,28934,2,0,P|332:252|286:242,1,50,2|0,0:0|0:0,0:0:0:0:
392,319,29117,2,0,P|419:325|465:335,1,50,0|0,3:0|0:0,0:0:0:0:
238,368,29300,1,8,0:3:0:0:
238,368,29666,6,0,P|202:346|227:283,2,100,0|0|8,3:0|0:0|0:3,0:0:0:0:
282,260,30215,6,0,P|318:238|293:175,1,100,0|0,0:0|0:0,0:0:0:0:
165,103,30580,1,0,3:0:0:0:
165,103,30672,1,0,0:0:0:0:
165,103,30763,1,10,0:3:0:0:
190,176,30946,1,0,0:0:0:0:
224,39,31129,5,0,3:0:0:0:
74,126,31312,1,0,0:0:0:0:
224,39,31495,2,0,P|291:55|334:65,1,100,8|0,0:3|0:0,0:0:0:0:
410,145,31769,1,0,0:0:0:0:
410,145,31861,2,0,L|394:82,1,50,0|0,0:0|0:0,0:0:0:0:
317,14,32044,2,0,L|329:62,1,50,0|0,3:0|0:0,0:0:0:0:
263,216,32227,2,0,P|182:234|91:262,1,150,8|0,0:3|0:0,0:0:0:0:
97,255,32593,6,0,P|60:215|88:173,1,100,0|0,3:0|0:0,0:0:0:0:
139,135,32958,1,8,0:3:0:0:
213,312,33141,1,0,0:0:0:0:
276,355,33324,1,0,0:0:0:0:
330,305,33507,2,0,P|344:244|346:236,1,50,0|0,3:0|0:0,0:0:0:0:
256,172,33690,2,0,P|239:101|225:53,1,100,8|0,0:3|0:0,0:0:0:0:
185,183,34056,6,0,P|125:193|63:209,1,100,0|0,3:0|0:0,0:0:0:0:
231,75,34422,2,0,P|300:61|353:49,1,100,8|0,0:3|0:0,0:0:0:0:
422,184,34788,1,0,0:0:0:0:
471,135,34971,2,0,P|462:105|455:78,1,50,0|0,3:0|0:0,0:0:0:0:
382,260,35154,2,0,P|364:318|433:351,1,150,8|0,0:3|0:0,0:0:0:0:
454,343,35519,6,0,P|470:262|479:225,2,100,0|0|8,3:0|0:0|0:3,0:0:0:0:
396,110,36068,1,0,0:0:0:0:
343,160,36251,1,0,0:0:0:0:
396,110,36434,2,0,P|428:120|477:131,1,50,0|0,3:0|0:0,0:0:0:0:
261,118,36617,1,8,0:3:0:0:
432,44,36800,1,0,0:0:0:0:
261,118,36983,6,0,P|254:89|236:26,1,57.5000010967255,0|0,3:0|0:0,0:0:0:0:
172,50,37166,2,0,P|179:77|186:105,1,57.5000010967255,0|0,0:0|0:0,0:0:0:0:
277,288,37349,2,0,P|284:259|302:196,1,57.5000010967255,8|0,0:3|0:0,0:0:0:0:
366,220,37532,2,0,P|359:247|352:275,1,57.5000010967255,0|0,0:0|0:0,0:0:0:0:
160,344,37715,5,0,0:0:0:0:
154,321,37806,1,0,0:0:0:0:
148,298,37897,1,0,3:0:0:0:
142,275,37989,1,0,0:0:0:0:
132,230,38080,1,8,0:3:0:0:
156,179,38171,1,0,0:0:0:0:
210,169,38262,1,0,0:0:0:0:
251,206,38354,1,0,0:0:0:0:
246,261,38446,6,0,B|172:277|172:277|125:241|125:241|28:263,1,200,4|8,3:0|0:3,0:0:0:0:
55,90,38995,1,0,0:0:0:0:
112,45,39178,1,0,0:0:0:0:
169,87,39361,2,0,P|201:79|241:72,1,50,0|0,3:0|0:0,0:0:0:0:
121,230,39544,2,0,P|113:163|98:96,1,100,8|0,0:3|0:0,0:0:0:0:
181,301,39910,6,0,P|100:308|57:314,1,100,0|0,3:0|0:0,0:0:0:0:
191,176,40276,1,8,0:3:0:0:
243,226,40458,2,0,P|276:222|314:219,1,50,2|0,0:0|0:0,0:0:0:0:
414,334,40641,1,0,0:0:0:0:
449,181,40824,1,0,3:0:0:0:
414,334,41007,1,8,0:3:0:0:
414,334,41373,6,0,B|464:352|464:352|501:309,2,100,0|0|8,3:0|0:0|0:3,0:0:0:0:
292,254,41922,2,0,B|342:236|342:236|379:279,2,100,0|0|0,0:0|0:0|3:0,0:0:0:0:
244,307,42379,1,0,0:0:0:0:
244,307,42471,2,0,L|260:242,1,50,10|0,0:3|0:0,0:0:0:0:
397,191,42654,2,0,L|379:126,1,50,0|0,0:0|0:0,0:0:0:0:
358,26,42836,5,0,3:0:0:0:
290,60,43019,1,0,0:0:0:0:
427,63,43202,1,8,0:3:0:0:
286,204,43385,1,0,0:0:0:0:
286,204,43477,1,0,0:0:0:0:
286,204,43568,1,0,0:0:0:0:
224,110,43751,2,0,P|192:103|154:96,1,50,0|0,3:0|0:0,0:0:0:0:
20,218,43934,2,0,L|70:37,1,150,8|0,0:3|0:0,0:0:0:0:
67,54,44300,6,0,P|117:65|177:79,1,100,0|0,3:0|0:0,0:0:0:0:
281,228,44665,1,8,0:3:0:0:
310,152,44849,2,0,P|257:160|185:174,1,100,0|0,0:0|0:0,0:0:0:0:
30,343,45215,2,0,P|23:315|12:279,1,50,0|0,3:0|0:0,0:0:0:0:
60,174,45397,1,8,0:3:0:0:
102,311,45580,1,0,0:0:0:0:
60,174,45763,6,0,P|106:135|141:150,2,100,0|0|8,3:0|0:0|0:3,0:0:0:0:
203,257,46312,1,0,0:0:0:0:
264,221,46495,1,0,0:0:0:0:
345,305,46678,2,0,P|335:338|324:376,1,50,0|0,3:0|0:0,0:0:0:0:
408,177,46861,2,0,P|388:108|364:19,1,150,8|0,0:3|0:0,0:0:0:0:
349,22,47227,6,0,B|298:12|298:12|283:77,2,100,0|0|8,3:0|0:0|0:3,0:0:0:0:
469,122,47775,1,0,0:0:0:0:
501,54,47958,1,0,0:0:0:0:
469,122,48141,2,0,P|480:156|490:194,1,50,0|0,3:0|0:0,0:0:0:0:
311,271,48324,1,8,0:3:0:0:
348,152,48507,1,0,0:0:0:0:
487,287,48690,6,0,L|407:302,1,57.5000010967255,0|0,3:0|0:0,0:0:0:0:
402,362,48873,2,0,L|322:378,1,57.5000010967255,0|0,0:0|0:0,0:0:0:0:
273,281,49056,2,0,L|216:272,1,57.5000010967255,8|0,0:3|0:0,0:0:0:0:
197,209,49239,2,0,L|137:200,1,57.5000010967255,0|0,0:0|0:0,0:0:0:0:
163,341,49422,1,0,0:0:0:0:
208,125,49605,1,0,3:0:0:0:
287,263,49788,1,8,0:3:0:0:
71,218,49971,1,8,0:3:0:0:
285,72,50154,6,0,P|379:96|366:140,1,160,6|2,0:0|0:0,0:0:0:0:
318,219,50702,2,0,P|401:208|425:206,2,80,2|2|2,0:0|0:0|0:0,0:0:0:0:
201,295,51251,5,2,0:0:0:0:
175,264,51434,1,2,0:0:0:0:
198,231,51617,1,2,0:0:0:0:
242,152,51800,2,0,P|225:83|217:37,1,80,2|2,0:0|0:0,0:0:0:0:
178,23,52166,1,2,0:0:0:0:
57,140,52349,2,0,P|81:71|97:14,1,120,2|0,0:0|0:0,0:0:0:0:
79,12,52715,2,0,P|34:18|19:57,1,80,2|0,0:0|0:0,0:0:0:0:
140,127,53080,5,2,0:0:0:0:
181,185,53263,1,2,0:0:0:0:
139,243,53446,1,2,0:0:0:0:
45,201,53629,1,2,0:0:0:0:
60,172,53812,1,2,0:0:0:0:
91,175,53995,1,2,0:0:0:0:
91,283,54178,6,0,P|107:343|114:378,2,80,2|2|2,0:0|0:0|0:0,0:0:0:0:
156,238,54727,2,0,P|166:199|175:160,2,80,2|2|2,0:0|0:0|0:0,0:0:0:0:
231,353,55276,1,2,0:0:0:0:
281,303,55458,1,2,0:0:0:0:
370,363,55641,2,0,P|451:346|505:338,1,120,2|0,0:0|0:0,0:0:0:0:
500,331,56007,6,0,P|488:293|476:245,1,80,2|2,0:0|0:0,0:0:0:0:
415,218,56373,1,2,0:0:0:0:
481,160,56556,1,2,0:0:0:0:
471,129,56739,1,2,0:0:0:0:
460,98,56922,1,2,0:0:0:0:
305,21,57105,5,2,0:0:0:0:
373,0,57288,1,2,0:0:0:0:
390,69,57471,1,2,0:0:0:0:
266,85,57654,2,0,P|219:97|204:149,1,80,2|2,0:0|0:0,0:0:0:0:
232,184,58019,1,2,0:0:0:0:
349,154,58202,2,0,P|396:166|411:218,1,80,2|2,0:0|0:0,0:0:0:0:
306,284,58568,2,0,P|236:293|157:308,1,120,2|0,0:0|0:0,0:0:0:0:
172,308,58934,6,0,P|114:294|68:286,1,80,2|2,0:0|0:0,0:0:0:0:
47,239,59300,1,2,0:0:0:0:
115,154,59483,2,0,P|98:102|87:60,2,80,2|2|2,0:0|0:0|0:0,0:0:0:0:
213,201,60032,5,2,0:0:0:0:
253,141,60215,1,2,0:0:0:0:
207,86,60397,1,2,0:0:0:0:
115,154,60580,1,2,0:0:0:0:
100,182,60763,1,2,0:0:0:0:
123,205,60946,2,0,P|143:199|169:195,1,40,2|0,0:0|0:0,0:0:0:0:
261,184,61130,5,2,0:0:0:0:
261,184,61221,1,0,0:0:0:0:
261,184,61313,1,2,0:0:0:0:
129,279,61495,1,2,0:0:0:0:
129,279,61587,1,0,0:0:0:0:
129,279,61678,2,0,P|103:284|62:292,1,40,0|0,0:0|0:0,0:0:0:0:
320,352,61861,5,2,3:0:0:0:
378,205,62044,1,2,0:0:0:0:
320,352,62227,2,0,P|301:266|294:240,1,94.9999974632264,8|2,0:3|0:0,0:0:0:0:
295,245,62501,1,0,0:0:0:0:
295,245,62593,1,0,0:0:0:0:
405,308,62776,1,2,0:0:0:0:
474,197,62958,1,10,0:3:0:0:
300,143,63141,6,0,B|350:89|350:89|450:136,1,142.49999619484,2|0,0:0|0:0,0:0:0:0:
424,125,63507,2,0,L|476:118,1,47.4999987316132,2|0,0:0|0:0,0:0:0:0:
282,61,63690,2,0,L|230:68,1,47.4999987316132,10|0,0:3|0:0,0:0:0:0:
377,3,63873,1,2,0:0:0:0:
377,3,63965,1,0,0:0:0:0:
377,3,64056,1,0,0:0:0:0:
439,56,64239,1,2,0:0:0:0:
266,205,64422,2,0,P|250:136|234:67,1,142.49999619484,10|0,0:3|0:0,0:0:0:0:
225,55,64788,6,0,P|176:63|117:74,1,94.9999974632264,2|2,3:0|0:0,0:0:0:0:
315,101,65154,1,8,0:3:0:0:
142,139,65337,2,0,P|113:143|75:151,2,47.4999987316132,2|0|0,0:0|0:0|0:0,0:0:0:0:
266,205,65702,1,2,0:0:0:0:
235,140,65885,1,10,0:3:0:0:
77,217,66068,6,0,P|98:289|124:387,1,142.49999619484,2|0,0:0|0:0,0:0:0:0:
121,367,66434,1,2,0:0:0:0:
159,241,66617,1,10,0:3:0:0:
7,288,66800,1,2,0:0:0:0:
7,288,66891,1,0,0:0:0:0:
7,288,66983,1,0,0:0:0:0:
159,241,67166,2,0,L|220:259,1,47.4999987316132,2|0,0:0|0:0,0:0:0:0:
294,340,67349,2,0,B|347:329|347:329|390:356|390:356|470:337,1,142.49999619484,10|0,0:3|0:0,0:0:0:0:
437,337,67715,5,2,3:0:0:0:
296,168,67897,2,0,L|321:279,1,94.9999974632264,2|8,0:0|0:3,0:0:0:0:
401,112,68263,1,2,0:0:0:0:
401,112,68355,1,0,0:0:0:0:
401,112,68446,1,0,0:0:0:0:
417,183,68629,1,2,0:0:0:0:
231,76,68812,2,0,L|245:7,1,47.4999987316132,10|0,0:3|0:0,0:0:0:0:
278,127,68995,2,0,L|264:196,1,47.4999987316132,2|0,0:0|0:0,0:0:0:0:
128,109,69178,5,0,3:0:0:0:
327,37,69361,1,2,0:0:0:0:
128,109,69544,2,0,P|88:70|120:27,1,94.9999974632264,10|2,0:3|0:0,0:0:0:0:
108,28,69818,1,0,0:0:0:0:
108,28,69910,1,2,0:0:0:0:
278,127,70093,1,2,0:0:0:0:
152,226,70276,2,0,P|239:208|321:197,1,142.49999619484,10|0,0:3|0:0,0:0:0:0:
346,253,70641,6,0,P|372:259|405:266,3,55.0000016784668,2|0|2|0,3:0|0:0|0:0|0:0,0:0:0:0:
305,311,71007,2,0,P|281:315|246:325,3,55.0000016784668,8|0|2|0,0:3|0:0|0:0|0:0,0:0:0:0:
443,370,71373,2,0,P|447:340|457:298,1,55.0000016784668,0|0,0:0|0:0,0:0:0:0:
384,302,71556,2,0,P|380:272|370:230,1,55.0000016784668,2|0,0:0|0:0,0:0:0:0:
498,181,71739,2,0,P|468:173|423:159,1,55.0000016784668,10|0,0:3|0:0,0:0:0:0:
404,107,71922,2,0,P|374:115|329:129,1,55.0000016784668,2|0,0:0|0:0,0:0:0:0:
150,292,72105,5,0,3:0:0:0:
145,276,72196,1,0,0:0:0:0:
140,260,72288,1,2,0:0:0:0:
135,244,72379,1,0,0:0:0:0:
165,212,72471,1,10,0:3:0:0:
177,170,72562,1,0,0:0:0:0:
189,128,72654,1,2,0:0:0:0:
202,86,72745,1,0,0:0:0:0:
172,32,72837,5,0,0:0:0:0:
113,18,72928,1,0,0:0:0:0:
70,60,73019,1,2,0:0:0:0:
78,120,73111,1,0,0:0:0:0:
147,104,73202,1,10,3:3:0:0:
216,88,73294,1,0,3:0:0:0:
285,72,73385,1,0,3:0:0:0:
354,56,73477,1,0,3:0:0:0:
420,39,73568,6,0,P|432:78|455:138,1,69.9999978637696,6|0,3:0|0:0,0:0:0:0:
350,339,73751,2,0,P|328:278|408:248,1,139.999995727539,2|8,0:0|0:3,0:0:0:0:
352,72,74117,2,0,L|379:159,1,69.9999978637696,2|0,0:0|0:0,0:0:0:0:
448,345,74300,1,2,0:0:0:0:
264,284,74483,1,2,3:0:0:0:
435,340,74666,1,10,0:3:0:0:
254,182,74849,6,0,B|263:88|324:103|381:131|390:-1,1,209.999993591309,2|0,0:0|0:0,0:0:0:0:
296,35,75215,2,0,L|356:199,1,139.999995727539,2|8,0:0|0:3,0:0:0:0:
407,314,75580,1,2,0:0:0:0:
407,314,75672,1,0,0:0:0:0:
407,314,75763,1,2,0:0:0:0:
464,154,75946,1,2,3:0:0:0:
304,97,76129,1,10,0:3:0:0:
370,224,76312,1,0,0:0:0:0:
448,9,76495,6,0,P|412:18|359:31,1,69.9999978637696,2|0,3:0|0:0,0:0:0:0:
220,131,76678,2,0,P|134:112|42:96,1,139.999995727539,2|8,0:0|0:3,0:0:0:0:
297,32,77044,1,2,0:0:0:0:
281,240,77227,2,0,P|300:156|315:91,2,139.999995727539,2|2|10,0:0|3:0|0:3,0:0:0:0:
110,96,77776,2,0,P|32:117|78:223,1,209.999993591309,2|0,0:0|0:0,0:0:0:0:
161,338,78141,6,0,P|197:328|246:321,1,69.9999978637696,2|0,0:0|0:0,0:0:0:0:
103,292,78324,2,0,P|69:301|34:307,1,69.9999978637696,10|0,0:3|0:0,0:0:0:0:
271,253,78507,1,2,0:0:0:0:
271,253,78599,1,0,0:0:0:0:
271,253,78690,1,2,0:0:0:0:
132,198,78873,1,0,3:0:0:0:
343,371,79056,2,0,P|357:287|384:145,1,209.999993591309,10|0,0:3|0:0,0:0:0:0:
454,299,79422,6,0,P|443:261|434:220,1,69.9999978637696,2|0,3:0|0:0,0:0:0:0:
235,71,79605,2,0,B|258:6|258:6|374:34,1,139.999995727539,2|8,0:0|0:3,0:0:0:0:
386,319,79971,6,0,P|375:281|366:240,1,69.9999978637696,2|0,0:0|0:0,0:0:0:0:
436,51,80154,1,2,0:0:0:0:
496,186,80337,1,2,3:0:0:0:
358,232,80519,1,10,0:3:0:0:
229,82,80702,2,0,B|151:101|151:101|128:155|128:155|36:177,1,209.999993591309,2|0,0:0|0:0,0:0:0:0:
38,89,81068,6,0,L|208:131,1,139.999995727539,2|8,0:0|0:3,0:0:0:0:
293,208,81434,1,2,0:0:0:0:
293,208,81526,1,0,0:0:0:0:
293,208,81617,1,2,0:0:0:0:
200,44,81800,1,2,3:0:0:0:
142,243,81983,1,10,0:3:0:0:
199,31,82166,1,2,0:0:0:0:
395,232,82349,6,0,P|405:188|421:131,1,69.9999978637696,0|0,3:0|0:0,0:0:0:0:
317,281,82532,2,0,P|221:305|128:328,1,139.999995727539,2|8,0:0|0:3,0:0:0:0:
471,229,82897,1,2,0:0:0:0:
293,361,83080,1,2,0:0:0:0:
293,361,83263,1,2,3:0:0:0:
258,220,83446,1,10,0:3:0:0:
383,319,83629,6,0,P|480:342|522:354,1,139.999995727539,2|0,0:0|3:0,0:0:0:0:
163,252,83995,2,0,P|153:215|143:180,1,69.9999978637696,2|0,0:0|0:0,0:0:0:0:
206,144,84178,2,0,P|215:178|225:212,1,69.9999978637696,10|0,0:3|0:0,0:0:0:0:
76,241,84361,1,2,0:0:0:0:
297,144,84544,6,0,B|355:62|355:62|227:-9,1,209.999993591309,2|0,0:0|0:0,0:0:0:0:
190,78,84910,2,0,P|347:115|444:148,1,209.999993591309,10|0,0:3|0:0,0:0:0:0:
392,21,85276,6,0,P|349:31|286:50,1,69.9999978637696,6|0,3:0|0:0,0:0:0:0:
138,192,85458,2,0,P|74:143|109:95,1,139.999995727539,2|8,0:0|0:3,0:0:0:0:
332,103,85824,2,0,P|365:93|399:86,1,69.9999978637696,2|0,0:0|0:0,0:0:0:0:
241,25,86007,1,2,0:0:0:0:
385,165,86190,1,2,3:0:0:0:
226,182,86373,1,10,0:3:0:0:
506,232,86556,6,0,B|464:231|429:249|429:249|370:240|370:240|336:252|282:261,1,209.999993591309,2|0,0:0|0:0,0:0:0:0:
370,315,86922,2,0,B|405:254|405:254|317:174,1,139.999995727539,2|8,0:0|0:3,0:0:0:0:
256,86,87288,1,2,0:0:0:0:
256,86,87379,1,0,0:0:0:0:
256,86,87471,1,2,0:0:0:0:
208,276,87654,1,2,3:0:0:0:
261,71,87837,1,10,0:3:0:0:
438,141,88019,1,0,0:0:0:0:
175,173,88202,6,0,P|136:165|82:155,1,69.9999978637696,2|0,3:0|0:0,0:0:0:0:
339,0,88385,2,0,P|322:79|308:173,1,139.999995727539,2|8,0:0|0:3,0:0:0:0:
106,159,88751,1,2,0:0:0:0:
181,251,88934,2,0,P|258:232|333:222,1,139.999995727539,2|2,0:0|3:0,0:0:0:0:
107,274,89300,1,10,0:3:0:0:
257,139,89483,6,0,B|265:231|324:218|385:191|390:322,1,209.999993591309,2|0,0:0|0:0,0:0:0:0:
331,330,89849,2,0,P|289:318|254:308,1,69.9999978637696,2|0,0:0|0:0,0:0:0:0:
439,228,90032,2,0,P|481:240|516:250,1,69.9999978637696,10|0,0:3|0:0,0:0:0:0:
212,228,90215,1,2,0:0:0:0:
212,228,90306,1,0,0:0:0:0:
212,228,90397,1,2,0:0:0:0:
385,282,90580,1,0,3:0:0:0:
253,129,90763,2,0,P|135:161|42:185,1,209.999993591309,10|0,0:3|0:0,0:0:0:0:
122,237,91129,6,0,P|165:226|231:208,1,69.9999978637696,2|0,3:0|0:0,0:0:0:0:
286,15,91312,2,0,P|357:37|345:92,1,139.999995727539,2|8,0:0|0:3,0:0:0:0:
103,170,91678,2,0,P|69:178|35:187,1,69.9999978637696,2|0,0:0|0:0,0:0:0:0:
258,317,91861,1,2,0:0:0:0:
325,150,92044,1,2,3:0:0:0:
139,87,92227,1,10,0:3:0:0:
210,238,92410,2,0,P|229:125|257:-8,1,209.999993591309,2|0,0:0|0:0,0:0:0:0:
316,60,92776,6,0,P|200:80|136:99,1,139.999995727539,2|8,0:0|0:3,0:0:0:0:
383,19,93141,1,2,0:0:0:0:
383,19,93233,1,0,0:0:0:0:
383,19,93324,1,2,0:0:0:0:
351,220,93507,1,2,3:0:0:0:
495,74,93690,1,10,0:3:0:0:
254,26,93873,1,2,0:0:0:0:
442,223,94056,6,0,P|451:187|463:146,1,69.9999978637696,0|0,3:0|0:0,0:0:0:0:
322,328,94239,2,0,P|433:358|501:379,1,139.999995727539,2|8,0:0|0:3,0:0:0:0:
380,163,94605,1,2,0:0:0:0:
283,262,94788,2,0,B|218:239|218:239|246:165,2,139.999995727539,2|2|10,0:0|3:0|0:3,0:0:0:0:
274,12,95337,6,0,B|217:33|217:33|205:116|205:116|104:145,1,209.999993591309,2|0,0:0|0:0,0:0:0:0:
112,36,95702,2,0,L|227:64,1,69.9999978637696,2|0,0:0|0:0,0:0:0:0:
320,193,95885,2,0,L|251:176,1,69.9999978637696,10|0,0:3|0:0,0:0:0:0:
52,85,96068,1,2,0:0:0:0:
289,80,96251,2,0,P|281:46|274:12,1,69.9999978637696,2|0,0:0|0:0,0:0:0:0:
351,20,96434,2,0,P|358:54|366:88,1,69.9999978637696,0|0,3:0|0:0,0:0:0:0:
172,221,96617,2,0,P|180:187|188:152,1,69.9999978637696,10|0,0:3|0:0,0:0:0:0:
111,161,96800,2,0,P|103:195|95:229,1,69.9999978637696,0|0,0:0|0:0,0:0:0:0:
410,316,96983,6,0,P|451:307|508:297,1,69.9999978637696,6|0,3:0|0:0,0:0:0:0:
240,305,97166,2,0,P|162:340|176:384,1,139.999995727539,2|8,0:0|0:3,0:0:0:0:
383,251,97532,2,0,P|424:242|481:232,1,69.9999978637696,2|0,0:0|0:0,0:0:0:0:
256,146,97715,1,2,0:0:0:0:
338,346,97898,1,2,3:0:0:0:
253,135,98081,1,10,0:3:0:0:
60,282,98263,6,0,P|183:261|310:245,1,209.999993591309,2|0,0:0|0:0,0:0:0:0:
167,326,98629,2,0,P|193:190|203:149,1,139.999995727539,2|8,0:0|0:3,0:0:0:0:
115,48,98995,1,2,0:0:0:0:
115,48,99087,1,0,0:0:0:0:
115,48,99178,1,2,0:0:0:0:
277,121,99361,1,2,3:0:0:0:
59,110,99544,1,10,0:3:0:0:
275,199,99727,1,0,0:0:0:0:
53,296,99910,6,0,P|83:286|133:274,1,69.9999978637696,2|0,3:0|0:0,0:0:0:0:
260,121,100093,2,0,P|358:143|418:158,1,139.999995727539,2|8,0:0|0:3,0:0:0:0:
181,323,100459,1,2,0:0:0:0:
112,129,100641,2,0,B|184:114|184:114|212:216,2,139.999995727539,2|2|10,0:0|3:0|0:3,0:0:0:0:
267,38,101190,2,0,B|304:41|342:58|342:58|397:56|397:56|418:76|463:94,1,209.999993591309,2|0,0:0|0:0,0:0:0:0:
491,162,101556,1,2,0:0:0:0:
491,162,101739,1,10,0:3:0:0:
445,0,101922,1,2,0:0:0:0:
222,93,102105,6,0,B|231:187|292:172|349:144|358:276,1,209.999993591309,2|0,0:0|0:0,0:0:0:0:
272,313,102471,2,0,P|303:155|323:51,1,209.999993591309,10|0,0:3|0:0,0:0:0:0:
214,33,102837,6,0,P|227:71|244:124,1,75.0000028610231,2|0,3:0|0:0,0:0:0:0:
388,329,103019,2,0,P|375:294|359:239,1,75.0000028610231,2|0,0:0|0:0,0:0:0:0:
138,188,103202,1,8,0:3:0:0:
375,44,103385,1,2,0:0:0:0:
375,44,103477,1,0,0:0:0:0:
375,44,103569,1,2,0:0:0:0:
138,188,103751,2,0,P|180:197|253:217,1,75.0000028610231,2|0,3:0|0:0,0:0:0:0:
433,265,103934,1,10,0:3:0:0:
262,140,104117,5,2,0:0:0:0:
447,359,104300,6,0,P|350:337|252:322,1,150.000005722046,0|2,3:0|0:0,0:0:0:0:
226,283,104574,1,0,0:0:0:0:
226,283,104666,2,0,P|221:336|250:353,1,75.0000028610231,8|0,0:3|0:0,0:0:0:0:
440,209,104849,2,0,P|445:156|416:139,1,75.0000028610231,2|0,0:0|0:0,0:0:0:0:
62,98,105032,1,2,0:0:0:0:
271,10,105215,1,2,3:0:0:0:
359,219,105397,1,10,0:3:0:0:
150,307,105580,1,2,0:0:0:0:
204,137,105763,6,0,P|211:181|222:229,1,75.0000028610231,0|0,3:0|0:0,0:0:0:0:
80,367,105946,2,0,P|73:323|62:275,1,75.0000028610231,2|0,0:0|0:0,0:0:0:0:
137,58,106129,1,8,0:3:0:0:
202,341,106312,1,2,0:0:0:0:
202,341,106404,1,0,0:0:0:0:
202,341,106495,1,2,0:0:0:0:
36,78,106678,1,2,3:0:0:0:
98,368,106861,1,10,0:3:0:0:
344,219,107044,1,2,0:0:0:0:
93,176,107227,6,0,P|51:184|0:194,1,75.0000028610231,0|0,3:0|0:0,0:0:0:0:
273,16,107410,2,0,P|309:8|346:1,1,75.0000028610231,2|0,0:0|0:0,0:0:0:0:
77,249,107593,2,0,P|35:257|-16:267,1,75.0000028610231,10|0,0:3|0:0,0:0:0:0:
327,77,107776,2,0,P|363:69|400:62,1,75.0000028610231,2|0,0:0|0:0,0:0:0:0:
14,79,107958,5,2,0:0:0:0:
49,91,108050,1,0,0:0:0:0:
84,103,108141,1,0,3:0:0:0:
119,115,108233,1,0,0:0:0:0:
128,163,108324,1,10,0:3:0:0:
193,146,108416,1,0,0:0:0:0:
258,129,108507,1,0,0:0:0:0:
324,113,108599,1,0,0:0:0:0:
387,90,108690,6,0,P|425:98|488:112,2,69.9999978637696,6|0|0,0:0|0:0|0:0,0:0:0:0:
347,30,109239,2,0,P|308:38|246:52,2,69.9999978637696,2|0|0,0:0|0:0|0:0,0:0:0:0:
416,262,109788,2,0,P|431:205|440:170,1,69.9999978637696,2|0,0:0|0:0,0:0:0:0:
345,282,110154,1,0,0:0:0:0:
345,282,110337,2,0,P|360:339|369:374,1,69.9999978637696,2|0,0:0|0:0,0:0:0:0:
353,202,110702,1,0,0:0:0:0:
353,202,110885,2,0,P|286:220|262:226,1,69.9999978637696,2|0,0:0|0:0,0:0:0:0:
201,282,111251,1,0,0:0:0:0:
201,282,111617,6,0,P|186:241|173:201,2,69.9999978637696,2|0|0,0:0|0:0|0:0,0:0:0:0:
104,204,112166,2,0,P|119:163|132:123,2,69.9999978637696,2|0|0,0:0|0:0|0:0,0:0:0:0:
82,299,112715,2,0,P|25:318|-15:334,2,69.9999978637696,2|0|0,0:0|0:0|0:0,0:0:0:0:
144,256,113263,2,0,P|201:275|241:291,2,69.9999978637696,2|0|0,0:0|0:0|0:0,0:0:0:0:
24,186,113812,1,2,0:0:0:0:
24,186,113995,1,0,0:0:0:0:
61,121,114178,2,0,L|44:65,3,34.9999989318848
81,129,114544,6,0,P|144:111|164:108,1,59.9999981689454,2|0,0:0|0:0,0:0:0:0:
186,50,114910,1,0,0:0:0:0:
186,50,115093,2,0,P|247:66|266:71,1,59.9999981689454,2|0,0:0|0:0,0:0:0:0:
332,126,115458,1,0,0:0:0:0:
332,126,115641,2,0,P|344:71|347:55,2,50,2|0|0,0:0|0:0|0:0,0:0:0:0:
287,178,116190,2,0,P|299:233|302:249,2,50,2|0|0,0:0|0:0|0:0,0:0:0:0:
355,268,116739,2,0,P|345:304|338:334,1,50,2|0,0:0|0:0,0:0:0:0:
417,238,117105,1,0,0:0:0:0:
417,238,117471,6,0,L|469:228,2,40,2|0|0,0:0|0:0|0:0,0:0:0:0:
364,186,118019,2,0,L|324:193,2,40,2|0|0,0:0|0:0|0:0,0:0:0:0:
450,129,118568,2,0,L|468:74,1,40,2|0,0:0|0:0,0:0:0:0:
424,34,118934,1,0,0:0:0:0:
424,34,119117,2,0,L|371:49,1,40,2|0,0:0|0:0,0:0:0:0:
319,71,119483,2,0,P|285:60|234:49,2,80,2|0|0,0:0|0:0|0:0,0:0:0:0:
