osu file format v14

[General]
AudioFilename: audio.mp3
AudioLeadIn: 0
PreviewTime: 73522
Countdown: 0
SampleSet: Soft
StackLeniency: 0.7
Mode: 0
LetterboxInBreaks: 0
WidescreenStoryboard: 1

[Editor]
Bookmarks: 70800
DistanceSpacing: 0.9
BeatDivisor: 8
GridSize: 8
TimelineZoom: 1.9

[Metadata]
Title:A Grain of Sand 1st
TitleUnicode:A Grain of Sand 1st
Artist:AJURIKA
ArtistUnicode:AJURIKA
Creator:rosario wknd
Version:Insane
Source:TEKKEN 7
Tags:鉄拳7 video game ost instrumental electronic vgm vg souq first round fated retribution 遠山明孝 toyama tohyama akitaka fighting arcade 株式会社バンダイナムコエンターテインメント bandai namco entertainment inc.
BeatmapID:3866872
BeatmapSetID:1878093

[Difficulty]
HPDrainRate:5
CircleSize:4.5
OverallDifficulty:7
ApproachRate:9
SliderMultiplier:1.6
SliderTickRate:1

[Events]
//Background and Video events
0,0,"tekken7.jpg",0,0
//Break Periods
2,50354,61261
//Storyboard Layer 0 (Background)
//Storyboard Layer 1 (Fail)
//Storyboard Layer 2 (Pass)
//Storyboard Layer 3 (Foreground)
//Storyboard Layer 4 (Overlay)
//Storyboard Sound Samples

[TimingPoints]
398,365.853658536585,4,2,1,60,1,0
398,-125,4,2,1,60,0,0
2410,-100,4,2,1,70,0,0
3324,-100,4,2,1,85,0,0
3507,-83.3333333333333,4,2,1,85,0,0
26739,-100,4,2,1,70,0,0
36983,-100,4,2,1,85,0,0
38446,-100,4,2,1,80,0,0
48690,-100,4,2,1,85,0,0
50154,-111.111111111111,4,2,1,60,0,0
61861,-99.9999999999999,4,2,1,75,0,0
68263,-90.9090909090909,4,2,1,75,0,0
70641,-111.111111111111,4,2,1,85,0,0
71373,-105.263157894737,4,2,1,85,0,0
72105,-95.2380952380952,4,2,1,85,0,0
73568,-74.0740740740741,4,2,1,95,0,1
102837,-71.4285714285714,4,2,1,95,0,1
108690,-111.111111111111,4,2,1,60,0,0
114544,-125,4,2,1,50,0,0
115641,-125,4,2,1,40,0,0
116739,-142.857142857143,4,2,1,30,0,0
117471,-166.666666666666,4,2,1,20,0,0
118568,-200,4,2,1,10,0,0

[Colours]
Combo1 : 206,0,0
Combo2 : 255,0,0

[HitObjects]
275,253,398,6,0,L|342:240,2,64,2|0|0,0:0|0:0|0:0,0:0:0:0:
228,195,946,2,0,L|165:207,2,64,2|0|0,0:0|0:0|0:0,0:0:0:0:
346,311,1495,2,0,P|351:275|361:233,2,64,2|0|0,0:0|0:0|0:0,0:0:0:0:
294,213,2044,2,0,P|289:177|279:135,1,64,0|2,0:0|0:0,0:0:0:0:
298,58,2410,1,2,0:0:0:0:
282,63,2776,1,2,0:0:0:0:
268,67,3141,1,2,0:0:0:0:
107,0,3324,5,6,3:0:0:0:
154,90,3507,2,0,P|193:46|171:1,1,95.9999970703126,2|8,0:0|0:3,0:0:0:0:
74,90,3873,2,0,P|102:172|134:279,1,191.999994140625,2|2,0:0|3:0,0:0:0:0:
156,342,4422,1,10,0:3:0:0:
27,224,4605,6,0,P|9:287|-5:336,1,95.9999970703126,2|0,0:0|3:0,0:0:0:0:
109,208,4971,1,2,0:0:0:0:
184,165,5154,1,10,0:3:0:0:
101,214,5337,1,2,0:0:0:0:
179,304,5519,2,0,P|239:292|289:285,1,95.9999970703126,2|2,0:0|3:0,0:0:0:0:
379,195,5885,2,0,B|439:238|439:238|394:301,1,143.999995605469,10|0,0:3|0:0,0:0:0:0:
392,308,6251,5,2,3:0:0:0:
297,188,6434,2,0,P|284:134|271:78,1,95.9999970703126,2|8,0:0|0:3,0:0:0:0:
392,117,6800,2,0,P|405:63|418:7,1,95.9999970703126,2|0,0:0|0:0,0:0:0:0:
478,126,7166,1,2,3:0:0:0:
339,46,7349,1,10,0:3:0:0:
414,23,7532,1,2,0:0:0:0:
325,175,7715,6,0,P|281:182|193:202,1,95.9999970703126,0|2,3:0|0:0,0:0:0:0:
230,192,7989,1,0,0:0:0:0:
230,192,8080,1,10,0:3:0:0:
298,256,8263,1,2,0:0:0:0:
155,108,8446,2,0,P|133:191|109:283,1,143.999995605469,2|0,0:0|0:0,0:0:0:0:
115,261,8812,2,0,B|60:300|60:300|37:264|4:227,1,143.999995605469,10|0,0:3|0:0,0:0:0:0:
44,175,9178,1,2,3:0:0:0:
176,304,9361,6,0,L|299:281,1,95.9999970703126,2|8,0:0|0:3,0:0:0:0:
373,347,9727,2,0,B|377:258|328:281|261:277|283:190,1,191.999994140625,2|2,0:0|3:0,0:0:0:0:
346,162,10276,1,10,0:3:0:0:
200,106,10458,6,0,P|287:88|319:83,1,95.9999970703126,2|0,0:0|3:0,0:0:0:0:
375,72,10824,1,2,0:0:0:0:
375,72,11007,1,10,0:3:0:0:
277,14,11190,1,2,0:0:0:0:
307,160,11373,1,2,0:0:0:0:
161,190,11556,1,2,3:0:0:0:
73,56,11739,2,0,P|56:153|42:222,1,143.999995605469,10|0,0:3|0:0,0:0:0:0:
45,211,12105,5,2,3:0:0:0:
145,73,12288,2,0,P|209:58|250:48,1,95.9999970703126,2|8,0:0|0:3,0:0:0:0:
392,104,12654,2,0,P|332:118|287:129,1,95.9999970703126,2|0,0:0|0:0,0:0:0:0:
330,13,13019,1,2,3:0:0:0:
397,186,13202,1,10,0:3:0:0:
330,13,13385,5,2,0:0:0:0:
330,13,13477,1,0,0:0:0:0:
330,13,13568,1,2,3:0:0:0:
435,52,13751,1,2,0:0:0:0:
265,122,13934,1,10,0:3:0:0:
441,225,14117,6,0,B|389:236|389:236|368:276|368:276|294:292,1,143.999995605469,2|0,0:0|0:0,0:0:0:0:
301,208,14483,2,0,L|337:363,1,143.999995605469,2|0,3:0|0:0,0:0:0:0:
338,361,14849,1,2,0:0:0:0:
209,230,15032,5,6,3:0:0:0:
169,350,15215,2,0,B|132:313|132:313|168:247,1,95.9999970703126,2|8,0:0|0:3,0:0:0:0:
243,158,15580,2,0,P|171:139|56:111,1,191.999994140625,2|2,0:0|3:0,0:0:0:0:
4,160,16130,1,10,0:3:0:0:
122,44,16312,6,0,P|171:33|199:76,1,95.9999970703126,2|0,0:0|3:0,0:0:0:0:
122,239,16679,1,2,0:0:0:0:
105,159,16862,1,10,0:3:0:0:
105,159,17045,1,2,0:0:0:0:
210,248,17227,2,0,B|224:298|224:298|150:335,1,95.9999970703126,2|2,0:0|3:0,0:0:0:0:
28,229,17593,2,0,P|122:200|197:177,1,143.999995605469,10|0,0:3|0:0,0:0:0:0:
179,183,17959,5,2,3:0:0:0:
292,266,18141,2,0,P|344:274|415:289,1,95.9999970703126,2|8,0:0|0:3,0:0:0:0:
275,192,18508,2,0,P|288:138|301:82,1,95.9999970703126,2|0,0:0|0:0,0:0:0:0:
207,243,18873,2,0,P|196:289|184:336,2,95.9999970703126,2|10|2,3:0|0:3|0:0,0:0:0:0:
397,181,19422,5,0,3:0:0:0:
356,118,19605,1,2,0:0:0:0:
356,118,19697,1,0,0:0:0:0:
356,118,19788,1,10,0:3:0:0:
292,154,19971,1,2,0:0:0:0:
374,349,20154,2,0,P|438:353|448:279,1,143.999995605469,2|0,0:0|0:0,0:0:0:0:
439,281,20519,2,0,P|341:255|287:241,1,143.999995605469,10|0,0:3|0:0,0:0:0:0:
286,238,20886,5,2,3:0:0:0:
441,190,21068,2,0,P|454:134|470:77,1,95.9999970703126,2|8,0:0|0:3,0:0:0:0:
344,15,21434,2,0,B|298:25|260:26|260:26|223:70|223:70|184:83|176:86,1,191.999994140625,2|2,0:0|3:0,0:0:0:0:
134,31,21984,1,10,0:3:0:0:
298,94,22166,6,0,L|271:213,1,95.9999970703126,2|0,0:0|3:0,0:0:0:0:
186,290,22532,1,2,0:0:0:0:
292,262,22715,1,10,0:3:0:0:
176,292,22897,1,2,0:0:0:0:
296,364,23080,1,2,0:0:0:0:
238,202,23263,1,2,3:0:0:0:
108,339,23446,2,0,B|43:310|43:310|68:235,1,143.999995605469,10|0,0:3|0:0,0:0:0:0:
70,227,23813,5,2,3:0:0:0:
179,131,23995,2,0,L|151:26,1,95.9999970703126,2|8,0:0|0:3,0:0:0:0:
139,200,24361,2,0,L|163:292,1,95.9999970703126,2|0,0:0|0:0,0:0:0:0:
70,124,24727,1,2,3:0:0:0:
250,201,24910,1,10,0:3:0:0:
60,119,25093,1,10,0:3:0:0:
247,36,25276,5,2,3:0:0:0:
247,36,25458,1,2,0:0:0:0:
197,123,25641,1,2,0:0:0:0:
30,43,25824,2,0,P|52:119|78:219,1,143.999995605469,2|0,0:0|0:0,0:0:0:0:
73,195,26190,1,2,3:0:0:0:
135,38,26373,1,10,0:3:0:0:
0,202,26556,1,10,0:3:0:0:
127,344,26739,6,0,P|211:322|293:306,1,160,4|8,3:0|0:3,0:0:0:0:
320,245,27288,1,0,0:0:0:0:
418,349,27471,1,0,0:0:0:0:
418,349,27654,1,0,3:0:0:0:
398,238,27837,2,0,P|388:184|376:138,1,80,8|0,0:3|0:0,0:0:0:0:
401,73,28202,6,0,P|447:96|435:144,2,80,0|0|8,3:0|0:0|0:3,0:0:0:0:
340,23,28751,1,0,0:0:0:0:
217,89,28934,1,2,0:0:0:0:
234,19,29117,1,0,3:0:0:0:
309,153,29300,1,8,0:3:0:0:
309,153,29666,6,0,P|322:201|335:247,2,80,0|0|8,3:0|0:0|0:3,0:0:0:0:
386,294,30215,2,0,P|316:304|273:313,1,80,0|0,0:0|0:0,0:0:0:0:
265,364,30580,1,0,3:0:0:0:
151,253,30763,1,10,0:3:0:0:
151,253,30946,1,0,0:0:0:0:
112,319,31129,5,0,3:0:0:0:
233,275,31312,2,0,P|222:231|212:179,1,80,0|8,0:0|0:3,0:0:0:0:
187,56,31678,1,0,0:0:0:0:
187,56,31769,1,0,0:0:0:0:
187,56,31861,1,0,0:0:0:0:
131,109,32044,1,0,3:0:0:0:
244,1,32227,2,0,B|304:24|304:24|273:93,1,120,8|0,0:3|0:0,0:0:0:0:
269,88,32593,6,0,L|294:186,2,80,0|0|8,3:0|0:0|0:3,0:0:0:0:
168,89,33141,2,0,L|143:-9,1,80,0|0,0:0|0:0,0:0:0:0:
187,157,33507,1,0,3:0:0:0:
80,41,33690,2,0,P|7:64|-16:72,1,80,8|0,0:3|0:0,0:0:0:0:
187,157,34056,5,0,3:0:0:0:
187,157,34239,1,0,0:0:0:0:
71,123,34422,1,8,0:3:0:0:
71,123,34605,1,0,0:0:0:0:
140,307,34788,1,0,0:0:0:0:
160,237,34971,1,0,3:0:0:0:
2,198,35154,2,0,P|20:267|35:325,1,120,8|0,0:3|0:0,0:0:0:0:
40,334,35519,6,0,P|85:323|142:312,1,80,0|0,3:0|0:0,0:0:0:0:
213,212,35885,1,8,0:3:0:0:
247,275,36068,2,0,P|292:284|342:296,1,80,0|0,0:0|0:0,0:0:0:0:
211,339,36434,1,0,3:0:0:0:
298,212,36617,1,8,0:3:0:0:
209,348,36800,1,0,0:0:0:0:
104,149,36983,5,0,3:0:0:0:
137,259,37166,1,0,0:0:0:0:
247,226,37349,1,8,0:3:0:0:
214,116,37532,1,0,0:0:0:0:
64,252,37715,6,0,L|50:299,3,40,0|0|0|0,0:0|0:0|3:0|0:0,0:0:0:0:
114,200,38080,1,8,0:3:0:0:
101,166,38172,1,0,0:0:0:0:
89,132,38263,1,0,0:0:0:0:
77,98,38355,1,0,0:0:0:0:
65,64,38446,6,0,B|130:54|130:54|174:86|234:94,1,160,4|8,3:0|0:3,0:0:0:0:
269,42,38995,1,0,0:0:0:0:
402,156,39178,1,0,0:0:0:0:
425,87,39361,1,0,3:0:0:0:
300,147,39544,2,0,P|316:206|326:244,1,80,8|0,0:3|0:0,0:0:0:0:
333,81,39910,5,0,3:0:0:0:
333,81,40093,1,0,0:0:0:0:
399,223,40276,2,0,P|453:238|490:251,1,80,8|2,0:3|0:0,0:0:0:0:
491,236,40550,1,0,0:0:0:0:
491,236,40641,1,0,0:0:0:0:
412,304,40824,1,0,3:0:0:0:
304,223,41007,1,8,0:3:0:0:
304,223,41373,6,0,P|294:266|280:325,2,80,0|0|8,3:0|0:0|0:3,0:0:0:0:
244,360,41922,2,0,P|186:346|142:337,1,80,0|0,0:0|0:0,0:0:0:0:
148,272,42287,1,0,3:0:0:0:
56,355,42471,2,0,P|16:327|40:276,1,80,10|0,0:3|0:0,0:0:0:0:
100,151,42837,5,0,3:0:0:0:
34,121,43019,1,0,0:0:0:0:
101,223,43202,1,8,0:3:0:0:
143,91,43385,2,0,L|122:32,2,40,0|0|0,0:0|0:0|0:0,0:0:0:0:
63,32,43751,1,0,3:0:0:0:
205,158,43934,2,0,P|287:142|338:134,1,120,8|0,0:3|0:0,0:0:0:0:
330,126,44300,6,0,P|314:50|311:34,1,80,0|0,3:0|0:0,0:0:0:0:
270,221,44666,1,8,0:3:0:0:
270,221,44849,2,0,P|286:297|289:313,1,80,0|0,0:0|0:0,0:0:0:0:
350,229,45215,1,0,3:0:0:0:
204,263,45397,1,8,0:3:0:0:
361,226,45580,1,0,0:0:0:0:
423,365,45763,6,0,P|437:305|448:268,1,80,0|0,3:0|0:0,0:0:0:0:
341,127,46129,1,8,0:3:0:0:
411,163,46312,1,0,0:0:0:0:
411,163,46404,1,0,0:0:0:0:
411,163,46495,1,0,0:0:0:0:
364,266,46678,1,0,3:0:0:0:
269,174,46861,2,0,B|216:149|216:149|175:207,1,120,8|0,0:3|0:0,0:0:0:0:
172,215,47227,6,0,L|59:241,2,80,0|0|8,3:0|0:0|0:3,0:0:0:0:
237,288,47776,2,0,L|332:310,2,80,0|0|0,0:0|0:0|3:0,0:0:0:0:
106,337,48324,1,8,0:3:0:0:
106,337,48507,1,0,0:0:0:0:
204,193,48690,5,0,3:0:0:0:
135,172,48873,1,0,0:0:0:0:
18,233,49056,1,8,0:3:0:0:
87,254,49239,1,0,0:0:0:0:
59,70,49422,1,0,0:0:0:0:
151,18,49605,1,0,3:0:0:0:
203,110,49788,1,8,0:3:0:0:
111,162,49971,1,8,0:3:0:0:
111,162,50062,1,0,0:0:0:0:
111,162,50154,5,6,0:0:0:0:
170,192,61861,5,2,3:0:0:0:
85,154,62044,2,0,L|108:251,1,80,2|8,0:0|0:3,0:0:0:0:
45,316,62410,2,0,P|126:300|224:291,1,160,2|2,0:0|0:0,0:0:0:0:
272,281,62958,1,10,0:3:0:0:
421,357,63141,5,2,0:0:0:0:
421,357,63233,1,0,0:0:0:0:
421,357,63324,1,0,3:0:0:0:
479,277,63507,1,2,0:0:0:0:
432,220,63690,1,10,0:3:0:0:
352,308,63873,2,0,P|336:243|312:143,1,160,2|2,0:0|0:0,0:0:0:0:
363,0,64422,2,0,B|412:39|412:39|375:112,1,120,10|0,0:3|0:0,0:0:0:0:
378,96,64788,6,0,P|333:86|275:76,1,80,2|2,3:0|0:0,0:0:0:0:
256,22,65154,1,8,0:3:0:0:
123,129,65337,2,0,P|73:128|79:23,1,160,2|2,0:0|0:0,0:0:0:0:
197,151,65885,2,0,P|183:216|177:252,1,80,10|2,0:3|0:0,0:0:0:0:
183,245,66160,5,0,0:0:0:0:
183,245,66251,1,0,3:0:0:0:
259,183,66434,1,2,0:0:0:0:
109,211,66617,1,10,0:3:0:0:
269,180,66800,2,0,B|329:167|329:167|373:193|373:193|429:183,1,160,2|2,0:0|0:0,0:0:0:0:
315,248,67349,2,0,L|292:340,1,80,10|0,0:3|0:0,0:0:0:0:
98,269,67715,5,2,3:0:0:0:
98,269,67897,1,2,0:0:0:0:
131,336,68080,1,8,0:3:0:0:
188,201,68263,2,0,B|158:131|201:122|262:100|217:24,1,176.000005371094,2|2,0:0|0:0,0:0:0:0:
165,12,68812,1,10,0:3:0:0:
289,163,68995,2,0,P|300:104|312:55,1,88.000002685547,2|0,0:0|3:0,0:0:0:0:
121,73,69361,5,2,0:0:0:0:
164,180,69544,1,10,0:3:0:0:
57,223,69727,1,2,0:0:0:0:
57,223,69818,1,0,0:0:0:0:
57,223,69910,1,2,0:0:0:0:
91,158,70093,1,2,0:0:0:0:
156,278,70276,2,0,B|171:340|171:340|96:359,1,132.00000402832,10|0,0:3|0:0,0:0:0:0:
81,344,70641,6,0,L|19:332,3,35.9999989013672,2|0|2|0,3:0|0:0|0:0|0:0,0:0:0:0:
19,263,71007,2,0,L|55:270,3,35.9999989013672,8|0|2|0,0:3|0:0|0:0|0:0,0:0:0:0:
136,227,71373,2,0,L|201:214,3,37.9999989852906,0|0|2|0,0:0|0:0|0:0|0:0,0:0:0:0:
178,148,71739,2,0,L|141:156,3,37.9999989852906,10|0|2|0,0:3|0:0|0:0|0:0,0:0:0:0:
18,156,72105,5,0,3:0:0:0:
18,156,72196,1,0,0:0:0:0:
18,156,72288,2,0,P|12:131|-2:88,1,41.9999987182618,2|0,0:0|0:0,0:0:0:0:
80,56,72471,1,10,0:3:0:0:
80,56,72562,1,0,0:0:0:0:
80,56,72654,2,0,P|86:31|100:-12,1,41.9999987182618,2|0,0:0|0:0,0:0:0:0:
207,121,72837,5,0,0:0:0:0:
239,114,72928,1,0,0:0:0:0:
271,107,73019,1,2,0:0:0:0:
303,100,73111,1,0,0:0:0:0:
352,89,73202,1,10,3:3:0:0:
400,103,73294,1,0,3:0:0:0:
416,150,73385,1,0,3:0:0:0:
407,199,73477,1,0,3:0:0:0:
367,216,73568,5,6,3:0:0:0:
271,107,73751,2,0,P|257:45|244:-8,1,108.000000411987,2|8,0:0|0:3,0:0:0:0:
213,158,74117,1,2,0:0:0:0:
338,39,74300,1,2,0:0:0:0:
442,142,74483,1,2,3:0:0:0:
336,28,74666,1,10,0:3:0:0:
314,219,74849,6,0,P|335:290|357:385,1,162.000000617981,2|0,0:0|0:0,0:0:0:0:
427,375,75215,2,0,P|391:317|343:332,1,108.000000411987,2|8,0:0|0:3,0:0:0:0:
231,308,75580,1,2,0:0:0:0:
231,308,75672,1,0,0:0:0:0:
231,308,75763,1,2,0:0:0:0:
418,219,75946,1,2,3:0:0:0:
206,204,76129,2,0,B|171:128|171:128|258:65,1,162.000000617981,10|0,0:3|0:0,0:0:0:0:
244,77,76495,5,2,3:0:0:0:
110,172,76678,2,0,P|45:158|-14:146,1,108.000000411987,2|8,0:0|0:3,0:0:0:0:
75,93,77044,1,2,0:0:0:0:
175,328,77227,1,2,0:0:0:0:
221,217,77410,1,2,3:0:0:0:
110,172,77593,1,10,0:3:0:0:
266,302,77776,6,0,B|320:286|320:286|367:316|367:316|401:312|448:317,1,162.000000617981,2|0,0:0|0:0,0:0:0:0:
427,313,78141,1,2,0:0:0:0:
323,212,78324,1,10,0:3:0:0:
323,212,78507,1,2,0:0:0:0:
245,372,78690,2,0,P|232:316|216:249,1,108.000000411987,2|0,0:0|3:0,0:0:0:0:
63,228,79056,2,0,P|152:199|259:168,1,162.000000617981,10|0,0:3|0:0,0:0:0:0:
228,176,79422,5,2,3:0:0:0:
71,138,79605,2,0,B|49:86|49:86|122:32,1,108.000000411987,2|8,0:0|0:3,0:0:0:0:
0,29,79971,1,2,0:0:0:0:
192,105,80154,2,0,L|316:84,2,108.000000411987,2|2|10,0:0|3:0|0:3,0:0:0:0:
322,0,80702,6,0,B|283:87|353:103|422:111|364:217,1,216.000000823975,2|2,0:0|0:0,0:0:0:0:
238,142,81251,1,8,0:3:0:0:
431,67,81434,1,2,0:0:0:0:
431,67,81526,1,0,0:0:0:0:
431,67,81617,1,2,0:0:0:0:
222,151,81800,1,2,3:0:0:0:
432,197,81983,2,0,P|355:212|251:232,1,162.000000617981,10|0,0:3|0:0,0:0:0:0:
262,231,82349,5,0,3:0:0:0:
446,265,82532,2,0,P|428:331|415:382,1,108.000000411987,2|8,0:0|0:3,0:0:0:0:
361,301,82897,1,2,0:0:0:0:
488,147,83080,2,0,P|483:91|407:91,1,108.000000411987,2|2,0:0|3:0,0:0:0:0:
426,190,83446,1,10,0:3:0:0:
319,25,83629,6,0,P|248:28|265:132,1,162.000000617981,2|0,0:0|0:0,0:0:0:0:
241,119,83995,1,2,0:0:0:0:
158,51,84178,1,10,0:3:0:0:
326,123,84361,1,2,0:0:0:0:
158,51,84544,2,0,P|73:73|-21:98,1,162.000000617981,2|0,0:0|0:0,0:0:0:0:
40,5,84910,2,0,P|58:74|85:187,1,162.000000617981,10|0,0:3|0:0,0:0:0:0:
85,177,85276,5,6,3:0:0:0:
205,271,85458,2,0,P|126:286|64:301,1,108.000000411987,2|8,0:0|0:3,0:0:0:0:
234,338,85825,1,2,0:0:0:0:
252,160,86008,1,2,0:0:0:0:
89,217,86190,1,2,3:0:0:0:
142,107,86373,1,10,0:3:0:0:
315,205,86556,6,0,P|332:285|354:376,1,162.000000617981,2|0,0:0|0:0,0:0:0:0:
274,355,86922,2,0,B|308:307|308:307|368:330,1,108.000000411987,2|8,0:0|0:3,0:0:0:0:
240,163,87288,1,2,0:0:0:0:
240,163,87380,1,0,0:0:0:0:
240,163,87471,1,2,0:0:0:0:
187,366,87654,1,2,3:0:0:0:
341,229,87837,2,0,B|323:176|323:176|349:119|349:119|327:38,1,162.000000617981,10|0,0:3|0:0,0:0:0:0:
333,61,88203,5,2,3:0:0:0:
402,185,88385,2,0,P|467:202|521:217,1,108.000000411987,2|8,0:0|0:3,0:0:0:0:
478,131,88752,1,2,0:0:0:0:
275,231,88934,2,0,P|213:214|156:199,2,108.000000411987,2|2|10,0:0|3:0|0:3,0:0:0:0:
380,351,89483,6,0,B|449:309|449:309|406:230,1,162.000000617981,2|0,0:0|0:0,0:0:0:0:
403,222,89849,5,2,0:0:0:0:
225,242,90032,1,10,0:3:0:0:
261,157,90215,1,2,0:0:0:0:
332,274,90397,2,0,P|319:337|310:383,1,108.000000411987,2|0,0:0|3:0,0:0:0:0:
225,242,90763,2,0,P|140:262|39:288,1,162.000000617981,10|0,0:3|0:0,0:0:0:0:
52,287,91130,5,2,3:0:0:0:
199,159,91312,2,0,P|181:75|174:39,1,108.000000411987,2|8,0:0|0:3,0:0:0:0:
262,100,91679,1,2,0:0:0:0:
95,27,91861,1,2,0:0:0:0:
95,27,92044,1,2,3:0:0:0:
272,104,92227,1,10,0:3:0:0:
28,229,92410,6,0,B|99:207|99:207|163:262|163:262|208:269|268:293,1,216.000000823975,2|2,0:0|0:0,0:0:0:0:
299,116,92959,1,8,0:3:0:0:
317,322,93142,1,2,0:0:0:0:
317,322,93234,1,0,0:0:0:0:
317,322,93325,1,2,0:0:0:0:
198,135,93508,1,2,3:0:0:0:
214,366,93690,2,0,P|234:278|257:179,1,162.000000617981,10|0,0:3|0:0,0:0:0:0:
255,192,94057,5,0,3:0:0:0:
404,346,94239,2,0,P|474:327|528:319,1,108.000000411987,2|8,0:0|0:3,0:0:0:0:
430,263,94605,1,2,0:0:0:0:
310,381,94788,2,0,B|271:338|271:338|301:289,2,108.000000411987,2|2|10,0:0|3:0|0:3,0:0:0:0:
472,183,95337,6,0,P|387:160|270:129,1,162.000000617981,2|0,0:0|0:0,0:0:0:0:
300,135,95703,1,2,0:0:0:0:
401,91,95886,1,10,0:3:0:0:
215,176,96069,1,2,0:0:0:0:
389,253,96251,2,0,B|388:327|344:318|294:322|307:415,1,162.000000617981,2|0,0:0|0:0,0:0:0:0:
426,363,96617,2,0,P|360:346|237:319,1,162.000000617981,10|0,0:3|0:0,0:0:0:0:
252,322,96983,5,6,3:0:0:0:
145,205,97166,2,0,P|72:223|79:281,1,108.000000411987,2|8,0:0|0:3,0:0:0:0:
195,255,97532,1,2,0:0:0:0:
169,0,97715,1,2,0:0:0:0:
275,64,97897,1,2,3:0:0:0:
211,170,98080,1,10,0:3:0:0:
4,129,98263,6,0,P|79:110|173:92,1,162.000000617981,2|0,0:0|0:0,0:0:0:0:
104,33,98629,2,0,P|118:95|130:164,1,108.000000411987,2|8,0:0|0:3,0:0:0:0:
149,322,98995,1,2,0:0:0:0:
149,322,99087,1,0,0:0:0:0:
149,322,99178,1,2,0:0:0:0:
55,170,99361,1,2,3:0:0:0:
253,235,99544,2,0,B|311:291|311:291|284:325|260:367,1,162.000000617981,10|0,0:3|0:0,0:0:0:0:
256,372,99910,5,2,3:0:0:0:
344,218,100093,2,0,P|409:206|470:197,1,108.000000411987,2|8,0:0|0:3,0:0:0:0:
299,168,100459,1,2,0:0:0:0:
220,304,100641,2,0,P|166:312|113:322,1,108.000000411987,2|2,0:0|3:0,0:0:0:0:
59,276,101007,1,10,0:3:0:0:
202,177,101190,6,0,P|189:102|176:8,1,162.000000617981,2|0,0:0|0:0,0:0:0:0:
173,1,101556,1,2,0:0:0:0:
114,116,101739,1,10,0:3:0:0:
264,42,101922,1,2,0:0:0:0:
106,122,102105,2,0,P|45:93|64:39,1,108.000000411987,2|0,0:0|3:0,0:0:0:0:
218,216,102471,2,0,P|294:215|294:124,1,162.000000617981,10|0,0:3|0:0,0:0:0:0:
302,127,102837,5,2,3:0:0:0:
346,280,103019,1,2,0:0:0:0:
192,149,103202,1,8,0:3:0:0:
230,306,103385,1,2,0:0:0:0:
230,306,103477,1,0,0:0:0:0:
230,306,103568,1,2,0:0:0:0:
115,247,103751,1,2,3:0:0:0:
294,204,103934,1,10,0:3:0:0:
189,373,104117,6,0,P|101:351|-3:325,1,167.999994873047,2|0,0:0|0:0,0:0:0:0:
17,317,104483,1,2,0:0:0:0:
119,49,104666,1,8,0:3:0:0:
15,152,104849,1,2,0:0:0:0:
119,256,105032,1,2,0:0:0:0:
230,157,105215,1,2,3:0:0:0:
230,157,105306,1,0,0:0:0:0:
230,157,105397,2,0,B|215:88|258:79|327:84|286:-11,1,167.999994873047,10|0,0:3|0:0,0:0:0:0:
281,9,105764,5,0,3:0:0:0:
362,122,105946,1,2,0:0:0:0:
180,48,106129,1,8,0:3:0:0:
370,129,106312,1,2,0:0:0:0:
370,129,106404,1,0,0:0:0:0:
370,129,106495,1,2,0:0:0:0:
249,233,106678,1,2,3:0:0:0:
338,41,106861,1,10,0:3:0:0:
423,287,107044,6,0,B|503:253|503:253|472:178,1,167.999994873047,2|0,0:0|0:0,0:0:0:0:
467,161,107410,1,2,0:0:0:0:
330,221,107593,1,10,0:3:0:0:
502,343,107776,1,2,0:0:0:0:
337,377,107958,5,2,0:0:0:0:
304,367,108050,1,0,0:0:0:0:
271,357,108141,1,0,3:0:0:0:
238,347,108233,1,0,0:0:0:0:
202,311,108324,1,10,0:3:0:0:
206,260,108416,1,0,0:0:0:0:
240,223,108507,1,0,0:0:0:0:
290,225,108599,1,0,0:0:0:0:
320,250,108690,6,2,P|359:243|400:238,2,71.9999978027344,6|0|2,0:0|0:0|0:0,0:0:0:0:
382,161,109239,2,2,P|421:168|462:173,2,71.9999978027344,2|0|2,0:0|0:0|0:0,0:0:0:0:
327,109,109788,2,0,P|313:57|302:17,1,71.9999978027344,2|0,0:0|0:0,0:0:0:0:
220,81,110154,1,0,0:0:0:0:
220,81,110337,2,0,P|235:34|250:-6,1,71.9999978027344,2|0,0:0|0:0,0:0:0:0:
141,83,110702,1,0,0:0:0:0:
141,83,110885,2,0,P|79:99|50:106,1,71.9999978027344,2|0,0:0|0:0,0:0:0:0:
172,162,111251,1,0,0:0:0:0:
172,162,111617,6,0,P|209:171|252:184,2,71.9999978027344,2|0|0,0:0|0:0|0:0,0:0:0:0:
113,207,112166,2,0,P|76:210|49:256,2,71.9999978027344,2|0|0,0:0|0:0|0:0,0:0:0:0:
147,270,112715,2,0,P|197:283|227:290,1,71.9999978027344,2|0,0:0|0:0,0:0:0:0:
269,348,113080,1,0,0:0:0:0:
269,348,113263,2,0,P|319:335|349:328,1,71.9999978027344,2|0,0:0|0:0,0:0:0:0:
216,287,113629,1,0,0:0:0:0:
216,287,113812,2,0,P|181:295|146:304,1,71.9999978027344,2|0,0:0|0:0,0:0:0:0:
68,357,114178,2,0,L|26:345,3,35.9999989013672
27,315,114544,6,0,L|46:236,1,64,2|0,0:0|0:0,0:0:0:0:
90,190,114910,1,0,0:0:0:0:
90,190,115093,2,0,P|79:152|69:113,2,64,2|0|0,0:0|0:0|0:0,0:0:0:0:
159,223,115641,6,0,P|196:210|233:201,2,64,2|0|0,0:0|0:0|0:0,0:0:0:0:
257,143,116190,1,2,0:0:0:0:
257,143,116373,2,0,L|337:168,1,64
215,89,116739,2,0,P|183:96|142:107,1,55.9999982910157,2|0,0:0|0:0,0:0:0:0:
276,48,117105,1,0,0:0:0:0:
276,48,117471,6,0,P|268:20|257:-13,2,47.9999985351563,2|0|0,0:0|0:0|0:0,0:0:0:0:
338,83,118019,2,0,P|328:111|319:144,2,47.9999985351563,2|0|0,0:0|0:0|0:0,0:0:0:0:
388,34,118568,2,0,P|409:39|435:46,1,40,2|0,0:0|0:0,0:0:0:0:
464,108,118934,1,0,0:0:0:0:
464,108,119117,2,0,P|458:128|450:154,1,40,2|0,0:0|0:0,0:0:0:0:
408,199,119483,2,0,P|420:246|431:291,2,80,2|0|0,0:0|0:0|0:0,0:0:0:0:
