osu file format v14

[General]
AudioFilename: audio.mp3
AudioLeadIn: 0
PreviewTime: -1
Countdown: 0
SampleSet: Normal
StackLeniency: 0.7
Mode: 0
LetterboxInBreaks: 0
WidescreenStoryboard: 0

[Editor]
DistanceSpacing: 2.1
BeatDivisor: 8
GridSize: 32
TimelineZoom: 1.8

[Metadata]
Title:Weak
TitleUnicode:Weak
Artist:AJR
ArtistUnicode:AJR
Creator:Dohinkus
Version:Weakest
Source:
Tags:
BeatmapID:1810571
BeatmapSetID:865969

[Difficulty]
HPDrainRate:6
CircleSize:4
OverallDifficulty:7
ApproachRate:9
SliderMultiplier:1.4
SliderTickRate:1

[Events]
//Background and Video events
0,0,"AJR.png",0,0
//Break Periods
//Storyboard Layer 0 (Background)
//Storyboard Layer 1 (Fail)
//Storyboard Layer 2 (Pass)
//Storyboard Layer 3 (Foreground)
//Storyboard Sound Samples

[TimingPoints]
363,483.843653987275,4,1,0,100,1,0
30845,-74.0740740740741,4,1,0,100,0,0
31328,-74.0740740740741,4,1,0,100,0,1
46328,-74.0740740740741,4,1,0,100,0,0

[HitObjects]
201,284,363,6,0,P|231:269|262:242,1,70
357,92,846,1,0,0:0:0:0:
305,291,1330,1,0,0:0:0:0:
230,59,1573,1,0,0:0:0:0:
230,59,1633,1,0,0:0:0:0:
352,161,3024,5,0,0:0:0:0:
151,79,3266,1,0,0:0:0:0:
324,282,3507,1,0,0:0:0:0:
122,237,3749,2,0,P|143:198|168:177,1,70
337,70,4233,1,0,0:0:0:0:
369,222,5201,5,0,0:0:0:0:
152,55,5443,1,0,0:0:0:0:
254,263,5685,1,0,0:0:0:0:
325,46,5926,1,0,0:0:0:0:
142,167,6169,2,0,L|89:227,1,70
100,219,7620,6,0,L|113:232,1,17.5
238,301,8104,6,0,P|281:284|304:261,1,70
286,77,8588,2,0,P|239:87|216:110,1,70
135,258,9072,1,0,0:0:0:0:
346,150,9314,1,0,0:0:0:0:
346,150,9374,1,0,0:0:0:0:
346,150,10765,5,0,0:0:0:0:
194,277,11007,1,0,0:0:0:0:
273,62,11249,1,0,0:0:0:0:
144,173,11491,1,0,0:0:0:0:
344,249,11733,1,0,0:0:0:0:
367,68,11975,2,0,L|315:127,1,70
320,120,12942,5,0,0:0:0:0:
254,324,13184,1,0,0:0:0:0:
222,118,13426,1,0,0:0:0:0:
336,280,13668,1,0,0:0:0:0:
140,297,13910,2,0,L|192:238,1,70
189,246,15362,6,0,P|222:213|242:203,1,70
407,95,15845,6,0,P|371:139|324:161,2,105
198,60,16813,1,0,0:0:0:0:
88,355,17176,1,0,0:0:0:0:
201,299,17297,1,0,0:0:0:0:
351,165,17781,6,0,P|387:135|421:81,2,105
174,281,18749,1,0,0:0:0:0:
249,52,19111,1,0,0:0:0:0:
362,106,19232,1,0,0:0:0:0:
201,335,19716,5,0,0:0:0:0:
260,265,20019,2,0,P|228:253|205:164,1,122.5
218,70,20684,1,0,0:0:0:0:
442,185,21047,1,0,0:0:0:0:
345,266,21168,1,0,0:0:0:0:
183,230,21531,5,0,0:0:0:0:
105,289,21652,1,0,0:0:0:0:
321,122,21894,1,0,0:0:0:0:
140,64,22135,1,0,0:0:0:0:
307,216,22377,1,0,0:0:0:0:
386,67,22619,2,0,L|315:41,1,70
396,163,23103,2,0,L|364:229,1,70
242,341,23587,1,0,0:0:0:0:
80,251,23828,5,0,0:0:0:0:
251,159,24071,1,0,0:0:0:0:
106,131,24555,1,0,0:0:0:0:
332,264,24797,1,0,0:0:0:0:
332,264,26248,5,0,0:0:0:0:
271,102,26490,1,0,0:0:0:0:
234,311,26732,1,0,0:0:0:0:
349,162,26974,1,0,0:0:0:0:
149,75,27216,1,0,0:0:0:0:
113,301,27458,2,0,L|183:266,1,70
174,268,28425,5,0,0:0:0:0:
316,304,28667,1,0,0:0:0:0:
295,158,28909,2,0,L|220:132,1,70
81,136,29393,2,0,L|156:162,1,70
367,119,30603,5,0,0:0:0:0:
266,322,30845,2,0,P|248:321|168:286,1,94.5000003604889
131,67,31328,2,0,P|157:118|270:179,1,189.000000720978
269,178,32296,5,0,0:0:0:0:
129,232,32538,1,0,0:0:0:0:
321,41,32780,1,0,0:0:0:0:
206,326,33264,2,0,P|262:317|355:228,1,189.000000720978
232,76,33990,1,0,0:0:0:0:
424,247,34232,1,0,0:0:0:0:
424,247,34292,1,0,0:0:0:0:
324,331,35199,5,0,0:0:0:0:
177,23,35441,1,0,0:0:0:0:
233,358,35683,5,0,0:0:0:0:
336,33,35925,1,0,0:0:0:0:
305,348,36167,5,0,0:0:0:0:
236,16,36408,1,0,0:0:0:0:
210,331,36651,5,0,0:0:0:0:
297,66,36893,1,0,0:0:0:0:
287,258,37135,2,0,L|231:209,1,70.8750002703667
138,123,37618,1,0,0:0:0:0:
202,304,37860,1,0,0:0:0:0:
257,58,38102,1,0,0:0:0:0:
257,58,38586,6,0,P|239:59|159:94,1,94.5000003604889
122,313,39070,2,0,P|148:262|261:201,1,189.000000720978
261,199,40038,5,0,0:0:0:0:
410,220,40280,1,0,0:0:0:0:
146,66,40522,1,0,0:0:0:0:
356,329,41006,2,0,P|299:333|189:268,1,189.000000720978
275,92,41732,1,0,0:0:0:0:
126,301,41974,1,0,0:0:0:0:
126,301,42034,1,0,0:0:0:0:
126,301,42941,5,0,0:0:0:0:
329,28,43183,1,0,0:0:0:0:
410,358,43425,5,0,0:0:0:0:
244,60,43667,1,0,0:0:0:0:
209,317,43908,5,0,0:0:0:0:
403,37,44150,1,0,0:0:0:0:
284,355,44392,5,0,0:0:0:0:
201,69,44634,1,0,0:0:0:0:
144,247,44876,2,0,L|232:207,1,94.5000003604889
342,74,45360,1,0,0:0:0:0:
101,121,45602,1,0,0:0:0:0:
415,184,45844,1,0,0:0:0:0:
415,184,46328,6,0,P|349:165|317:167,1,94.5000003604889
292,329,46811,2,0,P|247:333|195:311,1,94.5000003604889
219,199,47295,2,0,P|157:216|159:111,1,189.000000720978
144,119,48505,5,0,0:0:0:0:
190,250,48747,1,0,0:0:0:0:
239,47,48989,1,0,0:0:0:0:
267,322,49231,2,0,P|317:271|262:172,1,189.000000720978
273,175,50198,5,0,0:0:0:0:
79,82,50440,1,0,0:0:0:0:
243,265,50682,6,0,P|297:261|342:235,1,94.5000003604889
370,163,51166,2,0,P|321:119|210:146,1,189.000000720978
140,249,52376,1,0,0:0:0:0:
199,39,52618,1,0,0:0:0:0:
264,307,52860,1,0,0:0:0:0:
330,54,53101,2,0,P|378:122|297:149,1,189.000000720978
176,60,53827,5,0,0:0:0:0:
62,216,54069,2,0,P|117:251|162:254,1,94.5000003604889
176,60,54553,2,0,P|274:88|344:138,1,189.000000720978
185,231,55521,5,0,0:0:0:0:
133,55,55763,1,0,0:0:0:0:
319,283,56005,2,0,L|307:223,1,47.2500001802444
280,75,56488,2,0,P|210:89|137:189,1,189.000000720978
347,152,57214,1,0,0:0:0:0:
225,251,57456,2,0,P|214:192|112:109,1,189.000000720978
97,241,58424,5,0,0:0:0:0:
426,156,58666,1,0,0:0:0:0:
87,118,58908,5,0,0:0:0:0:
399,253,59150,1,0,0:0:0:0:
146,180,59391,5,0,0:0:0:0:
482,131,59633,1,0,0:0:0:0:
142,103,59875,5,0,0:0:0:0:
431,184,60117,1,0,0:0:0:0:
188,262,60359,2,0,L|265:202,1,94.5000003604889
368,118,60843,1,0,0:0:0:0:
166,57,61085,1,0,0:0:0:0:
345,285,61327,1,0,0:0:0:0:
