osu file format v14

[General]
AudioFilename: audio.mp3
AudioLeadIn: 0
PreviewTime: 28425
Countdown: 0
SampleSet: Normal
StackLeniency: 0.7
Mode: 0
LetterboxInBreaks: 0
WidescreenStoryboard: 1

[Editor]
Bookmarks: 35199,42941,58424
DistanceSpacing: 2.1
BeatDivisor: 8
GridSize: 32
TimelineZoom: 1.8

[Metadata]
Title:Weak
TitleUnicode:Weak
Artist:AJR
ArtistUnicode:AJR
Creator:Dohinkus
Version:Weaker
Source:
Tags:
BeatmapID:1810605
BeatmapSetID:865969

[Difficulty]
HPDrainRate:5
CircleSize:3.3
OverallDifficulty:6
ApproachRate:7.5
SliderMultiplier:1.4
SliderTickRate:1

[Events]
//Background and Video events
0,0,"AJR.png",0,0
//Break Periods
//Storyboard Layer 0 (Background)
//Storyboard Layer 1 (Fail)
//Storyboard Layer 2 (Pass)
//Storyboard Layer 3 (Foreground)
//Storyboard Sound Samples

[TimingPoints]
363,483.843653987275,4,1,0,100,1,0
30845,-74.0740740740741,4,1,0,100,0,0
31328,-74.0740740740741,4,1,0,100,0,1
46328,-74.0740740740741,4,1,0,100,0,0

[HitObjects]
330,246,363,6,0,P|298:242|262:231,1,70
136,145,846,1,0,0:0:0:0:
198,247,1330,1,0,0:0:0:0:
246,88,1632,1,0,0:0:0:0:
157,196,3024,5,0,0:0:0:0:
308,77,3266,1,0,0:0:0:0:
271,211,3507,1,0,0:0:0:0:
391,185,3749,2,0,P|362:161|333:153,1,35
190,104,4233,1,0,0:0:0:0:
157,249,5201,5,0,0:0:0:0:
270,94,5443,1,0,0:0:0:0:
271,219,5685,1,0,0:0:0:0:
173,111,5926,1,0,0:0:0:0:
352,138,6169,2,0,L|417:168,1,70
407,164,7620,6,0,L|398:179,1,17.5
297,261,8104,6,0,P|252:261|225:250,1,70
203,118,8588,2,0,P|250:111|277:122,1,70
374,203,9072,1,0,0:0:0:0:
235,192,9374,1,0,0:0:0:0:
235,192,10765,5,0,0:0:0:0:
334,238,11007,1,0,0:0:0:0:
234,95,11249,1,0,0:0:0:0:
347,147,11491,1,0,0:0:0:0:
221,261,11733,1,0,0:0:0:0:
120,129,11975,2,0,L|184:159,1,70
177,155,12942,5,0,0:0:0:0:
296,277,13184,1,0,0:0:0:0:
267,132,13426,1,0,0:0:0:0:
203,248,13668,1,0,0:0:0:0:
389,237,13910,2,0,L|326:207,1,70
331,212,15362,6,0,P|292:197|270:195,1,35
122,165,15845,6,0,P|166:188|216:191,2,70
240,92,16813,1,0,0:0:0:0:
338,221,17176,1,0,0:0:0:0:
338,221,17297,1,0,0:0:0:0:
190,205,17781,6,0,P|148:193|103:162,2,70
331,228,18749,1,0,0:0:0:0:
242,95,19111,1,0,0:0:0:0:
242,95,19232,1,0,0:0:0:0:
177,212,19716,5,0,0:0:0:0:
270,249,20019,2,0,P|296:230|295:154,1,105
260,85,20684,1,0,0:0:0:0:
140,199,21047,2,0,L|115:224,2,35
254,177,21531,2,0,L|306:202,2,52.5
180,268,22135,1,0,0:0:0:0:
54,246,22377,1,0,0:0:0:0:
103,134,22619,2,0,L|162:93,1,70
117,211,23103,2,0,L|157:257,1,52.5
272,305,23587,1,0,0:0:0:0:
364,217,23828,5,0,0:0:0:0:
242,183,24071,1,0,0:0:0:0:
326,127,24555,1,0,0:0:0:0:
210,245,24797,1,0,0:0:0:0:
210,245,26248,5,0,0:0:0:0:
219,126,26490,1,0,0:0:0:0:
297,264,26732,1,0,0:0:0:0:
164,190,26974,1,0,0:0:0:0:
300,115,27216,1,0,0:0:0:0:
406,222,27458,2,0,L|332:216,1,70
336,216,28425,5,0,0:0:0:0:
230,284,28667,1,0,0:0:0:0:
210,176,28909,2,0,L|274:134,1,70
283,150,29393,2,0,L|346:107,1,70
164,238,30603,5,0,0:0:0:0:
278,294,30845,2,0,P|295:288|361:237,1,94.5000003604889
324,98,31328,2,0,P|312:145|222:226,1,141.750000540733
251,213,32296,5,0,0:0:0:0:
384,183,32538,1,0,0:0:0:0:
272,121,32780,1,0,0:0:0:0:
335,279,33264,2,0,P|281:289|172:249,1,141.750000540733
121,175,33990,1,0,0:0:0:0:
222,276,34232,1,0,0:0:0:0:
222,276,35199,5,0,0:0:0:0:
291,88,35441,1,0,0:0:0:0:
308,267,35683,5,0,0:0:0:0:
153,131,35925,1,0,0:0:0:0:
242,280,36167,5,0,0:0:0:0:
238,98,36408,1,0,0:0:0:0:
322,249,36651,5,0,0:0:0:0:
215,139,36893,1,0,0:0:0:0:
240,230,37135,2,0,L|280:193,1,47.2500001802444
348,102,37618,1,0,0:0:0:0:
297,181,37860,1,0,0:0:0:0:
221,88,38102,1,0,0:0:0:0:
221,88,38586,6,0,P|237:83|321:86,1,94.5000003604889
365,212,39070,2,0,P|328:180|207:167,1,141.750000540733
238,160,40038,5,0,0:0:0:0:
119,149,40280,1,0,0:0:0:0:
188,230,40522,1,0,0:0:0:0:
196,326,41006,2,0,P|250:313|336:229,1,141.750000540733
212,119,41732,1,0,0:0:0:0:
345,170,41974,1,0,0:0:0:0:
345,170,42941,5,0,0:0:0:0:
177,117,43183,1,0,0:0:0:0:
186,300,43425,5,0,0:0:0:0:
239,116,43667,1,0,0:0:0:0:
307,248,43908,5,0,0:0:0:0:
137,147,44150,1,0,0:0:0:0:
264,284,44392,5,0,0:0:0:0:
270,122,44634,1,0,0:0:0:0:
336,196,44876,2,0,L|239:160,1,94.5000003604889
180,132,45360,1,0,0:0:0:0:
242,291,45602,1,0,0:0:0:0:
104,234,45844,1,0,0:0:0:0:
104,234,46328,6,0,P|161:198|192:190,1,94.5000003604889
187,284,46811,2,0,P|230:273|273:240,1,94.5000003604889
274,163,47295,2,0,P|337:157|308:78,1,141.750000540733
336,91,48505,5,0,0:0:0:0:
331,216,48747,1,0,0:0:0:0:
263,138,48989,1,0,0:0:0:0:
277,294,49231,2,0,P|217:270|244:177,1,141.750000540733
215,200,50198,5,0,0:0:0:0:
333,139,50440,1,0,0:0:0:0:
285,244,50682,6,0,P|233:257|186:250,1,94.5000003604889
141,204,51166,2,0,P|176:155|286:142,1,141.750000540733
377,200,52376,1,0,0:0:0:0:
270,99,52618,1,0,0:0:0:0:
247,197,52860,1,0,0:0:0:0:
151,107,53101,2,0,P|123:174|206:170,1,141.750000540733
296,66,53827,5,0,0:0:0:0:
393,124,54069,2,0,P|350:167|308:183,1,94.5000003604889
296,66,54553,2,0,P|212:116|159:176,1,141.750000540733
331,200,55521,5,0,0:0:0:0:
320,324,55763,1,0,0:0:0:0:
217,278,56005,2,0,L|207:176,1,94.5000003604889
203,109,56488,2,0,P|272:98|366:153,1,141.750000540733
160,187,57214,1,0,0:0:0:0:
299,227,57456,2,0,P|294:178|369:83,1,141.750000540733
349,189,58424,5,0,0:0:0:0:
155,204,58666,1,0,0:0:0:0:
331,100,58908,5,0,0:0:0:0:
188,265,59150,1,0,0:0:0:0:
312,156,59391,5,0,0:0:0:0:
121,199,59633,1,0,0:0:0:0:
299,103,59875,5,0,0:0:0:0:
165,219,60117,1,0,0:0:0:0:
304,224,60359,2,0,L|205:193,1,94.5000003604889
131,168,60843,1,0,0:0:0:0:
249,113,61085,1,0,0:0:0:0:
198,256,61327,1,0,0:0:0:0:
