osu file format v14

[General]
AudioFilename: audio.mp3
AudioLeadIn: 0
PreviewTime: -1
Countdown: 0
SampleSet: None
StackLeniency: 0.7
Mode: 1
LetterboxInBreaks: 0
WidescreenStoryboard: 1

[Editor]
Bookmarks: 179007
DistanceSpacing: 2.9
BeatDivisor: 4
GridSize: 32
TimelineZoom: 1.8

[Metadata]
Title:100 Bad Days
TitleUnicode:100 Bad Days
Artist:AJR
ArtistUnicode:AJR
Creator:zerth
Version:Oni
Source:
Tags:
BeatmapID:2237482
BeatmapSetID:1068775

[Difficulty]
HPDrainRate:6
CircleSize:2
OverallDifficulty:6
ApproachRate:10
SliderMultiplier:1.4
SliderTickRate:1

[Events]
//Background and Video events
0,0,"ajr.jpg",0,0
//Break Periods
//Storyboard Layer 0 (Background)
//Storyboard Layer 1 (Fail)
//Storyboard Layer 2 (Pass)
//Storyboard Layer 3 (Foreground)
//Storyboard Layer 4 (Overlay)
//Storyboard Sound Samples

[TimingPoints]
674.39293008969,416.666666666667,4,1,0,20,1,0
2341,-100,4,1,0,30,0,0
4007,-100,4,1,0,40,0,0
16507,-100,4,1,0,50,0,0
49841,-95.2380952380952,4,1,0,60,0,0
50049,-90.9090909090909,4,1,0,50,0,0
50466,-86.9565217391304,4,1,0,50,0,0
50674,-83.3333333333333,4,1,0,60,0,1
77341,-83.3333333333333,4,1,0,60,0,0
79632,-100,4,1,0,50,0,0
126507,-95.2380952380952,4,1,0,50,0,0
126715,-90.9090909090909,4,1,0,50,0,0
127132,-86.9565217391304,4,1,0,50,0,0
127340,-83.3333333333333,4,1,0,60,0,1
153382,-83.3333333333333,4,1,0,60,0,0
153799,-90.9090909090909,4,1,0,50,0,0
154007,-90.9090909090909,4,1,0,40,0,0
165674,-66.6666666666667,4,1,0,50,0,0
167341,-76.9230769230769,4,1,0,60,0,1
193591,-78.7401574803149,4,1,0,60,0,1
193799,-80,4,1,0,60,0,1
194007,-81.9672131147541,4,1,0,60,0,0
194216,-83.3333333333333,4,1,0,50,0,0
194424,-85.4700854700855,4,1,0,50,0,0
194841,-89.2857142857143,4,1,0,50,0,0

[HitObjects]
256,192,674,12,0,3591,0:0:0:0:
255,192,4007,5,0,0:0:0:0:
255,192,4424,1,0,0:0:0:0:
255,192,4632,1,8,0:0:0:0:
255,192,4736,1,8,0:0:0:0:
255,192,4841,1,8,0:0:0:0:
255,192,5049,1,0,0:0:0:0:
255,192,5257,1,8,0:0:0:0:
255,192,5466,1,0,0:0:0:0:
255,192,5674,1,8,0:0:0:0:
255,192,6091,1,8,0:0:0:0:
255,192,6507,1,8,0:0:0:0:
255,192,6924,1,8,0:0:0:0:
255,192,7132,1,0,0:0:0:0:
255,192,7341,1,0,0:0:0:0:
255,192,7757,1,0,0:0:0:0:
255,192,7966,1,8,0:0:0:0:
255,192,8070,1,8,0:0:0:0:
255,192,8174,1,8,0:0:0:0:
255,192,8382,1,0,0:0:0:0:
255,192,8591,1,8,0:0:0:0:
255,192,8799,1,0,0:0:0:0:
255,192,9007,1,8,0:0:0:0:
255,192,9424,1,8,0:0:0:0:
255,192,9841,1,8,0:0:0:0:
255,192,10257,1,8,0:0:0:0:
255,192,10466,1,0,0:0:0:0:
255,192,10674,1,0,0:0:0:0:
255,192,11091,1,0,0:0:0:0:
255,192,11299,1,0,0:0:0:0:
255,192,11507,1,8,0:0:0:0:
255,192,11611,1,8,0:0:0:0:
255,192,11716,1,0,0:0:0:0:
255,192,11924,1,8,0:0:0:0:
255,192,12132,1,0,0:0:0:0:
255,192,12341,1,0,0:0:0:0:
255,192,12757,1,8,0:0:0:0:
255,192,12966,1,0,0:0:0:0:
255,192,13174,1,8,0:0:0:0:
255,192,13591,1,0,0:0:0:0:
255,192,13799,1,0,0:0:0:0:
255,192,14007,1,0,0:0:0:0:
255,192,14424,1,0,0:0:0:0:
255,192,14841,1,8,0:0:0:0:
255,192,15049,1,0,0:0:0:0:
255,192,15257,1,8,0:0:0:0:
255,192,15674,1,0,0:0:0:0:
255,192,16091,1,0,0:0:0:0:
255,192,16507,1,12,0:0:0:0:
255,192,16716,1,4,0:0:0:0:
255,192,17132,1,12,0:0:0:0:
255,192,17341,1,4,0:0:0:0:
255,192,17757,1,8,0:0:0:0:
255,192,17966,1,8,0:0:0:0:
255,192,18070,1,0,0:0:0:0:
255,192,18174,1,8,0:0:0:0:
255,192,18382,1,0,0:0:0:0:
255,192,18591,1,8,0:0:0:0:
255,192,18799,1,0,0:0:0:0:
255,192,19007,1,8,0:0:0:0:
255,192,19111,1,8,0:0:0:0:
255,192,19216,1,8,0:0:0:0:
255,192,19424,1,8,0:0:0:0:
255,192,19841,1,8,0:0:0:0:
255,192,19945,1,8,0:0:0:0:
255,192,20049,1,0,0:0:0:0:
255,192,20257,1,8,0:0:0:0:
255,192,20466,1,8,0:0:0:0:
255,192,20674,1,0,0:0:0:0:
255,192,21091,1,0,0:0:0:0:
255,192,21299,1,8,0:0:0:0:
255,192,21403,1,0,0:0:0:0:
255,192,21507,1,8,0:0:0:0:
255,192,21716,1,0,0:0:0:0:
255,192,21924,1,8,0:0:0:0:
255,192,22132,1,0,0:0:0:0:
255,192,22341,1,0,0:0:0:0:
255,192,22445,1,0,0:0:0:0:
255,192,22549,1,8,0:0:0:0:
255,192,22757,1,0,0:0:0:0:
255,192,23174,1,8,0:0:0:0:
255,192,23278,1,8,0:0:0:0:
255,192,23382,1,0,0:0:0:0:
255,192,23591,1,8,0:0:0:0:
255,192,23799,1,8,0:0:0:0:
255,192,24007,1,0,0:0:0:0:
255,192,24424,1,0,0:0:0:0:
255,192,24841,1,8,0:0:0:0:
255,192,25049,1,0,0:0:0:0:
255,192,25257,1,8,0:0:0:0:
255,192,25466,1,8,0:0:0:0:
255,192,25674,1,0,0:0:0:0:
255,192,26091,1,8,0:0:0:0:
255,192,26299,1,0,0:0:0:0:
255,192,26507,1,8,0:0:0:0:
255,192,26924,1,0,0:0:0:0:
255,192,27132,1,0,0:0:0:0:
255,192,27341,1,8,0:0:0:0:
255,192,27757,1,0,0:0:0:0:
255,192,28174,1,8,0:0:0:0:
255,192,28382,1,0,0:0:0:0:
255,192,28591,1,8,0:0:0:0:
255,192,29007,1,0,0:0:0:0:
255,192,29216,1,8,0:0:0:0:
255,192,29424,1,0,0:0:0:0:
255,192,29632,1,0,0:0:0:0:
255,192,29841,1,8,0:0:0:0:
255,192,29945,1,8,0:0:0:0:
255,192,30049,1,0,0:0:0:0:
255,192,30257,1,8,0:0:0:0:
255,192,30361,1,8,0:0:0:0:
255,192,30466,1,0,0:0:0:0:
255,192,30674,1,8,0:0:0:0:
255,192,31091,1,8,0:0:0:0:
255,192,31299,1,0,0:0:0:0:
255,192,31507,1,8,0:0:0:0:
255,192,31611,1,8,0:0:0:0:
255,192,31716,1,0,0:0:0:0:
255,192,31820,1,8,0:0:0:0:
255,192,31924,1,0,0:0:0:0:
255,192,32341,1,0,0:0:0:0:
255,192,32757,1,0,0:0:0:0:
255,192,32966,1,0,0:0:0:0:
255,192,33174,1,8,0:0:0:0:
255,192,33382,1,0,0:0:0:0:
255,192,33591,1,8,0:0:0:0:
255,192,33799,1,8,0:0:0:0:
255,192,34007,1,0,0:0:0:0:
255,192,34424,1,0,0:0:0:0:
255,192,34632,1,0,0:0:0:0:
255,192,34841,1,8,0:0:0:0:
255,192,35049,1,0,0:0:0:0:
255,192,35257,1,8,0:0:0:0:
255,192,35674,1,0,0:0:0:0:
255,192,35882,1,8,0:0:0:0:
255,192,36091,1,0,0:0:0:0:
255,192,36299,1,0,0:0:0:0:
255,192,36507,1,8,0:0:0:0:
255,192,36611,1,8,0:0:0:0:
255,192,36716,1,0,0:0:0:0:
255,192,36924,1,8,0:0:0:0:
255,192,37028,1,8,0:0:0:0:
255,192,37132,1,0,0:0:0:0:
255,192,37341,1,8,0:0:0:0:
255,192,37757,1,8,0:0:0:0:
255,192,37966,1,0,0:0:0:0:
255,192,38174,1,8,0:0:0:0:
255,192,38278,1,8,0:0:0:0:
255,192,38382,1,0,0:0:0:0:
255,192,38486,1,8,0:0:0:0:
255,192,38591,1,0,0:0:0:0:
255,192,39007,1,0,0:0:0:0:
255,192,39424,1,0,0:0:0:0:
255,192,39841,1,8,0:0:0:0:
255,192,40049,1,0,0:0:0:0:
255,192,40257,1,8,0:0:0:0:
255,192,40466,1,8,0:0:0:0:
255,192,40674,1,0,0:0:0:0:
255,192,41091,1,8,0:0:0:0:
255,192,41299,1,0,0:0:0:0:
255,192,41507,1,8,0:0:0:0:
255,192,41716,1,0,0:0:0:0:
255,192,41924,1,8,0:0:0:0:
255,192,42757,1,4,0:0:0:0:
255,192,43174,1,4,0:0:0:0:
255,192,43591,1,4,0:0:0:0:
255,192,44007,1,8,0:0:0:0:
255,192,44632,1,8,0:0:0:0:
255,192,44841,1,0,0:0:0:0:
255,192,45257,1,8,0:0:0:0:
255,192,45882,1,8,0:0:0:0:
255,192,46091,1,0,0:0:0:0:
255,192,46507,1,8,0:0:0:0:
255,192,46924,1,8,0:0:0:0:
255,192,47132,1,8,0:0:0:0:
255,192,47236,1,8,0:0:0:0:
255,192,47341,1,8,0:0:0:0:
255,192,47966,1,8,0:0:0:0:
255,192,48174,1,0,0:0:0:0:
255,192,48591,1,8,0:0:0:0:
255,192,49841,1,8,0:0:0:0:
255,192,50049,1,0,0:0:0:0:
255,192,50153,1,0,0:0:0:0:
255,192,50257,1,0,0:0:0:0:
255,192,50466,1,4,0:0:0:0:
255,192,50674,1,12,0:0:0:0:
255,192,50882,1,0,0:0:0:0:
255,192,51091,1,0,0:0:0:0:
255,192,51195,1,0,0:0:0:0:
255,192,51299,1,8,0:0:0:0:
255,192,51507,1,8,0:0:0:0:
255,192,51924,1,8,0:0:0:0:
255,192,52132,1,0,0:0:0:0:
255,192,52341,1,8,0:0:0:0:
255,192,52445,1,8,0:0:0:0:
255,192,52549,1,0,0:0:0:0:
255,192,52757,1,8,0:0:0:0:
255,192,52966,1,0,0:0:0:0:
255,192,53070,1,0,0:0:0:0:
255,192,53174,1,8,0:0:0:0:
255,192,53382,1,8,0:0:0:0:
255,192,53799,1,0,0:0:0:0:
255,192,54007,1,8,0:0:0:0:
255,192,54216,1,8,0:0:0:0:
255,192,54424,1,0,0:0:0:0:
255,192,54528,1,0,0:0:0:0:
255,192,54632,1,8,0:0:0:0:
255,192,54736,1,0,0:0:0:0:
255,192,54841,1,8,0:0:0:0:
255,192,55049,1,0,0:0:0:0:
255,192,55257,1,8,0:0:0:0:
255,192,55466,1,8,0:0:0:0:
255,192,55570,1,0,0:0:0:0:
255,192,55674,1,8,0:0:0:0:
255,192,55882,1,8,0:0:0:0:
255,192,56091,1,8,0:0:0:0:
255,192,56299,1,0,0:0:0:0:
255,192,56507,1,8,0:0:0:0:
255,192,56716,1,0,0:0:0:0:
255,192,57132,1,0,0:0:0:0:
255,192,57341,1,12,0:0:0:0:
255,192,57757,1,0,0:0:0:0:
255,192,57861,1,0,0:0:0:0:
255,192,57966,1,8,0:0:0:0:
255,192,58174,1,8,0:0:0:0:
255,192,58382,1,8,0:0:0:0:
255,192,58591,1,0,0:0:0:0:
255,192,58799,1,8,0:0:0:0:
255,192,59216,1,0,0:0:0:0:
255,192,59424,1,8,0:0:0:0:
255,192,59528,1,0,0:0:0:0:
255,192,59632,1,0,0:0:0:0:
255,192,59841,1,8,0:0:0:0:
255,192,60257,1,0,0:0:0:0:
255,192,60674,1,12,0:0:0:0:
255,192,61091,1,0,0:0:0:0:
255,192,61195,1,0,0:0:0:0:
255,192,61299,1,8,0:0:0:0:
255,192,61507,1,8,0:0:0:0:
255,192,61716,1,8,0:0:0:0:
255,192,61924,1,0,0:0:0:0:
255,192,62132,1,8,0:0:0:0:
255,192,62549,1,8,0:0:0:0:
255,192,62757,1,0,0:0:0:0:
255,192,62861,1,0,0:0:0:0:
255,192,62966,1,0,0:0:0:0:
255,192,63174,1,8,0:0:0:0:
255,192,63382,1,4,0:0:0:0:
255,192,63591,1,4,0:0:0:0:
255,192,63799,1,4,0:0:0:0:
255,192,64007,1,12,0:0:0:0:
255,192,64424,1,8,0:0:0:0:
255,192,64528,1,8,0:0:0:0:
255,192,64632,1,8,0:0:0:0:
255,192,64736,1,8,0:0:0:0:
255,192,64841,1,8,0:0:0:0:
255,192,65257,1,12,0:0:0:0:
255,192,65466,1,0,0:0:0:0:
255,192,65674,1,0,0:0:0:0:
255,192,65882,1,8,0:0:0:0:
255,192,66091,1,0,0:0:0:0:
255,192,66299,1,0,0:0:0:0:
255,192,66507,1,8,0:0:0:0:
255,192,66716,1,0,0:0:0:0:
255,192,66924,1,0,0:0:0:0:
255,192,67132,1,0,0:0:0:0:
255,192,67341,1,12,0:0:0:0:
255,192,67757,1,8,0:0:0:0:
255,192,67861,1,8,0:0:0:0:
255,192,67966,1,8,0:0:0:0:
255,192,68070,1,8,0:0:0:0:
255,192,68174,1,8,0:0:0:0:
255,192,68591,1,12,0:0:0:0:
255,192,68799,1,0,0:0:0:0:
255,192,69007,1,0,0:0:0:0:
255,192,69216,1,8,0:0:0:0:
255,192,69424,1,0,0:0:0:0:
255,192,69632,1,0,0:0:0:0:
255,192,69841,1,8,0:0:0:0:
255,192,70049,1,0,0:0:0:0:
255,192,70257,1,0,0:0:0:0:
255,192,70466,1,0,0:0:0:0:
255,192,70674,1,12,0:0:0:0:
255,192,71091,1,8,0:0:0:0:
255,192,71195,1,8,0:0:0:0:
255,192,71299,1,8,0:0:0:0:
255,192,71403,1,8,0:0:0:0:
255,192,71507,1,8,0:0:0:0:
255,192,71716,1,0,0:0:0:0:
255,192,71924,1,8,0:0:0:0:
255,192,72132,1,8,0:0:0:0:
255,192,72236,1,0,0:0:0:0:
255,192,72341,1,0,0:0:0:0:
255,192,72757,1,8,0:0:0:0:
255,192,72966,1,0,0:0:0:0:
255,192,73174,1,8,0:0:0:0:
255,192,73382,1,0,0:0:0:0:
255,192,73486,1,0,0:0:0:0:
255,192,73591,1,0,0:0:0:0:
255,192,73799,1,0,0:0:0:0:
255,192,74007,1,12,0:0:0:0:
255,192,74424,1,8,0:0:0:0:
255,192,74528,1,8,0:0:0:0:
255,192,74632,1,8,0:0:0:0:
255,192,74736,1,8,0:0:0:0:
255,192,74841,1,8,0:0:0:0:
255,192,75049,1,0,0:0:0:0:
255,192,75257,1,8,0:0:0:0:
255,192,75466,1,8,0:0:0:0:
255,192,75570,1,8,0:0:0:0:
255,192,75674,1,0,0:0:0:0:
255,192,75778,1,0,0:0:0:0:
255,192,75882,1,8,0:0:0:0:
255,192,76091,1,0,0:0:0:0:
255,192,76299,1,0,0:0:0:0:
255,192,76403,1,0,0:0:0:0:
255,192,76507,1,8,0:0:0:0:
255,192,76716,1,8,0:0:0:0:
255,192,76924,1,0,0:0:0:0:
255,192,77132,1,0,0:0:0:0:
255,192,77236,1,0,0:0:0:0:
255,192,77341,1,0,0:0:0:0:
255,192,79632,1,4,0:0:0:0:
255,192,79841,1,12,0:0:0:0:
255,192,80049,1,4,0:0:0:0:
255,192,80466,1,4,0:0:0:0:
255,192,80674,1,4,0:0:0:0:
255,192,81091,1,8,0:0:0:0:
255,192,81299,1,0,0:0:0:0:
255,192,81403,1,0,0:0:0:0:
255,192,81507,1,8,0:0:0:0:
255,192,81716,1,0,0:0:0:0:
255,192,81924,1,8,0:0:0:0:
255,192,82132,1,0,0:0:0:0:
255,192,82341,1,8,0:0:0:0:
255,192,82549,1,0,0:0:0:0:
255,192,82757,1,8,0:0:0:0:
255,192,83174,1,8,0:0:0:0:
255,192,83591,1,0,0:0:0:0:
255,192,83799,1,0,0:0:0:0:
255,192,83903,1,0,0:0:0:0:
255,192,84007,1,8,0:0:0:0:
255,192,84216,1,0,0:0:0:0:
255,192,84424,1,8,0:0:0:0:
255,192,84632,1,0,0:0:0:0:
255,192,84841,1,8,0:0:0:0:
255,192,85049,1,8,0:0:0:0:
255,192,85257,1,8,0:0:0:0:
255,192,85466,1,0,0:0:0:0:
255,192,85674,1,8,0:0:0:0:
255,192,86091,1,8,0:0:0:0:
255,192,86507,1,8,0:0:0:0:
255,192,86716,1,0,0:0:0:0:
255,192,86924,1,0,0:0:0:0:
255,192,87132,1,0,0:0:0:0:
255,192,87236,1,0,0:0:0:0:
255,192,87341,1,8,0:0:0:0:
255,192,87757,1,8,0:0:0:0:
255,192,88174,1,8,0:0:0:0:
255,192,88382,1,0,0:0:0:0:
255,192,88591,1,0,0:0:0:0:
255,192,88799,1,0,0:0:0:0:
255,192,89007,1,8,0:0:0:0:
255,192,89424,1,8,0:0:0:0:
255,192,89841,1,8,0:0:0:0:
255,192,90257,1,8,0:0:0:0:
255,192,90466,1,0,0:0:0:0:
255,192,90674,1,0,0:0:0:0:
255,192,91091,1,8,0:0:0:0:
255,192,91507,1,8,0:0:0:0:
255,192,91716,1,0,0:0:0:0:
255,192,91924,1,8,0:0:0:0:
255,192,92341,1,8,0:0:0:0:
255,192,92757,1,4,0:0:0:0:
255,192,92966,1,4,0:0:0:0:
255,192,93174,1,12,0:0:0:0:
255,192,93382,1,4,0:0:0:0:
255,192,93591,1,12,0:0:0:0:
255,192,93799,1,12,0:0:0:0:
255,192,94007,1,4,0:0:0:0:
255,192,94424,1,8,0:0:0:0:
255,192,94632,1,0,0:0:0:0:
255,192,94736,1,0,0:0:0:0:
255,192,94841,1,8,0:0:0:0:
255,192,95049,1,0,0:0:0:0:
255,192,95257,1,8,0:0:0:0:
255,192,95466,1,0,0:0:0:0:
255,192,95674,1,8,0:0:0:0:
255,192,95882,1,8,0:0:0:0:
255,192,95986,1,0,0:0:0:0:
255,192,96091,1,8,0:0:0:0:
255,192,96299,1,0,0:0:0:0:
255,192,96507,1,8,0:0:0:0:
255,192,96924,1,8,0:0:0:0:
255,192,97132,1,8,0:0:0:0:
255,192,97341,1,0,0:0:0:0:
255,192,97549,1,8,0:0:0:0:
255,192,97757,1,0,0:0:0:0:
255,192,97966,1,8,0:0:0:0:
255,192,98070,1,0,0:0:0:0:
255,192,98174,1,8,0:0:0:0:
255,192,98382,1,0,0:0:0:0:
255,192,98591,1,8,0:0:0:0:
255,192,98799,1,0,0:0:0:0:
255,192,99007,1,0,0:0:0:0:
255,192,99111,1,0,0:0:0:0:
255,192,99216,1,8,0:0:0:0:
255,192,99424,1,0,0:0:0:0:
255,192,99632,1,0,0:0:0:0:
255,192,99841,1,8,0:0:0:0:
255,192,99945,1,8,0:0:0:0:
255,192,100049,1,0,0:0:0:0:
255,192,100257,1,8,0:0:0:0:
255,192,100466,1,8,0:0:0:0:
255,192,100674,1,0,0:0:0:0:
255,192,101091,1,0,0:0:0:0:
255,192,101299,1,8,0:0:0:0:
255,192,101507,1,8,0:0:0:0:
255,192,101716,1,0,0:0:0:0:
255,192,101924,1,8,0:0:0:0:
255,192,102132,1,8,0:0:0:0:
255,192,102341,1,0,0:0:0:0:
255,192,102757,1,8,0:0:0:0:
255,192,102966,1,0,0:0:0:0:
255,192,103174,1,8,0:0:0:0:
255,192,103591,1,0,0:0:0:0:
255,192,103799,1,0,0:0:0:0:
255,192,104007,1,8,0:0:0:0:
255,192,104424,1,0,0:0:0:0:
255,192,104841,1,8,0:0:0:0:
255,192,105049,1,0,0:0:0:0:
255,192,105257,1,8,0:0:0:0:
255,192,105674,1,8,0:0:0:0:
255,192,105882,1,8,0:0:0:0:
255,192,106091,1,0,0:0:0:0:
255,192,106299,1,0,0:0:0:0:
255,192,106507,1,8,0:0:0:0:
255,192,106611,1,8,0:0:0:0:
255,192,106716,1,0,0:0:0:0:
255,192,106924,1,8,0:0:0:0:
255,192,107028,1,8,0:0:0:0:
255,192,107132,1,0,0:0:0:0:
255,192,107341,1,8,0:0:0:0:
255,192,107757,1,8,0:0:0:0:
255,192,107966,1,0,0:0:0:0:
255,192,108174,1,8,0:0:0:0:
255,192,108278,1,8,0:0:0:0:
255,192,108382,1,0,0:0:0:0:
255,192,108486,1,8,0:0:0:0:
255,192,108591,1,0,0:0:0:0:
255,192,109007,1,0,0:0:0:0:
255,192,109216,1,8,0:0:0:0:
255,192,109424,1,0,0:0:0:0:
255,192,109632,1,0,0:0:0:0:
255,192,109736,1,0,0:0:0:0:
255,192,109841,1,8,0:0:0:0:
255,192,110049,1,0,0:0:0:0:
255,192,110257,1,8,0:0:0:0:
255,192,110466,1,8,0:0:0:0:
255,192,110674,1,0,0:0:0:0:
255,192,111091,1,0,0:0:0:0:
255,192,111299,1,0,0:0:0:0:
255,192,111403,1,0,0:0:0:0:
255,192,111507,1,8,0:0:0:0:
255,192,111716,1,0,0:0:0:0:
255,192,111924,1,8,0:0:0:0:
255,192,112341,1,8,0:0:0:0:
255,192,112549,1,8,0:0:0:0:
255,192,112757,1,0,0:0:0:0:
255,192,112966,1,0,0:0:0:0:
255,192,113174,1,8,0:0:0:0:
255,192,113278,1,8,0:0:0:0:
255,192,113382,1,0,0:0:0:0:
255,192,113591,1,8,0:0:0:0:
255,192,113695,1,8,0:0:0:0:
255,192,113799,1,0,0:0:0:0:
255,192,114007,1,8,0:0:0:0:
255,192,114424,1,8,0:0:0:0:
255,192,114632,1,0,0:0:0:0:
255,192,114841,1,8,0:0:0:0:
255,192,114945,1,8,0:0:0:0:
255,192,115049,1,0,0:0:0:0:
255,192,115153,1,8,0:0:0:0:
255,192,115257,1,0,0:0:0:0:
255,192,115674,1,0,0:0:0:0:
255,192,115882,1,8,0:0:0:0:
255,192,116091,1,0,0:0:0:0:
255,192,116299,1,0,0:0:0:0:
255,192,116403,1,0,0:0:0:0:
255,192,116507,1,8,0:0:0:0:
255,192,116716,1,0,0:0:0:0:
255,192,116924,1,8,0:0:0:0:
255,192,117132,1,8,0:0:0:0:
255,192,117341,1,0,0:0:0:0:
255,192,117757,1,8,0:0:0:0:
255,192,117966,1,0,0:0:0:0:
255,192,118174,1,8,0:0:0:0:
255,192,118382,1,0,0:0:0:0:
255,192,118591,1,8,0:0:0:0:
255,192,119424,1,4,0:0:0:0:
255,192,119841,1,4,0:0:0:0:
255,192,120257,1,4,0:0:0:0:
255,192,120674,1,8,0:0:0:0:
255,192,121299,1,8,0:0:0:0:
255,192,121507,1,0,0:0:0:0:
255,192,121924,1,8,0:0:0:0:
255,192,122549,1,8,0:0:0:0:
255,192,122757,1,0,0:0:0:0:
255,192,123174,1,8,0:0:0:0:
255,192,123591,1,8,0:0:0:0:
255,192,123799,1,8,0:0:0:0:
255,192,123903,1,8,0:0:0:0:
255,192,124007,1,8,0:0:0:0:
255,192,124632,1,8,0:0:0:0:
255,192,124841,1,0,0:0:0:0:
255,192,125257,1,8,0:0:0:0:
255,192,126507,1,8,0:0:0:0:
255,192,126716,1,0,0:0:0:0:
255,192,126820,1,0,0:0:0:0:
255,192,126924,1,0,0:0:0:0:
255,192,127132,1,4,0:0:0:0:
255,192,127341,1,12,0:0:0:0:
255,192,127549,1,0,0:0:0:0:
255,192,127757,1,0,0:0:0:0:
255,192,127861,1,0,0:0:0:0:
255,192,127966,1,8,0:0:0:0:
255,192,128174,1,8,0:0:0:0:
255,192,128591,1,8,0:0:0:0:
255,192,128799,1,0,0:0:0:0:
255,192,129007,1,8,0:0:0:0:
255,192,129111,1,8,0:0:0:0:
255,192,129216,1,0,0:0:0:0:
255,192,129424,1,8,0:0:0:0:
255,192,129632,1,0,0:0:0:0:
255,192,129736,1,0,0:0:0:0:
255,192,129841,1,8,0:0:0:0:
255,192,130049,1,8,0:0:0:0:
255,192,130257,1,0,0:0:0:0:
255,192,130466,1,0,0:0:0:0:
255,192,130570,1,0,0:0:0:0:
255,192,130674,1,8,0:0:0:0:
255,192,130882,1,8,0:0:0:0:
255,192,131091,1,0,0:0:0:0:
255,192,131195,1,0,0:0:0:0:
255,192,131299,1,8,0:0:0:0:
255,192,131403,1,0,0:0:0:0:
255,192,131507,1,8,0:0:0:0:
255,192,131716,1,0,0:0:0:0:
255,192,131924,1,8,0:0:0:0:
255,192,132028,1,8,0:0:0:0:
255,192,132132,1,0,0:0:0:0:
255,192,132236,1,0,0:0:0:0:
255,192,132341,1,8,0:0:0:0:
255,192,132549,1,8,0:0:0:0:
255,192,132653,1,8,0:0:0:0:
255,192,132757,1,0,0:0:0:0:
255,192,132966,1,0,0:0:0:0:
255,192,133174,1,8,0:0:0:0:
255,192,133382,1,0,0:0:0:0:
255,192,133799,1,0,0:0:0:0:
255,192,134007,1,12,0:0:0:0:
255,192,134424,1,0,0:0:0:0:
255,192,134528,1,0,0:0:0:0:
255,192,134632,1,8,0:0:0:0:
255,192,134841,1,8,0:0:0:0:
255,192,135049,1,8,0:0:0:0:
255,192,135257,1,0,0:0:0:0:
255,192,135466,1,8,0:0:0:0:
255,192,135674,1,0,0:0:0:0:
255,192,135882,1,0,0:0:0:0:
255,192,136091,1,8,0:0:0:0:
255,192,136195,1,0,0:0:0:0:
255,192,136299,1,0,0:0:0:0:
255,192,136507,1,8,0:0:0:0:
255,192,136716,1,0,0:0:0:0:
255,192,136924,1,0,0:0:0:0:
255,192,137132,1,0,0:0:0:0:
255,192,137236,1,0,0:0:0:0:
255,192,137341,1,12,0:0:0:0:
255,192,137757,1,0,0:0:0:0:
255,192,137861,1,0,0:0:0:0:
255,192,137966,1,8,0:0:0:0:
255,192,138174,1,8,0:0:0:0:
255,192,138382,1,8,0:0:0:0:
255,192,138591,1,0,0:0:0:0:
255,192,138799,1,8,0:0:0:0:
255,192,139007,1,0,0:0:0:0:
255,192,139216,1,8,0:0:0:0:
255,192,139424,1,0,0:0:0:0:
255,192,139528,1,0,0:0:0:0:
255,192,139632,1,0,0:0:0:0:
255,192,139841,1,8,0:0:0:0:
255,192,140049,1,4,0:0:0:0:
255,192,140257,1,4,0:0:0:0:
255,192,140466,1,4,0:0:0:0:
255,192,140674,1,12,0:0:0:0:
255,192,141091,1,8,0:0:0:0:
255,192,141195,1,8,0:0:0:0:
255,192,141299,1,8,0:0:0:0:
255,192,141403,1,8,0:0:0:0:
255,192,141507,1,8,0:0:0:0:
255,192,141924,1,12,0:0:0:0:
255,192,142132,1,0,0:0:0:0:
255,192,142341,1,0,0:0:0:0:
255,192,142549,1,8,0:0:0:0:
255,192,142757,1,0,0:0:0:0:
255,192,142966,1,0,0:0:0:0:
255,192,143174,1,8,0:0:0:0:
255,192,143382,1,0,0:0:0:0:
255,192,143591,1,0,0:0:0:0:
255,192,143799,1,0,0:0:0:0:
255,192,144007,1,12,0:0:0:0:
255,192,144424,1,8,0:0:0:0:
255,192,144528,1,8,0:0:0:0:
255,192,144632,1,8,0:0:0:0:
255,192,144736,1,8,0:0:0:0:
255,192,144841,1,8,0:0:0:0:
255,192,145257,1,12,0:0:0:0:
255,192,145466,1,0,0:0:0:0:
255,192,145674,1,0,0:0:0:0:
255,192,145882,1,8,0:0:0:0:
255,192,146091,1,0,0:0:0:0:
255,192,146299,1,0,0:0:0:0:
255,192,146507,1,8,0:0:0:0:
255,192,146716,1,0,0:0:0:0:
255,192,146924,1,0,0:0:0:0:
255,192,147132,1,0,0:0:0:0:
255,192,147341,1,12,0:0:0:0:
255,192,147757,1,8,0:0:0:0:
255,192,147861,1,8,0:0:0:0:
255,192,147966,1,8,0:0:0:0:
255,192,148070,1,8,0:0:0:0:
255,192,148174,1,8,0:0:0:0:
255,192,148382,1,0,0:0:0:0:
255,192,148591,1,8,0:0:0:0:
255,192,148799,1,8,0:0:0:0:
255,192,148903,1,0,0:0:0:0:
255,192,149007,1,0,0:0:0:0:
255,192,149424,1,8,0:0:0:0:
255,192,149632,1,0,0:0:0:0:
255,192,149841,1,8,0:0:0:0:
255,192,150049,1,0,0:0:0:0:
255,192,150153,1,0,0:0:0:0:
255,192,150257,1,0,0:0:0:0:
255,192,150466,1,0,0:0:0:0:
255,192,150674,1,12,0:0:0:0:
255,192,151091,1,8,0:0:0:0:
255,192,151195,1,8,0:0:0:0:
255,192,151299,1,8,0:0:0:0:
255,192,151403,1,8,0:0:0:0:
255,192,151507,1,8,0:0:0:0:
255,192,151716,1,0,0:0:0:0:
255,192,151924,1,8,0:0:0:0:
255,192,152132,1,8,0:0:0:0:
255,192,152236,1,8,0:0:0:0:
255,192,152341,1,0,0:0:0:0:
255,192,152445,1,0,0:0:0:0:
255,192,152549,1,8,0:0:0:0:
255,192,152757,1,0,0:0:0:0:
255,192,152966,1,0,0:0:0:0:
255,192,153070,1,0,0:0:0:0:
255,192,153174,1,8,0:0:0:0:
255,192,153382,1,8,0:0:0:0:
255,192,153799,1,0,0:0:0:0:
255,192,154007,1,8,0:0:0:0:
255,192,154111,1,0,0:0:0:0:
255,192,154320,1,8,0:0:0:0:
255,192,154528,1,0,0:0:0:0:
255,192,154632,1,0,0:0:0:0:
255,192,154736,1,0,0:0:0:0:
255,192,154841,1,8,0:0:0:0:
255,192,155049,1,0,0:0:0:0:
255,192,155257,1,0,0:0:0:0:
255,192,155674,1,0,0:0:0:0:
255,192,155778,1,0,0:0:0:0:
255,192,155986,1,8,0:0:0:0:
255,192,156195,1,0,0:0:0:0:
255,192,156299,1,0,0:0:0:0:
255,192,156403,1,0,0:0:0:0:
255,192,156507,1,8,0:0:0:0:
255,192,156716,1,0,0:0:0:0:
255,192,156924,1,0,0:0:0:0:
255,192,157341,1,8,0:0:0:0:
255,192,157445,1,0,0:0:0:0:
255,192,157653,1,8,0:0:0:0:
255,192,157861,1,0,0:0:0:0:
255,192,157966,1,0,0:0:0:0:
255,192,158070,1,0,0:0:0:0:
255,192,158174,1,8,0:0:0:0:
255,192,158382,1,0,0:0:0:0:
255,192,158591,1,0,0:0:0:0:
255,192,159007,1,0,0:0:0:0:
255,192,159111,1,0,0:0:0:0:
255,192,159320,1,8,0:0:0:0:
255,192,159528,1,0,0:0:0:0:
255,192,159632,1,0,0:0:0:0:
255,192,159736,1,0,0:0:0:0:
255,192,159841,1,8,0:0:0:0:
255,192,160049,1,0,0:0:0:0:
255,192,160257,1,0,0:0:0:0:
255,192,160674,1,8,0:0:0:0:
255,192,160778,1,0,0:0:0:0:
255,192,160986,1,8,0:0:0:0:
255,192,161195,1,0,0:0:0:0:
255,192,161299,1,0,0:0:0:0:
255,192,161403,1,0,0:0:0:0:
255,192,161507,1,8,0:0:0:0:
255,192,161716,1,0,0:0:0:0:
255,192,161924,1,8,0:0:0:0:
255,192,162341,1,8,0:0:0:0:
255,192,162445,1,0,0:0:0:0:
255,192,162653,1,8,0:0:0:0:
255,192,162861,1,0,0:0:0:0:
255,192,162966,1,0,0:0:0:0:
255,192,163070,1,0,0:0:0:0:
255,192,163174,1,8,0:0:0:0:
255,192,163382,1,0,0:0:0:0:
255,192,163591,1,8,0:0:0:0:
255,192,164007,1,8,0:0:0:0:
255,192,164111,1,0,0:0:0:0:
255,192,164320,1,8,0:0:0:0:
255,192,164528,1,0,0:0:0:0:
255,192,164632,1,0,0:0:0:0:
255,192,164736,1,0,0:0:0:0:
255,192,164841,1,8,0:0:0:0:
255,192,165049,1,0,0:0:0:0:
255,192,165257,1,8,0:0:0:0:
46,99,165674,2,4,B|108:112|128:228|128:228|189:184|188:89|188:89|254:121|259:227|259:227|319:128|376:114,1,630.000024032594
255,192,167341,5,8,0:0:0:0:
255,192,167445,1,0,0:0:0:0:
255,192,167653,1,8,0:0:0:0:
255,192,167861,1,0,0:0:0:0:
255,192,167966,1,0,0:0:0:0:
255,192,168070,1,0,0:0:0:0:
255,192,168174,1,8,0:0:0:0:
255,192,168382,1,0,0:0:0:0:
255,192,168591,1,8,0:0:0:0:
255,192,168799,1,0,0:0:0:0:
255,192,169007,1,0,0:0:0:0:
255,192,169111,1,8,0:0:0:0:
255,192,169320,1,8,0:0:0:0:
255,192,169528,1,0,0:0:0:0:
255,192,169632,1,0,0:0:0:0:
255,192,169736,1,0,0:0:0:0:
255,192,169841,1,8,0:0:0:0:
255,192,170049,1,0,0:0:0:0:
255,192,170257,1,0,0:0:0:0:
255,192,170466,1,0,0:0:0:0:
255,192,170674,1,8,0:0:0:0:
255,192,170778,1,0,0:0:0:0:
255,192,170986,1,8,0:0:0:0:
255,192,171194,1,0,0:0:0:0:
255,192,171299,1,0,0:0:0:0:
255,192,171403,1,0,0:0:0:0:
255,192,171507,1,8,0:0:0:0:
255,192,171715,1,0,0:0:0:0:
255,192,171924,1,8,0:0:0:0:
255,192,172132,1,0,0:0:0:0:
255,192,172340,1,0,0:0:0:0:
255,192,172444,1,8,0:0:0:0:
255,192,172653,1,8,0:0:0:0:
255,192,172861,1,0,0:0:0:0:
255,192,172965,1,0,0:0:0:0:
255,192,173069,1,0,0:0:0:0:
255,192,173174,1,8,0:0:0:0:
255,192,173382,1,0,0:0:0:0:
255,192,173590,1,0,0:0:0:0:
255,192,174007,1,8,0:0:0:0:
255,192,174111,1,0,0:0:0:0:
255,192,174319,1,8,0:0:0:0:
255,192,174527,1,0,0:0:0:0:
255,192,174632,1,0,0:0:0:0:
255,192,174736,1,0,0:0:0:0:
255,192,174840,1,8,0:0:0:0:
255,192,175048,1,0,0:0:0:0:
255,192,175257,1,8,0:0:0:0:
255,192,175466,1,0,0:0:0:0:
255,192,175673,1,0,0:0:0:0:
255,192,175777,1,8,0:0:0:0:
255,192,175986,1,8,0:0:0:0:
255,192,176194,1,0,0:0:0:0:
255,192,176298,1,0,0:0:0:0:
255,192,176402,1,0,0:0:0:0:
255,192,176507,1,8,0:0:0:0:
255,192,176715,1,0,0:0:0:0:
255,192,176923,1,0,0:0:0:0:
255,192,177132,1,0,0:0:0:0:
255,192,177341,1,8,0:0:0:0:
255,192,177445,1,0,0:0:0:0:
255,192,177653,1,8,0:0:0:0:
255,192,177861,1,0,0:0:0:0:
255,192,177966,1,0,0:0:0:0:
255,192,178070,1,0,0:0:0:0:
255,192,178174,1,8,0:0:0:0:
255,192,178382,1,0,0:0:0:0:
255,192,178591,1,8,0:0:0:0:
255,192,178799,1,0,0:0:0:0:
255,192,179007,1,0,0:0:0:0:
255,192,179111,1,8,0:0:0:0:
255,192,179320,1,8,0:0:0:0:
255,192,179528,1,0,0:0:0:0:
255,192,179632,1,0,0:0:0:0:
255,192,179736,1,0,0:0:0:0:
255,192,179841,1,8,0:0:0:0:
255,192,180257,1,12,0:0:0:0:
255,192,180466,1,4,0:0:0:0:
255,192,180674,1,12,0:0:0:0:
255,192,180882,1,8,0:0:0:0:
255,192,180986,1,8,0:0:0:0:
255,192,181091,1,0,0:0:0:0:
255,192,181195,1,8,0:0:0:0:
255,192,181299,1,0,0:0:0:0:
255,192,181403,1,0,0:0:0:0:
255,192,181507,1,8,0:0:0:0:
255,192,181716,1,0,0:0:0:0:
255,192,181820,1,0,0:0:0:0:
255,192,181924,1,8,0:0:0:0:
255,192,182132,1,0,0:0:0:0:
255,192,182341,1,8,0:0:0:0:
255,192,182445,1,8,0:0:0:0:
255,192,182549,1,0,0:0:0:0:
255,192,182757,1,8,0:0:0:0:
255,192,182861,1,8,0:0:0:0:
255,192,182966,1,0,0:0:0:0:
255,192,183070,1,0,0:0:0:0:
255,192,183174,1,8,0:0:0:0:
255,192,183382,1,0,0:0:0:0:
255,192,183591,1,0,0:0:0:0:
255,192,183799,1,0,0:0:0:0:
255,192,183903,1,0,0:0:0:0:
255,192,184007,1,8,0:0:0:0:
255,192,184216,1,8,0:0:0:0:
255,192,184424,1,0,0:0:0:0:
255,192,184528,1,0,0:0:0:0:
255,192,184632,1,8,0:0:0:0:
255,192,184736,1,0,0:0:0:0:
255,192,184841,1,8,0:0:0:0:
255,192,185049,1,0,0:0:0:0:
255,192,185257,1,8,0:0:0:0:
255,192,185361,1,8,0:0:0:0:
255,192,185466,1,0,0:0:0:0:
255,192,185570,1,0,0:0:0:0:
255,192,185674,1,8,0:0:0:0:
255,192,185882,1,8,0:0:0:0:
255,192,185986,1,8,0:0:0:0:
255,192,186091,1,0,0:0:0:0:
255,192,186299,1,0,0:0:0:0:
255,192,186507,1,8,0:0:0:0:
255,192,186716,1,0,0:0:0:0:
255,192,186924,1,0,0:0:0:0:
255,192,187132,1,0,0:0:0:0:
255,192,187236,1,0,0:0:0:0:
255,192,187341,1,12,0:0:0:0:
255,192,187757,1,0,0:0:0:0:
255,192,187861,1,0,0:0:0:0:
255,192,187966,1,8,0:0:0:0:
255,192,188174,1,8,0:0:0:0:
255,192,188382,1,8,0:0:0:0:
255,192,188486,1,8,0:0:0:0:
255,192,188591,1,0,0:0:0:0:
255,192,188799,1,8,0:0:0:0:
255,192,188903,1,0,0:0:0:0:
255,192,189007,1,8,0:0:0:0:
255,192,189216,1,8,0:0:0:0:
255,192,189424,1,0,0:0:0:0:
255,192,189528,1,0,0:0:0:0:
255,192,189632,1,0,0:0:0:0:
255,192,189841,1,8,0:0:0:0:
255,192,190049,1,0,0:0:0:0:
255,192,190257,1,0,0:0:0:0:
255,192,190466,1,0,0:0:0:0:
255,192,190570,1,0,0:0:0:0:
255,192,190674,1,12,0:0:0:0:
255,192,191091,1,0,0:0:0:0:
255,192,191195,1,0,0:0:0:0:
255,192,191299,1,8,0:0:0:0:
255,192,191507,1,8,0:0:0:0:
255,192,191716,1,8,0:0:0:0:
255,192,191820,1,8,0:0:0:0:
255,192,191924,1,8,0:0:0:0:
255,192,192132,1,8,0:0:0:0:
255,192,192236,1,8,0:0:0:0:
255,192,192341,1,0,0:0:0:0:
255,192,192549,1,8,0:0:0:0:
255,192,192757,1,0,0:0:0:0:
255,192,192861,1,0,0:0:0:0:
255,192,192966,1,0,0:0:0:0:
255,192,193174,1,8,0:0:0:0:
255,192,193382,1,0,0:0:0:0:
255,192,193591,1,8,0:0:0:0:
255,192,193799,1,0,0:0:0:0:
255,192,194007,1,8,0:0:0:0:
255,192,194216,1,0,0:0:0:0:
255,192,194424,1,0,0:0:0:0:
255,192,194528,1,0,0:0:0:0:
255,192,194632,1,0,0:0:0:0:
255,192,194841,1,8,0:0:0:0:
255,192,195257,1,8,0:0:0:0:
255,192,195466,1,0,0:0:0:0:
255,192,195674,1,0,0:0:0:0:
255,192,195882,1,8,0:0:0:0:
255,192,196091,1,0,0:0:0:0:
255,192,196299,1,8,0:0:0:0:
255,192,196403,1,8,0:0:0:0:
255,192,196507,1,8,0:0:0:0:
255,192,196716,1,0,0:0:0:0:
255,192,197132,1,8,0:0:0:0:
255,192,197341,1,0,0:0:0:0:
255,192,197549,1,8,0:0:0:0:
255,192,197757,1,0,0:0:0:0:
255,192,197861,1,0,0:0:0:0:
255,192,197965,1,0,0:0:0:0:
255,192,198174,1,8,0:0:0:0:
255,192,198382,1,0,0:0:0:0:
255,192,198591,1,8,0:0:0:0:
255,192,198799,1,8,0:0:0:0:
255,192,199007,1,0,0:0:0:0:
255,192,199216,1,8,0:0:0:0:
255,192,199320,1,8,0:0:0:0:
255,192,199424,1,8,0:0:0:0:
255,192,199632,1,0,0:0:0:0:
255,192,199841,1,8,0:0:0:0:
255,192,200049,1,0,0:0:0:0:
255,192,200466,1,0,0:0:0:0:
255,192,200674,1,8,0:0:0:0:
255,192,201091,1,8,0:0:0:0:
255,192,201299,1,0,0:0:0:0:
255,192,201507,1,8,0:0:0:0:
255,192,201716,1,8,0:0:0:0:
255,192,201924,1,0,0:0:0:0:
255,192,202132,1,8,0:0:0:0:
255,192,202757,1,8,0:0:0:0:
255,192,202966,1,0,0:0:0:0:
255,192,203174,1,0,0:0:0:0:
255,192,203591,1,0,0:0:0:0:
255,192,204007,1,0,0:0:0:0:
255,192,204424,1,8,0:0:0:0:
255,192,204632,1,0,0:0:0:0:
255,192,204840,1,8,0:0:0:0:
255,192,205049,1,8,0:0:0:0:
255,192,205257,1,0,0:0:0:0:
255,192,205465,1,8,0:0:0:0:
255,192,205882,1,0,0:0:0:0:
255,192,206091,1,8,0:0:0:0:
255,192,206300,1,0,0:0:0:0:
255,192,206508,1,0,0:0:0:0:
255,192,206716,1,0,0:0:0:0:
255,192,206925,1,8,0:0:0:0:
255,192,207132,1,0,0:0:0:0:
