osu file format v14

[General]
AudioFilename: audio.mp3
AudioLeadIn: 0
PreviewTime: -1
Countdown: 3
SampleSet: None
StackLeniency: 0.7
Mode: 3
LetterboxInBreaks: 0
CountdownOffset: 3
SpecialStyle: 0
WidescreenStoryboard: 0

[Editor]
DistanceSpacing: 0.6
BeatDivisor: 16
GridSize: 16
TimelineZoom: 0.8000001

[Metadata]
Title:Reality breaking
TitleUnicode:Reality breaking
Artist:AJPlayz
ArtistUnicode:AJPlayz
Creator:AJPlayz_Osu
Version:Hard
Source:
Tags:Made by AJPlayz
BeatmapID:4556646
BeatmapSetID:2160795

[Difficulty]
HPDrainRate:1
CircleSize:4
OverallDifficulty:10
ApproachRate:5
SliderMultiplier:1.4
SliderTickRate:4

[Events]
//Background and Video events
//Break Periods
//Storyboard Layer 0 (Background)
//Storyboard Layer 1 (Fail)
//Storyboard Layer 2 (Pass)
//Storyboard Layer 3 (Foreground)
//Storyboard Layer 4 (Overlay)
//Storyboard Sound Samples

[TimingPoints]
0,500,4,1,0,100,1,0

[HitObjects]
64,192,16750,128,0,18625:0:0:0:0:
192,192,17625,1,0,0:0:0:0:
448,192,18625,128,0,20125:0:0:0:0:
192,192,19500,1,0,0:0:0:0:
64,192,20250,128,0,22250:0:0:0:0:
192,192,21500,1,0,0:0:0:0:
448,192,22375,128,0,24125:0:0:0:0:
320,192,23250,1,0,0:0:0:0:
64,192,24250,128,0,26000:0:0:0:0:
192,192,25125,1,0,0:0:0:0:
448,192,26125,128,0,27875:0:0:0:0:
320,192,27000,1,0,0:0:0:0:
64,192,28000,128,0,30750:0:0:0:0:
448,192,28000,128,0,30750:0:0:0:0:
320,192,28875,1,0,0:0:0:0:
192,192,28875,1,0,0:0:0:0:
320,192,30750,1,0,0:0:0:0:
192,192,30750,1,0,0:0:0:0:
448,192,30875,1,0,0:0:0:0:
320,192,30875,1,0,0:0:0:0:
192,192,30875,1,0,0:0:0:0:
320,192,31000,1,0,0:0:0:0:
192,192,31000,1,0,0:0:0:0:
64,192,31000,1,0,0:0:0:0:
64,192,31125,1,0,0:0:0:0:
192,192,31125,1,0,0:0:0:0:
448,192,31125,1,0,0:0:0:0:
320,192,31250,1,0,0:0:0:0:
448,192,31250,1,0,0:0:0:0:
192,192,31250,1,0,0:0:0:0:
64,192,31375,1,0,0:0:0:0:
192,192,31375,1,0,0:0:0:0:
320,192,31375,1,0,0:0:0:0:
64,192,31718,1,0,0:0:0:0:
192,192,31781,1,0,0:0:0:0:
192,192,31906,1,0,0:0:0:0:
320,192,32031,1,0,0:0:0:0:
320,192,32093,1,0,0:0:0:0:
320,192,32156,1,0,0:0:0:0:
192,192,32281,1,0,0:0:0:0:
64,192,32375,1,0,0:0:0:0:
192,192,32500,1,0,0:0:0:0:
320,192,32625,1,0,0:0:0:0:
192,192,32750,1,0,0:0:0:0:
64,192,32875,1,0,0:0:0:0:
192,192,32968,1,0,0:0:0:0:
320,192,33062,1,0,0:0:0:0:
448,192,33062,1,0,0:0:0:0:
64,192,33187,1,0,0:0:0:0:
192,192,33250,1,0,0:0:0:0:
192,192,33312,1,0,0:0:0:0:
320,192,33343,1,0,0:0:0:0:
448,192,33343,1,0,0:0:0:0:
448,192,33468,1,0,0:0:0:0:
320,192,33562,1,0,0:0:0:0:
192,192,33687,1,0,0:0:0:0:
448,192,33718,1,0,0:0:0:0:
448,192,33750,1,0,0:0:0:0:
64,192,33750,128,0,33968:0:0:0:0:
192,192,33781,1,0,0:0:0:0:
448,192,33781,1,0,0:0:0:0:
448,192,33812,1,0,0:0:0:0:
320,192,33812,1,0,0:0:0:0:
448,192,33843,1,0,0:0:0:0:
448,192,33906,1,0,0:0:0:0:
320,192,33968,1,0,0:0:0:0:
320,192,34000,1,0,0:0:0:0:
320,192,34031,1,0,0:0:0:0:
64,192,34062,1,0,0:0:0:0:
192,192,34093,1,0,0:0:0:0:
64,192,34093,1,0,0:0:0:0:
64,192,34156,1,0,0:0:0:0:
64,192,34187,1,0,0:0:0:0:
192,192,34218,1,0,0:0:0:0:
320,192,34250,1,0,0:0:0:0:
448,192,34343,1,0,0:0:0:0:
320,192,34406,1,0,0:0:0:0:
192,192,34406,1,0,0:0:0:0:
320,192,34468,1,0,0:0:0:0:
192,192,34468,1,0,0:0:0:0:
192,192,34531,1,0,0:0:0:0:
320,192,34531,1,0,0:0:0:0:
192,192,34593,1,0,0:0:0:0:
320,192,34625,1,0,0:0:0:0:
320,192,34687,1,0,0:0:0:0:
192,192,34687,1,0,0:0:0:0:
192,192,34718,1,0,0:0:0:0:
320,192,34750,1,0,0:0:0:0:
192,192,34781,1,0,0:0:0:0:
320,192,34781,1,0,0:0:0:0:
192,192,34843,1,0,0:0:0:0:
320,192,34843,1,0,0:0:0:0:
192,192,34875,1,0,0:0:0:0:
192,192,34906,1,0,0:0:0:0:
320,192,34906,1,0,0:0:0:0:
192,192,34937,1,0,0:0:0:0:
320,192,34968,1,0,0:0:0:0:
192,192,35000,1,0,0:0:0:0:
320,192,35000,1,0,0:0:0:0:
320,192,35062,1,0,0:0:0:0:
192,192,35093,1,0,0:0:0:0:
320,192,35093,1,0,0:0:0:0:
192,192,35125,1,0,0:0:0:0:
320,192,35156,1,0,0:0:0:0:
192,192,35156,1,0,0:0:0:0:
192,192,35187,1,0,0:0:0:0:
320,192,35218,1,0,0:0:0:0:
192,192,35218,1,0,0:0:0:0:
192,192,35250,1,0,0:0:0:0:
192,192,35281,1,0,0:0:0:0:
320,192,35281,1,0,0:0:0:0:
192,192,35468,1,0,0:0:0:0:
448,192,35625,1,0,0:0:0:0:
448,192,35687,1,0,0:0:0:0:
192,192,35812,1,0,0:0:0:0:
192,192,35875,1,0,0:0:0:0:
192,192,35937,128,0,36062:0:0:0:0:
192,192,36218,1,0,0:0:0:0:
192,192,36312,1,0,0:0:0:0:
320,192,36343,1,0,0:0:0:0:
320,192,36437,1,0,0:0:0:0:
320,192,36531,1,0,0:0:0:0:
64,192,36625,1,0,0:0:0:0:
192,192,36687,1,0,0:0:0:0:
320,192,36718,1,0,0:0:0:0:
448,192,36781,1,0,0:0:0:0:
448,192,36843,1,0,0:0:0:0:
192,192,37000,1,0,0:0:0:0:
192,192,37125,1,0,0:0:0:0:
448,192,37187,1,0,0:0:0:0:
320,192,37312,1,0,0:0:0:0:
320,192,37406,1,0,0:0:0:0:
64,192,37531,1,0,0:0:0:0:
192,192,37593,1,0,0:0:0:0:
448,192,37687,1,0,0:0:0:0:
320,192,37750,1,0,0:0:0:0:
192,192,37812,1,0,0:0:0:0:
192,192,37875,1,0,0:0:0:0:
320,192,37937,1,0,0:0:0:0:
448,192,38031,1,0,0:0:0:0:
192,192,38093,1,0,0:0:0:0:
448,192,38156,1,0,0:0:0:0:
320,192,38218,1,0,0:0:0:0:
192,192,38281,1,0,0:0:0:0:
192,192,38312,1,0,0:0:0:0:
192,192,38343,1,0,0:0:0:0:
192,192,38375,1,0,0:0:0:0:
192,192,38406,1,0,0:0:0:0:
448,192,38437,128,0,38593:0:0:0:0:
192,192,38625,1,0,0:0:0:0:
192,192,38687,1,0,0:0:0:0:
320,192,38781,1,0,0:0:0:0:
448,192,38843,1,0,0:0:0:0:
448,192,38906,1,0,0:0:0:0:
320,192,39000,1,0,0:0:0:0:
192,192,39000,1,0,0:0:0:0:
192,192,39062,1,0,0:0:0:0:
320,192,39093,1,0,0:0:0:0:
64,192,39125,128,0,39593:0:0:0:0:
192,192,39156,1,0,0:0:0:0:
320,192,39187,1,0,0:0:0:0:
320,192,39250,1,0,0:0:0:0:
448,192,39250,1,0,0:0:0:0:
192,192,39250,1,0,0:0:0:0:
192,192,39281,1,0,0:0:0:0:
320,192,39281,1,0,0:0:0:0:
448,192,39343,1,0,0:0:0:0:
448,192,39375,1,0,0:0:0:0:
320,192,39375,1,0,0:0:0:0:
448,192,39406,1,0,0:0:0:0:
192,192,39406,1,0,0:0:0:0:
448,192,39437,1,0,0:0:0:0:
320,192,39437,1,0,0:0:0:0:
320,192,39500,1,0,0:0:0:0:
192,192,39500,1,0,0:0:0:0:
448,192,39531,1,0,0:0:0:0:
192,192,39968,1,0,0:0:0:0:
192,192,40125,1,0,0:0:0:0:
192,192,40281,1,0,0:0:0:0:
192,192,40406,1,0,0:0:0:0:
192,192,40531,1,0,0:0:0:0:
64,192,40656,1,0,0:0:0:0:
192,192,40656,1,0,0:0:0:0:
448,192,40937,1,0,0:0:0:0:
448,192,41093,1,0,0:0:0:0:
448,192,41250,1,0,0:0:0:0:
448,192,41375,1,0,0:0:0:0:
192,192,41562,1,0,0:0:0:0:
448,192,41562,1,0,0:0:0:0:
64,192,41812,1,0,0:0:0:0:
64,192,42000,1,0,0:0:0:0:
64,192,42156,1,0,0:0:0:0:
64,192,42281,1,0,0:0:0:0:
448,192,42468,1,0,0:0:0:0:
192,192,42500,1,0,0:0:0:0:
64,192,42531,1,0,0:0:0:0:
448,192,42531,1,0,0:0:0:0:
320,192,42562,1,0,0:0:0:0:
192,192,42562,1,0,0:0:0:0:
64,192,42593,1,0,0:0:0:0:
192,192,42593,1,0,0:0:0:0:
320,192,42593,1,0,0:0:0:0:
448,192,42593,1,0,0:0:0:0:
448,192,42625,1,0,0:0:0:0:
64,192,42625,1,0,0:0:0:0:
320,192,42625,1,0,0:0:0:0:
192,192,42625,1,0,0:0:0:0:
448,192,42656,1,0,0:0:0:0:
64,192,42656,1,0,0:0:0:0:
192,192,42656,1,0,0:0:0:0:
320,192,42656,1,0,0:0:0:0:
448,192,42687,1,0,0:0:0:0:
64,192,42687,1,0,0:0:0:0:
192,192,42687,1,0,0:0:0:0:
320,192,42687,1,0,0:0:0:0:
448,192,42718,1,0,0:0:0:0:
64,192,42718,1,0,0:0:0:0:
192,192,42718,1,0,0:0:0:0:
320,192,42718,1,0,0:0:0:0:
448,192,42750,1,0,0:0:0:0:
64,192,42750,1,0,0:0:0:0:
192,192,42750,1,0,0:0:0:0:
320,192,42750,1,0,0:0:0:0:
64,192,42781,1,0,0:0:0:0:
320,192,42781,1,0,0:0:0:0:
192,192,42781,1,0,0:0:0:0:
448,192,42781,1,0,0:0:0:0:
64,192,42812,1,0,0:0:0:0:
320,192,42812,1,0,0:0:0:0:
192,192,42812,1,0,0:0:0:0:
448,192,42812,1,0,0:0:0:0:
448,192,42843,1,0,0:0:0:0:
192,192,42843,1,0,0:0:0:0:
320,192,42843,1,0,0:0:0:0:
64,192,42843,128,0,42968:0:0:0:0:
448,192,42875,1,0,0:0:0:0:
192,192,42875,1,0,0:0:0:0:
320,192,43156,1,0,0:0:0:0:
448,192,43281,1,0,0:0:0:0:
448,192,43343,1,0,0:0:0:0:
320,192,43375,1,0,0:0:0:0:
448,192,43468,1,0,0:0:0:0:
448,192,43531,1,0,0:0:0:0:
192,192,43625,1,0,0:0:0:0:
448,192,43718,1,0,0:0:0:0:
448,192,43843,1,0,0:0:0:0:
64,192,43937,1,0,0:0:0:0:
64,192,44000,1,0,0:0:0:0:
64,192,44031,1,0,0:0:0:0:
64,192,44093,1,0,0:0:0:0:
64,192,44156,1,0,0:0:0:0:
64,192,44187,1,0,0:0:0:0:
320,192,44250,128,0,44625:0:0:0:0:
192,192,44718,1,0,0:0:0:0:
64,192,44843,1,0,0:0:0:0:
64,192,44937,1,0,0:0:0:0:
192,192,45031,1,0,0:0:0:0:
320,192,45125,1,0,0:0:0:0:
448,192,45187,1,0,0:0:0:0:
320,192,45250,1,0,0:0:0:0:
320,192,45406,1,0,0:0:0:0:
192,192,45531,1,0,0:0:0:0:
64,192,45656,1,0,0:0:0:0:
320,192,45687,128,0,45843:0:0:0:0:
448,192,46000,1,0,0:0:0:0:
320,192,46093,1,0,0:0:0:0:
448,192,46187,1,0,0:0:0:0:
64,192,46250,1,0,0:0:0:0:
448,192,46281,1,0,0:0:0:0:
64,192,46343,1,0,0:0:0:0:
448,192,46343,1,0,0:0:0:0:
448,192,46375,1,0,0:0:0:0:
64,192,46406,1,0,0:0:0:0:
448,192,46406,1,0,0:0:0:0:
64,192,46437,1,0,0:0:0:0:
448,192,46437,1,0,0:0:0:0:
64,192,46468,1,0,0:0:0:0:
64,192,46500,1,0,0:0:0:0:
448,192,46500,1,0,0:0:0:0:
64,192,46531,1,0,0:0:0:0:
448,192,46531,1,0,0:0:0:0:
64,192,46562,1,0,0:0:0:0:
448,192,46562,1,0,0:0:0:0:
320,192,46593,128,0,46750:0:0:0:0:
64,192,46781,1,0,0:0:0:0:
192,192,46843,1,0,0:0:0:0:
320,192,46937,1,0,0:0:0:0:
448,192,47000,1,0,0:0:0:0:
64,192,47062,1,0,0:0:0:0:
192,192,47156,1,0,0:0:0:0:
192,192,47187,1,0,0:0:0:0:
192,192,47218,1,0,0:0:0:0:
192,192,47250,1,0,0:0:0:0:
192,192,47281,1,0,0:0:0:0:
192,192,47312,1,0,0:0:0:0:
192,192,47343,1,0,0:0:0:0:
192,192,47375,1,0,0:0:0:0:
192,192,47406,1,0,0:0:0:0:
192,192,47468,1,0,0:0:0:0:
320,192,47562,1,0,0:0:0:0:
320,192,47593,1,0,0:0:0:0:
320,192,47656,1,0,0:0:0:0:
320,192,47718,1,0,0:0:0:0:
192,192,47812,1,0,0:0:0:0:
320,192,47906,1,0,0:0:0:0:
448,192,48031,1,0,0:0:0:0:
448,192,48093,1,0,0:0:0:0:
448,192,48156,1,0,0:0:0:0:
64,192,48250,1,0,0:0:0:0:
64,192,48281,1,0,0:0:0:0:
320,192,48375,1,0,0:0:0:0:
192,192,48468,1,0,0:0:0:0:
320,192,48593,1,0,0:0:0:0:
320,192,48656,1,0,0:0:0:0:
320,192,48687,1,0,0:0:0:0:
320,192,48781,1,0,0:0:0:0:
320,192,48843,1,0,0:0:0:0:
192,192,48937,1,0,0:0:0:0:
64,192,49031,1,0,0:0:0:0:
192,192,49093,1,0,0:0:0:0:
320,192,49125,1,0,0:0:0:0:
448,192,49156,1,0,0:0:0:0:
320,192,49281,1,0,0:0:0:0:
320,192,49375,1,0,0:0:0:0:
192,192,49468,1,0,0:0:0:0:
320,192,49531,1,0,0:0:0:0:
448,192,49656,1,0,0:0:0:0:
192,192,49687,1,0,0:0:0:0:
192,192,49750,1,0,0:0:0:0:
192,192,49812,1,0,0:0:0:0:
192,192,49875,1,0,0:0:0:0:
64,192,49937,1,0,0:0:0:0:
320,192,49968,1,0,0:0:0:0:
320,192,50000,1,0,0:0:0:0:
320,192,50031,1,0,0:0:0:0:
192,192,50031,1,0,0:0:0:0:
448,192,50031,1,0,0:0:0:0:
320,192,50062,1,0,0:0:0:0:
192,192,50062,1,0,0:0:0:0:
64,192,50062,1,0,0:0:0:0:
320,192,50093,1,0,0:0:0:0:
192,192,50093,1,0,0:0:0:0:
448,192,50093,1,0,0:0:0:0:
320,192,50125,1,0,0:0:0:0:
320,192,50156,1,0,0:0:0:0:
320,192,50187,1,0,0:0:0:0:
320,192,50218,1,0,0:0:0:0:
192,192,50218,1,0,0:0:0:0:
320,192,50250,128,0,50406:0:0:0:0:
448,192,50312,1,0,0:0:0:0:
192,192,50312,1,0,0:0:0:0:
64,192,50343,1,0,0:0:0:0:
448,192,50375,1,0,0:0:0:0:
64,192,50437,1,0,0:0:0:0:
448,192,50437,1,0,0:0:0:0:
448,192,50656,1,0,0:0:0:0:
320,192,50812,1,0,0:0:0:0:
320,192,50875,1,0,0:0:0:0:
448,192,51000,1,0,0:0:0:0:
64,192,51093,1,0,0:0:0:0:
448,192,51187,1,0,0:0:0:0:
64,192,51281,1,0,0:0:0:0:
64,192,51312,1,0,0:0:0:0:
64,192,51343,1,0,0:0:0:0:
64,192,51375,1,0,0:0:0:0:
64,192,51406,1,0,0:0:0:0:
64,192,51437,1,0,0:0:0:0:
64,192,51468,1,0,0:0:0:0:
64,192,51500,1,0,0:0:0:0:
64,192,51531,1,0,0:0:0:0:
64,192,51562,1,0,0:0:0:0:
192,192,51656,1,0,0:0:0:0:
192,192,51687,1,0,0:0:0:0:
448,192,51781,1,0,0:0:0:0:
320,192,51875,1,0,0:0:0:0:
320,192,52000,1,0,0:0:0:0:
192,192,52093,1,0,0:0:0:0:
64,192,52187,1,0,0:0:0:0:
192,192,52250,1,0,0:0:0:0:
320,192,52343,1,0,0:0:0:0:
448,192,52437,1,0,0:0:0:0:
192,192,52531,1,0,0:0:0:0:
448,192,52593,128,0,52750:0:0:0:0:
64,192,52937,1,0,0:0:0:0:
320,192,53000,1,0,0:0:0:0:
448,192,53093,1,0,0:0:0:0:
64,192,53218,1,0,0:0:0:0:
448,192,53218,1,0,0:0:0:0:
320,192,53218,1,0,0:0:0:0:
320,192,53281,1,0,0:0:0:0:
64,192,53312,1,0,0:0:0:0:
448,192,53312,1,0,0:0:0:0:
320,192,53343,1,0,0:0:0:0:
64,192,53437,1,0,0:0:0:0:
320,192,53437,1,0,0:0:0:0:
448,192,53437,1,0,0:0:0:0:
64,192,53531,1,0,0:0:0:0:
320,192,53531,1,0,0:0:0:0:
448,192,53531,1,0,0:0:0:0:
448,192,53625,1,0,0:0:0:0:
320,192,53625,1,0,0:0:0:0:
64,192,53656,1,0,0:0:0:0:
320,192,53718,1,0,0:0:0:0:
448,192,53718,1,0,0:0:0:0:
64,192,53750,1,0,0:0:0:0:
320,192,53812,1,0,0:0:0:0:
448,192,53812,1,0,0:0:0:0:
64,192,53843,1,0,0:0:0:0:
192,192,54250,1,0,0:0:0:0:
192,192,54406,1,0,0:0:0:0:
192,192,54562,1,0,0:0:0:0:
192,192,54687,1,0,0:0:0:0:
192,192,54812,1,0,0:0:0:0:
192,192,55000,1,0,0:0:0:0:
64,192,55000,1,0,0:0:0:0:
448,192,55250,1,0,0:0:0:0:
448,192,55437,1,0,0:0:0:0:
448,192,55593,1,0,0:0:0:0:
448,192,55718,1,0,0:0:0:0:
448,192,55906,1,0,0:0:0:0:
192,192,55906,1,0,0:0:0:0:
64,192,56218,1,0,0:0:0:0:
64,192,56406,1,0,0:0:0:0:
64,192,56562,1,0,0:0:0:0:
64,192,56687,1,0,0:0:0:0:
320,192,56875,1,0,0:0:0:0:
64,192,56875,1,0,0:0:0:0:
448,192,57156,1,0,0:0:0:0:
448,192,57343,1,0,0:0:0:0:
448,192,57500,1,0,0:0:0:0:
320,192,57531,1,0,0:0:0:0:
192,192,57531,1,0,0:0:0:0:
64,192,57562,1,0,0:0:0:0:
192,192,57562,1,0,0:0:0:0:
320,192,57562,1,0,0:0:0:0:
448,192,57562,1,0,0:0:0:0:
448,192,57593,1,0,0:0:0:0:
64,192,57593,1,0,0:0:0:0:
320,192,57593,1,0,0:0:0:0:
192,192,57593,1,0,0:0:0:0:
448,192,57625,1,0,0:0:0:0:
64,192,57625,1,0,0:0:0:0:
192,192,57625,1,0,0:0:0:0:
320,192,57625,1,0,0:0:0:0:
448,192,57656,1,0,0:0:0:0:
64,192,57656,1,0,0:0:0:0:
192,192,57656,1,0,0:0:0:0:
320,192,57656,1,0,0:0:0:0:
448,192,57687,1,0,0:0:0:0:
64,192,57687,1,0,0:0:0:0:
192,192,57687,1,0,0:0:0:0:
320,192,57687,1,0,0:0:0:0:
448,192,57718,1,0,0:0:0:0:
64,192,57718,1,0,0:0:0:0:
192,192,57718,1,0,0:0:0:0:
320,192,57718,1,0,0:0:0:0:
64,192,57750,1,0,0:0:0:0:
320,192,57750,1,0,0:0:0:0:
192,192,57750,1,0,0:0:0:0:
448,192,57750,1,0,0:0:0:0:
64,192,57781,1,0,0:0:0:0:
320,192,57781,1,0,0:0:0:0:
192,192,57781,1,0,0:0:0:0:
448,192,57781,1,0,0:0:0:0:
448,192,57812,1,0,0:0:0:0:
192,192,57812,1,0,0:0:0:0:
320,192,57812,1,0,0:0:0:0:
64,192,57812,128,0,57937:0:0:0:0:
64,192,58062,1,0,0:0:0:0:
64,192,58187,1,0,0:0:0:0:
192,192,58406,1,0,0:0:0:0:
320,192,58437,1,0,0:0:0:0:
192,192,58593,1,0,0:0:0:0:
320,192,58656,1,0,0:0:0:0:
192,192,58750,1,0,0:0:0:0:
192,192,58781,1,0,0:0:0:0:
192,192,58812,1,0,0:0:0:0:
192,192,58843,1,0,0:0:0:0:
192,192,58875,1,0,0:0:0:0:
448,192,58906,128,0,59187:0:0:0:0:
448,192,59375,1,0,0:0:0:0:
448,192,59406,1,0,0:0:0:0:
448,192,59437,1,0,0:0:0:0:
448,192,59468,1,0,0:0:0:0:
320,192,59593,1,0,0:0:0:0:
448,192,59593,1,0,0:0:0:0:
192,192,59687,1,0,0:0:0:0:
448,192,59781,1,0,0:0:0:0:
320,192,59781,1,0,0:0:0:0:
64,192,59875,1,0,0:0:0:0:
64,192,59937,1,0,0:0:0:0:
64,192,59968,1,0,0:0:0:0:
64,192,60000,1,0,0:0:0:0:
320,192,60031,128,0,60281:0:0:0:0:
64,192,60375,1,0,0:0:0:0:
64,192,60437,1,0,0:0:0:0:
64,192,60468,1,0,0:0:0:0:
64,192,60531,1,0,0:0:0:0:
192,192,60625,1,0,0:0:0:0:
320,192,60687,1,0,0:0:0:0:
192,192,60906,1,0,0:0:0:0:
320,192,60937,1,0,0:0:0:0:
192,192,61093,1,0,0:0:0:0:
192,192,61125,1,0,0:0:0:0:
192,192,61156,1,0,0:0:0:0:
192,192,61187,1,0,0:0:0:0:
448,192,61343,1,0,0:0:0:0:
448,192,61406,128,0,61531:0:0:0:0:
448,192,61593,1,0,0:0:0:0:
448,192,61656,1,0,0:0:0:0:
320,192,61843,1,0,0:0:0:0:
448,192,61843,1,0,0:0:0:0:
448,192,61875,1,0,0:0:0:0:
320,192,61906,1,0,0:0:0:0:
448,192,61906,1,0,0:0:0:0:
320,192,61937,1,0,0:0:0:0:
448,192,61937,1,0,0:0:0:0:
448,192,61968,1,0,0:0:0:0:
320,192,61968,1,0,0:0:0:0:
448,192,62000,1,0,0:0:0:0:
320,192,62000,1,0,0:0:0:0:
64,192,62093,1,0,0:0:0:0:
448,192,62093,1,0,0:0:0:0:
64,192,62125,1,0,0:0:0:0:
64,192,62156,1,0,0:0:0:0:
64,192,62187,1,0,0:0:0:0:
320,192,62187,1,0,0:0:0:0:
192,192,62250,1,0,0:0:0:0:
320,192,62312,1,0,0:0:0:0:
64,192,62312,1,0,0:0:0:0:
448,192,62406,1,0,0:0:0:0:
320,192,62437,1,0,0:0:0:0:
448,192,62468,1,0,0:0:0:0:
192,192,62468,1,0,0:0:0:0:
448,192,62500,1,0,0:0:0:0:
192,192,62500,1,0,0:0:0:0:
64,192,62531,1,0,0:0:0:0:
448,192,62531,1,0,0:0:0:0:
320,192,62531,1,0,0:0:0:0:
192,192,62562,1,0,0:0:0:0:
64,192,62593,1,0,0:0:0:0:
64,192,62625,1,0,0:0:0:0:
448,192,62625,1,0,0:0:0:0:
192,192,62625,1,0,0:0:0:0:
320,192,62625,1,0,0:0:0:0:
64,192,62656,1,0,0:0:0:0:
192,192,62656,1,0,0:0:0:0:
320,192,62687,1,0,0:0:0:0:
448,192,62687,1,0,0:0:0:0:
192,192,62687,1,0,0:0:0:0:
192,192,62718,1,0,0:0:0:0:
448,192,62718,1,0,0:0:0:0:
192,192,62750,1,0,0:0:0:0:
192,192,62781,1,0,0:0:0:0:
320,192,62781,1,0,0:0:0:0:
448,192,62812,1,0,0:0:0:0:
320,192,62812,1,0,0:0:0:0:
448,192,62906,1,0,0:0:0:0:
64,192,63000,1,0,0:0:0:0:
192,192,63000,1,0,0:0:0:0:
64,192,63031,1,0,0:0:0:0:
192,192,63031,1,0,0:0:0:0:
192,192,63062,1,0,0:0:0:0:
64,192,63093,1,0,0:0:0:0:
448,192,63093,1,0,0:0:0:0:
192,192,63125,1,0,0:0:0:0:
192,192,63156,1,0,0:0:0:0:
64,192,63187,1,0,0:0:0:0:
64,192,63218,1,0,0:0:0:0:
192,192,63218,1,0,0:0:0:0:
64,192,63250,1,0,0:0:0:0:
192,192,63250,1,0,0:0:0:0:
192,192,63281,1,0,0:0:0:0:
64,192,63312,1,0,0:0:0:0:
192,192,63312,1,0,0:0:0:0:
448,192,63437,1,0,0:0:0:0:
448,192,63500,1,0,0:0:0:0:
448,192,63531,1,0,0:0:0:0:
320,192,63625,1,0,0:0:0:0:
320,192,63656,1,0,0:0:0:0:
64,192,63656,1,0,0:0:0:0:
192,192,63656,1,0,0:0:0:0:
448,192,63656,1,0,0:0:0:0:
192,192,63687,1,0,0:0:0:0:
64,192,63687,1,0,0:0:0:0:
320,192,63750,1,0,0:0:0:0:
192,192,63750,1,0,0:0:0:0:
64,192,63750,1,0,0:0:0:0:
448,192,63781,1,0,0:0:0:0:
320,192,63812,1,0,0:0:0:0:
320,192,63843,1,0,0:0:0:0:
64,192,63843,1,0,0:0:0:0:
192,192,63843,1,0,0:0:0:0:
192,192,63875,1,0,0:0:0:0:
64,192,63875,1,0,0:0:0:0:
320,192,63875,1,0,0:0:0:0:
192,192,63906,1,0,0:0:0:0:
320,192,63906,1,0,0:0:0:0:
448,192,63906,1,0,0:0:0:0:
320,192,64031,1,0,0:0:0:0:
64,192,64062,1,0,0:0:0:0:
64,192,64125,1,0,0:0:0:0:
192,192,64156,1,0,0:0:0:0:
320,192,64156,1,0,0:0:0:0:
320,192,64187,1,0,0:0:0:0:
192,192,64218,1,0,0:0:0:0:
320,192,64250,1,0,0:0:0:0:
192,192,64281,1,0,0:0:0:0:
320,192,64343,1,0,0:0:0:0:
448,192,64375,1,0,0:0:0:0:
448,192,64406,1,0,0:0:0:0:
448,192,64437,1,0,0:0:0:0:
448,192,64468,1,0,0:0:0:0:
448,192,64500,1,0,0:0:0:0:
320,192,64562,1,0,0:0:0:0:
320,192,64593,1,0,0:0:0:0:
192,192,64593,1,0,0:0:0:0:
320,192,64625,1,0,0:0:0:0:
192,192,64625,1,0,0:0:0:0:
320,192,64656,1,0,0:0:0:0:
192,192,64656,1,0,0:0:0:0:
320,192,64687,1,0,0:0:0:0:
192,192,64718,1,0,0:0:0:0:
448,192,64750,1,0,0:0:0:0:
64,192,64843,1,0,0:0:0:0:
64,192,64875,1,0,0:0:0:0:
64,192,64906,1,0,0:0:0:0:
64,192,64937,1,0,0:0:0:0:
64,192,64968,1,0,0:0:0:0:
64,192,65031,1,0,0:0:0:0:
64,192,65062,1,0,0:0:0:0:
64,192,65093,1,0,0:0:0:0:
64,192,65125,1,0,0:0:0:0:
320,192,65125,1,0,0:0:0:0:
448,192,65125,1,0,0:0:0:0:
64,192,65156,1,0,0:0:0:0:
192,192,65156,1,0,0:0:0:0:
448,192,65187,1,0,0:0:0:0:
64,192,65218,1,0,0:0:0:0:
320,192,65218,1,0,0:0:0:0:
64,192,65375,1,0,0:0:0:0:
192,192,65406,1,0,0:0:0:0:
192,192,65468,1,0,0:0:0:0:
320,192,65468,1,0,0:0:0:0:
448,192,65468,1,0,0:0:0:0:
192,192,65531,1,0,0:0:0:0:
448,192,65531,1,0,0:0:0:0:
320,192,65531,1,0,0:0:0:0:
192,192,65593,1,0,0:0:0:0:
320,192,65593,1,0,0:0:0:0:
448,192,65593,1,0,0:0:0:0:
192,192,65625,1,0,0:0:0:0:
448,192,65625,1,0,0:0:0:0:
192,192,65656,1,0,0:0:0:0:
448,192,65656,1,0,0:0:0:0:
320,192,65656,1,0,0:0:0:0:
64,192,65687,1,0,0:0:0:0:
192,192,65718,1,0,0:0:0:0:
192,192,65937,1,0,0:0:0:0:
192,192,65968,1,0,0:0:0:0:
64,192,66000,1,0,0:0:0:0:
192,192,66062,1,0,0:0:0:0:
192,192,66093,1,0,0:0:0:0:
64,192,66125,1,0,0:0:0:0:
192,192,66125,1,0,0:0:0:0:
64,192,66281,1,0,0:0:0:0:
320,192,66312,1,0,0:0:0:0:
64,192,66343,1,0,0:0:0:0:
320,192,66343,1,0,0:0:0:0:
320,192,66375,1,0,0:0:0:0:
320,192,66406,1,0,0:0:0:0:
320,192,66437,1,0,0:0:0:0:
320,192,66468,1,0,0:0:0:0:
320,192,66500,1,0,0:0:0:0:
320,192,66531,1,0,0:0:0:0:
320,192,66562,1,0,0:0:0:0:
320,192,66593,1,0,0:0:0:0:
320,192,66625,1,0,0:0:0:0:
320,192,66656,1,0,0:0:0:0:
320,192,66687,1,0,0:0:0:0:
320,192,66718,1,0,0:0:0:0:
320,192,66750,1,0,0:0:0:0:
320,192,66781,1,0,0:0:0:0:
320,192,66812,1,0,0:0:0:0:
320,192,66843,1,0,0:0:0:0:
320,192,66875,1,0,0:0:0:0:
320,192,66906,1,0,0:0:0:0:
320,192,66937,1,0,0:0:0:0:
448,192,66937,1,0,0:0:0:0:
320,192,67093,1,0,0:0:0:0:
448,192,67125,1,0,0:0:0:0:
320,192,67187,1,0,0:0:0:0:
320,192,67250,1,0,0:0:0:0:
448,192,67281,1,0,0:0:0:0:
320,192,67375,1,0,0:0:0:0:
320,192,67437,1,0,0:0:0:0:
320,192,67468,1,0,0:0:0:0:
320,192,67500,1,0,0:0:0:0:
448,192,67562,1,0,0:0:0:0:
448,192,67625,1,0,0:0:0:0:
448,192,67687,1,0,0:0:0:0:
320,192,67781,1,0,0:0:0:0:
448,192,67781,1,0,0:0:0:0:
192,192,67781,1,0,0:0:0:0:
448,192,67812,1,0,0:0:0:0:
320,192,67843,1,0,0:0:0:0:
448,192,67843,1,0,0:0:0:0:
192,192,67843,1,0,0:0:0:0:
448,192,67875,1,0,0:0:0:0:
192,192,67875,1,0,0:0:0:0:
448,192,67906,1,0,0:0:0:0:
320,192,67906,1,0,0:0:0:0:
320,192,67937,1,0,0:0:0:0:
448,192,67937,1,0,0:0:0:0:
320,192,67968,1,0,0:0:0:0:
448,192,67968,1,0,0:0:0:0:
192,192,68000,1,0,0:0:0:0:
320,192,68000,1,0,0:0:0:0:
448,192,68000,1,0,0:0:0:0:
192,192,68031,1,0,0:0:0:0:
320,192,68031,1,0,0:0:0:0:
448,192,68031,1,0,0:0:0:0:
192,192,68062,1,0,0:0:0:0:
320,192,68062,1,0,0:0:0:0:
448,192,68062,1,0,0:0:0:0:
192,192,68093,1,0,0:0:0:0:
320,192,68093,1,0,0:0:0:0:
448,192,68093,1,0,0:0:0:0:
192,192,68125,1,0,0:0:0:0:
320,192,68125,1,0,0:0:0:0:
448,192,68156,1,0,0:0:0:0:
192,192,68187,1,0,0:0:0:0:
448,192,68187,1,0,0:0:0:0:
320,192,68218,1,0,0:0:0:0:
192,192,68250,1,0,0:0:0:0:
320,192,68250,1,0,0:0:0:0:
448,192,68250,1,0,0:0:0:0:
192,192,68312,1,0,0:0:0:0:
192,192,68343,1,0,0:0:0:0:
192,192,68406,1,0,0:0:0:0:
192,192,68437,1,0,0:0:0:0:
192,192,68500,1,0,0:0:0:0:
192,192,68531,1,0,0:0:0:0:
192,192,68562,1,0,0:0:0:0:
192,192,68593,1,0,0:0:0:0:
192,192,68625,1,0,0:0:0:0:
448,192,68656,1,0,0:0:0:0:
448,192,68687,1,0,0:0:0:0:
192,192,68718,1,0,0:0:0:0:
448,192,68750,1,0,0:0:0:0:
448,192,68781,1,0,0:0:0:0:
320,192,68812,1,0,0:0:0:0:
192,192,68906,1,0,0:0:0:0:
320,192,68937,1,0,0:0:0:0:
448,192,68968,1,0,0:0:0:0:
320,192,69000,1,0,0:0:0:0:
448,192,69000,1,0,0:0:0:0:
320,192,69031,1,0,0:0:0:0:
320,192,69062,1,0,0:0:0:0:
448,192,69062,1,0,0:0:0:0:
64,192,69062,1,0,0:0:0:0:
448,192,69093,1,0,0:0:0:0:
192,192,69093,1,0,0:0:0:0:
64,192,69093,1,0,0:0:0:0:
320,192,69093,1,0,0:0:0:0:
448,192,69125,1,0,0:0:0:0:
320,192,69125,1,0,0:0:0:0:
64,192,69125,1,0,0:0:0:0:
192,192,69156,1,0,0:0:0:0:
64,192,69156,1,0,0:0:0:0:
192,192,69187,1,0,0:0:0:0:
448,192,69187,1,0,0:0:0:0:
320,192,69187,1,0,0:0:0:0:
192,192,69218,1,0,0:0:0:0:
64,192,69218,1,0,0:0:0:0:
320,192,69218,1,0,0:0:0:0:
448,192,69218,1,0,0:0:0:0:
192,192,69250,1,0,0:0:0:0:
64,192,69250,1,0,0:0:0:0:
448,192,69250,1,0,0:0:0:0:
320,192,69250,1,0,0:0:0:0:
192,192,69281,1,0,0:0:0:0:
64,192,69281,1,0,0:0:0:0:
320,192,69375,1,0,0:0:0:0:
448,192,69468,1,0,0:0:0:0:
320,192,69562,1,0,0:0:0:0:
192,192,69656,1,0,0:0:0:0:
64,192,69750,1,0,0:0:0:0:
192,192,69843,1,0,0:0:0:0:
320,192,69937,1,0,0:0:0:0:
448,192,70031,1,0,0:0:0:0:
192,192,70187,1,0,0:0:0:0:
320,192,70250,1,0,0:0:0:0:
448,192,70312,1,0,0:0:0:0:
320,192,70406,1,0,0:0:0:0:
192,192,70500,1,0,0:0:0:0:
64,192,70593,1,0,0:0:0:0:
192,192,70687,1,0,0:0:0:0:
320,192,70781,1,0,0:0:0:0:
448,192,70875,1,0,0:0:0:0:
192,192,71031,1,0,0:0:0:0:
320,192,71125,1,0,0:0:0:0:
448,192,71250,1,0,0:0:0:0:
320,192,71343,1,0,0:0:0:0:
192,192,71437,1,0,0:0:0:0:
64,192,71531,1,0,0:0:0:0:
192,192,71625,1,0,0:0:0:0:
320,192,71718,1,0,0:0:0:0:
448,192,71812,1,0,0:0:0:0:
192,192,71906,1,0,0:0:0:0:
320,192,72062,1,0,0:0:0:0:
448,192,72218,1,0,0:0:0:0:
320,192,72312,1,0,0:0:0:0:
192,192,72406,1,0,0:0:0:0:
64,192,72500,1,0,0:0:0:0:
192,192,72593,1,0,0:0:0:0:
320,192,72687,1,0,0:0:0:0:
448,192,72781,1,0,0:0:0:0:
192,192,72875,1,0,0:0:0:0:
320,192,73062,1,0,0:0:0:0:
448,192,73281,1,0,0:0:0:0:
320,192,73375,1,0,0:0:0:0:
192,192,73468,1,0,0:0:0:0:
64,192,73562,1,0,0:0:0:0:
192,192,73656,1,0,0:0:0:0:
320,192,73750,1,0,0:0:0:0:
448,192,73843,1,0,0:0:0:0:
192,192,73937,1,0,0:0:0:0:
320,192,74093,1,0,0:0:0:0:
448,192,74250,1,0,0:0:0:0:
320,192,74343,1,0,0:0:0:0:
192,192,74437,1,0,0:0:0:0:
64,192,74531,1,0,0:0:0:0:
192,192,74625,1,0,0:0:0:0:
320,192,74718,1,0,0:0:0:0:
448,192,74812,1,0,0:0:0:0:
192,192,74875,1,0,0:0:0:0:
320,192,75031,1,0,0:0:0:0:
448,192,75187,1,0,0:0:0:0:
320,192,75281,1,0,0:0:0:0:
192,192,75375,1,0,0:0:0:0:
64,192,75468,1,0,0:0:0:0:
192,192,75562,1,0,0:0:0:0:
320,192,75656,1,0,0:0:0:0:
448,192,75750,1,0,0:0:0:0:
192,192,75875,1,0,0:0:0:0:
448,192,76062,1,0,0:0:0:0:
320,192,76093,1,0,0:0:0:0:
192,192,76187,1,0,0:0:0:0:
64,192,76281,1,0,0:0:0:0:
192,192,76343,1,0,0:0:0:0:
320,192,76375,1,0,0:0:0:0:
448,192,76406,1,0,0:0:0:0:
320,192,76500,1,0,0:0:0:0:
448,192,76750,1,0,0:0:0:0:
320,192,76750,1,0,0:0:0:0:
448,192,76781,1,0,0:0:0:0:
448,192,76812,1,0,0:0:0:0:
320,192,76812,1,0,0:0:0:0:
448,192,76843,1,0,0:0:0:0:
320,192,76843,1,0,0:0:0:0:
320,192,76875,1,0,0:0:0:0:
448,192,76875,1,0,0:0:0:0:
320,192,76906,1,0,0:0:0:0:
448,192,76906,1,0,0:0:0:0:
64,192,77000,1,0,0:0:0:0:
64,192,77031,1,0,0:0:0:0:
64,192,77062,1,0,0:0:0:0:
64,192,77093,1,0,0:0:0:0:
448,192,77312,1,0,0:0:0:0:
320,192,77343,1,0,0:0:0:0:
64,192,77375,1,0,0:0:0:0:
192,192,77375,1,0,0:0:0:0:
448,192,77375,1,0,0:0:0:0:
192,192,77406,1,0,0:0:0:0:
320,192,77406,1,0,0:0:0:0:
448,192,77406,1,0,0:0:0:0:
64,192,77437,1,0,0:0:0:0:
192,192,77437,1,0,0:0:0:0:
448,192,77437,1,0,0:0:0:0:
320,192,77437,1,0,0:0:0:0:
192,192,77468,1,0,0:0:0:0:
64,192,77468,1,0,0:0:0:0:
320,192,77468,1,0,0:0:0:0:
448,192,77468,1,0,0:0:0:0:
448,192,77500,1,0,0:0:0:0:
192,192,77500,1,0,0:0:0:0:
320,192,77500,1,0,0:0:0:0:
64,192,77500,1,0,0:0:0:0:
192,192,77531,1,0,0:0:0:0:
320,192,77531,1,0,0:0:0:0:
64,192,77531,1,0,0:0:0:0:
448,192,77531,1,0,0:0:0:0:
320,192,77562,1,0,0:0:0:0:
448,192,77562,1,0,0:0:0:0:
64,192,77562,1,0,0:0:0:0:
192,192,77562,1,0,0:0:0:0:
192,192,77593,1,0,0:0:0:0:
448,192,77593,1,0,0:0:0:0:
320,192,77593,1,0,0:0:0:0:
448,192,77625,1,0,0:0:0:0:
320,192,77625,1,0,0:0:0:0:
192,192,77625,1,0,0:0:0:0:
192,192,77656,1,0,0:0:0:0:
448,192,77656,1,0,0:0:0:0:
320,192,77656,1,0,0:0:0:0:
448,192,77687,1,0,0:0:0:0:
320,192,77687,1,0,0:0:0:0:
192,192,77687,1,0,0:0:0:0:
320,192,77718,1,0,0:0:0:0:
448,192,77718,1,0,0:0:0:0:
448,192,77812,1,0,0:0:0:0:
192,192,77906,1,0,0:0:0:0:
64,192,77906,1,0,0:0:0:0:
192,192,77937,1,0,0:0:0:0:
64,192,77937,1,0,0:0:0:0:
192,192,77968,1,0,0:0:0:0:
448,192,78000,1,0,0:0:0:0:
64,192,78000,1,0,0:0:0:0:
192,192,78031,1,0,0:0:0:0:
192,192,78062,1,0,0:0:0:0:
64,192,78062,1,0,0:0:0:0:
64,192,78093,1,0,0:0:0:0:
192,192,78125,1,0,0:0:0:0:
64,192,78125,1,0,0:0:0:0:
192,192,78156,1,0,0:0:0:0:
64,192,78156,1,0,0:0:0:0:
192,192,78187,1,0,0:0:0:0:
192,192,78218,1,0,0:0:0:0:
64,192,78218,1,0,0:0:0:0:
448,192,78343,1,0,0:0:0:0:
448,192,78406,1,0,0:0:0:0:
448,192,78437,1,0,0:0:0:0:
320,192,78531,1,0,0:0:0:0:
192,192,78562,1,0,0:0:0:0:
448,192,78562,1,0,0:0:0:0:
320,192,78562,1,0,0:0:0:0:
64,192,78562,1,0,0:0:0:0:
64,192,78593,1,0,0:0:0:0:
192,192,78593,1,0,0:0:0:0:
64,192,78656,1,0,0:0:0:0:
192,192,78656,1,0,0:0:0:0:
320,192,78656,1,0,0:0:0:0:
448,192,78687,1,0,0:0:0:0:
320,192,78718,1,0,0:0:0:0:
192,192,78750,1,0,0:0:0:0:
64,192,78750,1,0,0:0:0:0:
320,192,78750,1,0,0:0:0:0:
320,192,78781,1,0,0:0:0:0:
64,192,78781,1,0,0:0:0:0:
192,192,78781,1,0,0:0:0:0:
448,192,78812,1,0,0:0:0:0:
320,192,78812,1,0,0:0:0:0:
192,192,78812,1,0,0:0:0:0:
320,192,78937,1,0,0:0:0:0:
64,192,78968,1,0,0:0:0:0:
64,192,79031,1,0,0:0:0:0:
320,192,79062,1,0,0:0:0:0:
192,192,79062,1,0,0:0:0:0:
320,192,79093,1,0,0:0:0:0:
192,192,79125,1,0,0:0:0:0:
320,192,79156,1,0,0:0:0:0:
192,192,79187,1,0,0:0:0:0:
320,192,79250,1,0,0:0:0:0:
448,192,79281,1,0,0:0:0:0:
448,192,79312,1,0,0:0:0:0:
448,192,79343,1,0,0:0:0:0:
448,192,79375,1,0,0:0:0:0:
448,192,79406,1,0,0:0:0:0:
320,192,79468,1,0,0:0:0:0:
192,192,79500,1,0,0:0:0:0:
320,192,79500,1,0,0:0:0:0:
192,192,79531,1,0,0:0:0:0:
320,192,79531,1,0,0:0:0:0:
192,192,79562,1,0,0:0:0:0:
320,192,79562,1,0,0:0:0:0:
320,192,79593,1,0,0:0:0:0:
192,192,79625,1,0,0:0:0:0:
448,192,79656,1,0,0:0:0:0:
64,192,79750,1,0,0:0:0:0:
64,192,79781,1,0,0:0:0:0:
64,192,79812,1,0,0:0:0:0:
64,192,79843,1,0,0:0:0:0:
64,192,79875,1,0,0:0:0:0:
64,192,79937,1,0,0:0:0:0:
64,192,79968,1,0,0:0:0:0:
64,192,80000,1,0,0:0:0:0:
448,192,80031,1,0,0:0:0:0:
320,192,80031,1,0,0:0:0:0:
64,192,80031,1,0,0:0:0:0:
192,192,80062,1,0,0:0:0:0:
64,192,80062,1,0,0:0:0:0:
448,192,80093,1,0,0:0:0:0:
320,192,80125,1,0,0:0:0:0:
64,192,80125,1,0,0:0:0:0:
64,192,80281,1,0,0:0:0:0:
192,192,80312,1,0,0:0:0:0:
448,192,80375,1,0,0:0:0:0:
320,192,80375,1,0,0:0:0:0:
192,192,80375,1,0,0:0:0:0:
320,192,80437,1,0,0:0:0:0:
448,192,80437,1,0,0:0:0:0:
192,192,80437,1,0,0:0:0:0:
448,192,80500,1,0,0:0:0:0:
320,192,80500,1,0,0:0:0:0:
192,192,80500,1,0,0:0:0:0:
448,192,80531,1,0,0:0:0:0:
192,192,80531,1,0,0:0:0:0:
320,192,80562,1,0,0:0:0:0:
448,192,80562,1,0,0:0:0:0:
192,192,80562,1,0,0:0:0:0:
64,192,80593,1,0,0:0:0:0:
192,192,80625,1,0,0:0:0:0:
64,192,80718,1,0,0:0:0:0:
64,192,80750,1,0,0:0:0:0:
64,192,80781,1,0,0:0:0:0:
64,192,80812,1,0,0:0:0:0:
320,192,80812,1,0,0:0:0:0:
64,192,80843,1,0,0:0:0:0:
64,192,80906,1,0,0:0:0:0:
64,192,80937,1,0,0:0:0:0:
64,192,80968,1,0,0:0:0:0:
448,192,81000,1,0,0:0:0:0:
320,192,81000,1,0,0:0:0:0:
64,192,81000,1,0,0:0:0:0:
64,192,81031,1,0,0:0:0:0:
192,192,81031,1,0,0:0:0:0:
448,192,81062,1,0,0:0:0:0:
64,192,81093,1,0,0:0:0:0:
320,192,81093,1,0,0:0:0:0:
448,192,81156,1,0,0:0:0:0:
448,192,81187,1,0,0:0:0:0:
320,192,81218,1,0,0:0:0:0:
320,192,81250,1,0,0:0:0:0:
448,192,81250,1,0,0:0:0:0:
320,192,81281,1,0,0:0:0:0:
448,192,81312,1,0,0:0:0:0:
320,192,81343,1,0,0:0:0:0:
320,192,81375,1,0,0:0:0:0:
448,192,81375,1,0,0:0:0:0:
320,192,81406,1,0,0:0:0:0:
448,192,81437,1,0,0:0:0:0:
320,192,81468,1,0,0:0:0:0:
448,192,81468,1,0,0:0:0:0:
320,192,81656,1,0,0:0:0:0:
320,192,81718,1,0,0:0:0:0:
320,192,81750,1,0,0:0:0:0:
320,192,81812,1,0,0:0:0:0:
320,192,81875,1,0,0:0:0:0:
320,192,81906,1,0,0:0:0:0:
320,192,81937,1,0,0:0:0:0:
320,192,82000,1,0,0:0:0:0:
320,192,82062,1,0,0:0:0:0:
320,192,82125,1,0,0:0:0:0:
320,192,82156,1,0,0:0:0:0:
320,192,82187,1,0,0:0:0:0:
448,192,82281,1,0,0:0:0:0:
448,192,82343,1,0,0:0:0:0:
320,192,82375,1,0,0:0:0:0:
320,192,82437,1,0,0:0:0:0:
320,192,82500,1,0,0:0:0:0:
448,192,82531,1,0,0:0:0:0:
448,192,82593,1,0,0:0:0:0:
320,192,82625,1,0,0:0:0:0:
320,192,82656,1,0,0:0:0:0:
448,192,82656,1,0,0:0:0:0:
192,192,82656,1,0,0:0:0:0:
320,192,82687,1,0,0:0:0:0:
448,192,82718,1,0,0:0:0:0:
192,192,82718,1,0,0:0:0:0:
320,192,82750,1,0,0:0:0:0:
448,192,82750,1,0,0:0:0:0:
192,192,82750,1,0,0:0:0:0:
320,192,82781,1,0,0:0:0:0:
192,192,82781,1,0,0:0:0:0:
448,192,82812,1,0,0:0:0:0:
192,192,82812,1,0,0:0:0:0:
320,192,82843,1,0,0:0:0:0:
448,192,82843,1,0,0:0:0:0:
320,192,82875,1,0,0:0:0:0:
448,192,82875,1,0,0:0:0:0:
192,192,82875,1,0,0:0:0:0:
448,192,82906,1,0,0:0:0:0:
192,192,82906,1,0,0:0:0:0:
192,192,82968,1,0,0:0:0:0:
192,192,83031,1,0,0:0:0:0:
192,192,83093,1,0,0:0:0:0:
192,192,83125,1,0,0:0:0:0:
192,192,83218,1,0,0:0:0:0:
192,192,83281,1,0,0:0:0:0:
192,192,83375,1,0,0:0:0:0:
192,192,83437,1,0,0:0:0:0:
448,192,83562,1,0,0:0:0:0:
448,192,83593,1,0,0:0:0:0:
320,192,83593,1,0,0:0:0:0:
192,192,83593,1,0,0:0:0:0:
448,192,83656,1,0,0:0:0:0:
192,192,83656,1,0,0:0:0:0:
448,192,83687,1,0,0:0:0:0:
192,192,83718,1,0,0:0:0:0:
448,192,83750,1,0,0:0:0:0:
192,192,83750,1,0,0:0:0:0:
448,192,83781,1,0,0:0:0:0:
448,192,83812,1,0,0:0:0:0:
448,192,83843,1,0,0:0:0:0:
320,192,83875,1,0,0:0:0:0:
192,192,83875,1,0,0:0:0:0:
448,192,83937,1,0,0:0:0:0:
192,192,83937,1,0,0:0:0:0:
320,192,84000,1,0,0:0:0:0:
320,192,84062,1,0,0:0:0:0:
320,192,84093,1,0,0:0:0:0:
320,192,84156,1,0,0:0:0:0:
320,192,84187,1,0,0:0:0:0:
448,192,84187,1,0,0:0:0:0:
448,192,84218,1,0,0:0:0:0:
192,192,84218,1,0,0:0:0:0:
448,192,84281,1,0,0:0:0:0:
64,192,84281,1,0,0:0:0:0:
192,192,84312,1,0,0:0:0:0:
64,192,84312,1,0,0:0:0:0:
448,192,84312,1,0,0:0:0:0:
320,192,84312,1,0,0:0:0:0:
448,192,84343,1,0,0:0:0:0:
192,192,84343,1,0,0:0:0:0:
64,192,84343,1,0,0:0:0:0:
448,192,84375,1,0,0:0:0:0:
192,192,84375,1,0,0:0:0:0:
320,192,84375,1,0,0:0:0:0:
64,192,84375,1,0,0:0:0:0:
64,192,84406,1,0,0:0:0:0:
192,192,84437,1,0,0:0:0:0:
320,192,84437,1,0,0:0:0:0:
448,192,84437,1,0,0:0:0:0:
64,192,84468,1,0,0:0:0:0:
192,192,84468,1,0,0:0:0:0:
448,192,84468,1,0,0:0:0:0:
192,192,84500,1,0,0:0:0:0:
64,192,84500,1,0,0:0:0:0:
320,192,84500,1,0,0:0:0:0:
448,192,84500,1,0,0:0:0:0:
192,192,84531,1,0,0:0:0:0:
64,192,84531,1,0,0:0:0:0:
320,192,84531,1,0,0:0:0:0:
448,192,84531,1,0,0:0:0:0:
192,192,84562,1,0,0:0:0:0:
320,192,84562,1,0,0:0:0:0:
64,192,84562,1,0,0:0:0:0:
448,192,84562,1,0,0:0:0:0:
320,192,84593,1,0,0:0:0:0:
64,192,84593,1,0,0:0:0:0:
448,192,84593,1,0,0:0:0:0:
192,192,84625,1,0,0:0:0:0:
320,192,84656,1,0,0:0:0:0:
192,192,84656,1,0,0:0:0:0:
64,192,84687,1,0,0:0:0:0:
192,192,84718,1,0,0:0:0:0:
448,192,84843,1,0,0:0:0:0:
320,192,84937,1,0,0:0:0:0:
192,192,85031,1,0,0:0:0:0:
64,192,85125,1,0,0:0:0:0:
192,192,85218,1,0,0:0:0:0:
320,192,85312,1,0,0:0:0:0:
448,192,85406,1,0,0:0:0:0:
192,192,85562,1,0,0:0:0:0:
320,192,85625,1,0,0:0:0:0:
448,192,85687,1,0,0:0:0:0:
320,192,85781,1,0,0:0:0:0:
192,192,85875,1,0,0:0:0:0:
64,192,85968,1,0,0:0:0:0:
192,192,86062,1,0,0:0:0:0:
320,192,86156,1,0,0:0:0:0:
448,192,86250,1,0,0:0:0:0:
192,192,86406,1,0,0:0:0:0:
320,192,86500,1,0,0:0:0:0:
448,192,86625,1,0,0:0:0:0:
320,192,86718,1,0,0:0:0:0:
192,192,86812,1,0,0:0:0:0:
64,192,86906,1,0,0:0:0:0:
192,192,87000,1,0,0:0:0:0:
320,192,87093,1,0,0:0:0:0:
448,192,87187,1,0,0:0:0:0:
192,192,87281,1,0,0:0:0:0:
320,192,87437,1,0,0:0:0:0:
448,192,87593,1,0,0:0:0:0:
320,192,87687,1,0,0:0:0:0:
192,192,87781,1,0,0:0:0:0:
64,192,87875,1,0,0:0:0:0:
192,192,87968,1,0,0:0:0:0:
320,192,88062,1,0,0:0:0:0:
448,192,88156,1,0,0:0:0:0:
192,192,88250,1,0,0:0:0:0:
320,192,88437,1,0,0:0:0:0:
448,192,88656,1,0,0:0:0:0:
320,192,88750,1,0,0:0:0:0:
192,192,88843,1,0,0:0:0:0:
64,192,88937,1,0,0:0:0:0:
192,192,89031,1,0,0:0:0:0:
320,192,89125,1,0,0:0:0:0:
448,192,89218,1,0,0:0:0:0:
192,192,89312,1,0,0:0:0:0:
320,192,89468,1,0,0:0:0:0:
448,192,89625,1,0,0:0:0:0:
320,192,89718,1,0,0:0:0:0:
192,192,89812,1,0,0:0:0:0:
64,192,89906,1,0,0:0:0:0:
192,192,90000,1,0,0:0:0:0:
320,192,90093,1,0,0:0:0:0:
448,192,90187,1,0,0:0:0:0:
192,192,90250,1,0,0:0:0:0:
320,192,90406,1,0,0:0:0:0:
448,192,90562,1,0,0:0:0:0:
320,192,90656,1,0,0:0:0:0:
192,192,90750,1,0,0:0:0:0:
64,192,90843,1,0,0:0:0:0:
192,192,90937,1,0,0:0:0:0:
320,192,91031,1,0,0:0:0:0:
448,192,91125,1,0,0:0:0:0:
192,192,91250,1,0,0:0:0:0:
448,192,91437,1,0,0:0:0:0:
320,192,91468,1,0,0:0:0:0:
192,192,91562,1,0,0:0:0:0:
64,192,91656,1,0,0:0:0:0:
192,192,91718,1,0,0:0:0:0:
320,192,91750,1,0,0:0:0:0:
448,192,91781,1,0,0:0:0:0:
320,192,91875,1,0,0:0:0:0:
64,192,92031,1,0,0:0:0:0:
64,192,92187,1,0,0:0:0:0:
192,192,92218,1,0,0:0:0:0:
192,192,92312,1,0,0:0:0:0:
448,192,92312,1,0,0:0:0:0:
448,192,92343,1,0,0:0:0:0:
448,192,92375,1,0,0:0:0:0:
64,192,92562,1,0,0:0:0:0:
64,192,92687,1,0,0:0:0:0:
64,192,92781,1,0,0:0:0:0:
192,192,92781,1,0,0:0:0:0:
448,192,92937,1,0,0:0:0:0:
64,192,93062,1,0,0:0:0:0:
320,192,93062,1,0,0:0:0:0:
320,192,93093,1,0,0:0:0:0:
192,192,93125,1,0,0:0:0:0:
320,192,93125,1,0,0:0:0:0:
192,192,93250,1,0,0:0:0:0:
320,192,93312,1,0,0:0:0:0:
64,192,93312,1,0,0:0:0:0:
64,192,93343,1,0,0:0:0:0:
64,192,93375,1,0,0:0:0:0:
192,192,93406,1,0,0:0:0:0:
320,192,93437,1,0,0:0:0:0:
192,192,93468,1,0,0:0:0:0:
192,192,93500,1,0,0:0:0:0:
320,192,93500,1,0,0:0:0:0:
320,192,93562,1,0,0:0:0:0:
192,192,93593,1,0,0:0:0:0:
320,192,93625,1,0,0:0:0:0:
64,192,93656,1,0,0:0:0:0:
64,192,93781,1,0,0:0:0:0:
192,192,93875,1,0,0:0:0:0:
320,192,93968,1,0,0:0:0:0:
448,192,94062,1,0,0:0:0:0:
448,192,94156,1,0,0:0:0:0:
320,192,94250,1,0,0:0:0:0:
192,192,94312,1,0,0:0:0:0:
192,192,94343,1,0,0:0:0:0:
192,192,94406,1,0,0:0:0:0:
192,192,94468,1,0,0:0:0:0:
192,192,94500,1,0,0:0:0:0:
192,192,94562,1,0,0:0:0:0:
192,192,94593,1,0,0:0:0:0:
64,192,94656,1,0,0:0:0:0:
64,192,94718,1,0,0:0:0:0:
64,192,94750,1,0,0:0:0:0:
64,192,94812,1,0,0:0:0:0:
64,192,94843,1,0,0:0:0:0:
64,192,94906,1,0,0:0:0:0:
64,192,94937,1,0,0:0:0:0:
64,192,94968,1,0,0:0:0:0:
64,192,95000,1,0,0:0:0:0:
64,192,95031,1,0,0:0:0:0:
64,192,95062,1,0,0:0:0:0:
64,192,95093,1,0,0:0:0:0:
64,192,95156,1,0,0:0:0:0:
64,192,95187,1,0,0:0:0:0:
320,192,95250,1,0,0:0:0:0:
320,192,95281,1,0,0:0:0:0:
192,192,95281,1,0,0:0:0:0:
320,192,95312,1,0,0:0:0:0:
192,192,95312,1,0,0:0:0:0:
448,192,95312,1,0,0:0:0:0:
192,192,95343,1,0,0:0:0:0:
64,192,95343,1,0,0:0:0:0:
448,192,95343,1,0,0:0:0:0:
320,192,95375,1,0,0:0:0:0:
192,192,95375,1,0,0:0:0:0:
448,192,95406,1,0,0:0:0:0:
320,192,95437,1,0,0:0:0:0:
192,192,95437,1,0,0:0:0:0:
448,192,95468,1,0,0:0:0:0:
192,192,95468,1,0,0:0:0:0:
64,192,95468,1,0,0:0:0:0:
448,192,95500,1,0,0:0:0:0:
320,192,95500,1,0,0:0:0:0:
448,192,95531,1,0,0:0:0:0:
320,192,95531,1,0,0:0:0:0:
192,192,95531,1,0,0:0:0:0:
320,192,95562,1,0,0:0:0:0:
192,192,95562,1,0,0:0:0:0:
448,192,95593,1,0,0:0:0:0:
448,192,95625,1,0,0:0:0:0:
320,192,95625,1,0,0:0:0:0:
448,192,95656,1,0,0:0:0:0:
320,192,95687,1,0,0:0:0:0:
448,192,95687,1,0,0:0:0:0:
448,192,95718,1,0,0:0:0:0:
448,192,95781,1,0,0:0:0:0:
64,192,95781,128,0,96156:0:0:0:0:
192,192,95906,128,0,96156:0:0:0:0:
64,192,96218,1,0,0:0:0:0:
64,192,96375,1,0,0:0:0:0:
192,192,96437,1,0,0:0:0:0:
64,192,96437,1,0,0:0:0:0:
320,192,96500,1,0,0:0:0:0:
448,192,96500,1,0,0:0:0:0:
64,192,96531,1,0,0:0:0:0:
192,192,96531,1,0,0:0:0:0:
448,192,96562,128,0,96718:0:0:0:0:
64,192,96562,1,0,0:0:0:0:
192,192,96562,1,0,0:0:0:0:
320,192,96593,1,0,0:0:0:0:
192,192,96593,1,0,0:0:0:0:
64,192,96593,1,0,0:0:0:0:
320,192,96625,1,0,0:0:0:0:
64,192,96625,1,0,0:0:0:0:
320,192,96656,1,0,0:0:0:0:
64,192,96656,1,0,0:0:0:0:
320,192,96687,1,0,0:0:0:0:
64,192,96687,1,0,0:0:0:0:
192,192,96687,1,0,0:0:0:0:
320,192,96718,1,0,0:0:0:0:
64,192,96718,1,0,0:0:0:0:
320,192,96750,1,0,0:0:0:0:
192,192,96750,1,0,0:0:0:0:
64,192,96750,1,0,0:0:0:0:
320,192,96812,1,0,0:0:0:0:
448,192,96812,1,0,0:0:0:0:
192,192,96843,1,0,0:0:0:0:
448,192,96843,1,0,0:0:0:0:
64,192,96843,1,0,0:0:0:0:
192,192,96875,1,0,0:0:0:0:
448,192,96875,1,0,0:0:0:0:
320,192,96875,1,0,0:0:0:0:
64,192,96875,1,0,0:0:0:0:
448,192,96906,1,0,0:0:0:0:
192,192,96906,1,0,0:0:0:0:
64,192,96906,1,0,0:0:0:0:
320,192,96937,1,0,0:0:0:0:
320,192,96968,1,0,0:0:0:0:
192,192,96968,128,0,97093:0:0:0:0:
320,192,97000,1,0,0:0:0:0:
448,192,97000,1,0,0:0:0:0:
64,192,97000,1,0,0:0:0:0:
320,192,97062,1,0,0:0:0:0:
448,192,97062,1,0,0:0:0:0:
64,192,97093,1,0,0:0:0:0:
320,192,97093,1,0,0:0:0:0:
320,192,97125,1,0,0:0:0:0:
448,192,97125,1,0,0:0:0:0:
64,192,97156,1,0,0:0:0:0:
192,192,97156,1,0,0:0:0:0:
448,192,97187,1,0,0:0:0:0:
320,192,97187,1,0,0:0:0:0:
192,192,97218,1,0,0:0:0:0:
64,192,97218,1,0,0:0:0:0:
192,192,97437,1,0,0:0:0:0:
320,192,97437,128,0,97593:0:0:0:0:
448,192,97562,1,0,0:0:0:0:
320,192,97718,1,0,0:0:0:0:
448,192,97750,1,0,0:0:0:0:
320,192,97750,1,0,0:0:0:0:
192,192,97750,1,0,0:0:0:0:
448,192,97781,1,0,0:0:0:0:
64,192,97781,1,0,0:0:0:0:
320,192,97812,1,0,0:0:0:0:
192,192,97812,1,0,0:0:0:0:
64,192,97875,1,0,0:0:0:0:
192,192,97875,1,0,0:0:0:0:
320,192,97906,1,0,0:0:0:0:
448,192,97906,1,0,0:0:0:0:
192,192,97906,1,0,0:0:0:0:
320,192,97937,1,0,0:0:0:0:
64,192,98000,1,0,0:0:0:0:
448,192,98187,1,0,0:0:0:0:
448,192,98250,1,0,0:0:0:0:
448,192,98312,1,0,0:0:0:0:
64,192,98375,1,0,0:0:0:0:
64,192,98437,1,0,0:0:0:0:
64,192,98468,1,0,0:0:0:0:
192,192,98531,1,0,0:0:0:0:
192,192,98562,1,0,0:0:0:0:
192,192,98593,1,0,0:0:0:0:
192,192,98625,1,0,0:0:0:0:
192,192,98656,1,0,0:0:0:0:
192,192,98687,1,0,0:0:0:0:
192,192,98718,1,0,0:0:0:0:
192,192,98781,1,0,0:0:0:0:
192,192,98843,1,0,0:0:0:0:
192,192,98875,1,0,0:0:0:0:
192,192,98906,1,0,0:0:0:0:
192,192,98937,1,0,0:0:0:0:
448,192,99000,1,0,0:0:0:0:
64,192,99031,1,0,0:0:0:0:
192,192,99031,1,0,0:0:0:0:
320,192,99031,1,0,0:0:0:0:
192,192,99062,1,0,0:0:0:0:
320,192,99062,1,0,0:0:0:0:
448,192,99062,1,0,0:0:0:0:
64,192,99093,1,0,0:0:0:0:
192,192,99093,1,0,0:0:0:0:
64,192,99125,1,0,0:0:0:0:
192,192,99125,1,0,0:0:0:0:
320,192,99125,1,0,0:0:0:0:
64,192,99156,1,0,0:0:0:0:
192,192,99156,1,0,0:0:0:0:
320,192,99156,1,0,0:0:0:0:
448,192,99156,1,0,0:0:0:0:
64,192,99187,1,0,0:0:0:0:
192,192,99187,1,0,0:0:0:0:
64,192,99218,1,0,0:0:0:0:
320,192,99218,1,0,0:0:0:0:
448,192,99218,1,0,0:0:0:0:
64,192,99250,1,0,0:0:0:0:
320,192,99250,1,0,0:0:0:0:
192,192,99250,1,0,0:0:0:0:
320,192,99281,1,0,0:0:0:0:
448,192,99281,1,0,0:0:0:0:
320,192,99312,1,0,0:0:0:0:
64,192,99343,1,0,0:0:0:0:
192,192,99343,1,0,0:0:0:0:
448,192,99343,1,0,0:0:0:0:
64,192,99406,1,0,0:0:0:0:
192,192,99406,1,0,0:0:0:0:
320,192,99406,1,0,0:0:0:0:
448,192,99406,1,0,0:0:0:0:
64,192,99437,1,0,0:0:0:0:
320,192,99437,1,0,0:0:0:0:
192,192,99437,1,0,0:0:0:0:
64,192,99468,1,0,0:0:0:0:
64,192,99531,1,0,0:0:0:0:
320,192,99562,1,0,0:0:0:0:
448,192,99562,1,0,0:0:0:0:
64,192,99562,1,0,0:0:0:0:
192,192,99562,128,0,99781:0:0:0:0:
64,192,99875,1,0,0:0:0:0:
192,192,100000,1,0,0:0:0:0:
448,192,100062,1,0,0:0:0:0:
192,192,100218,1,0,0:0:0:0:
320,192,100343,1,0,0:0:0:0:
448,192,100468,1,0,0:0:0:0:
64,192,100562,1,0,0:0:0:0:
192,192,100656,1,0,0:0:0:0:
320,192,100687,1,0,0:0:0:0:
320,192,100718,1,0,0:0:0:0:
320,192,100750,1,0,0:0:0:0:
448,192,100875,1,0,0:0:0:0:
64,192,101000,1,0,0:0:0:0:
320,192,101062,1,0,0:0:0:0:
192,192,101125,1,0,0:0:0:0:
64,192,101281,1,0,0:0:0:0:
192,192,101343,1,0,0:0:0:0:
320,192,101437,1,0,0:0:0:0:
448,192,101562,1,0,0:0:0:0:
192,192,101656,1,0,0:0:0:0:
64,192,101843,1,0,0:0:0:0:
64,192,101875,1,0,0:0:0:0:
64,192,101906,1,0,0:0:0:0:
64,192,101937,1,0,0:0:0:0:
64,192,101968,1,0,0:0:0:0:
448,192,102031,1,0,0:0:0:0:
448,192,102062,1,0,0:0:0:0:
448,192,102093,1,0,0:0:0:0:
448,192,102125,1,0,0:0:0:0:
448,192,102156,1,0,0:0:0:0:
448,192,102187,1,0,0:0:0:0:
448,192,102218,1,0,0:0:0:0:
320,192,102343,1,0,0:0:0:0:
192,192,102468,1,0,0:0:0:0:
64,192,102562,1,0,0:0:0:0:
192,192,102656,1,0,0:0:0:0:
320,192,102718,1,0,0:0:0:0:
448,192,102750,128,0,103031:0:0:0:0:
320,192,103187,128,0,103468:0:0:0:0:
192,192,103343,128,0,103687:0:0:0:0:
64,192,103687,128,0,103937:0:0:0:0:
448,192,104000,1,0,0:0:0:0:
320,192,104187,1,0,0:0:0:0:
192,192,104250,1,0,0:0:0:0:
320,192,104375,1,0,0:0:0:0:
448,192,104468,1,0,0:0:0:0:
448,192,104531,1,0,0:0:0:0:
448,192,104562,1,0,0:0:0:0:
320,192,104656,1,0,0:0:0:0:
320,192,104750,1,0,0:0:0:0:
192,192,104812,1,0,0:0:0:0:
64,192,104937,1,0,0:0:0:0:
320,192,105031,1,0,0:0:0:0:
448,192,105125,1,0,0:0:0:0:
192,192,105187,1,0,0:0:0:0:
448,192,105343,1,0,0:0:0:0:
448,192,105562,1,0,0:0:0:0:
448,192,105656,1,0,0:0:0:0:
64,192,105718,1,0,0:0:0:0:
64,192,105812,1,0,0:0:0:0:
448,192,105843,1,0,0:0:0:0:
320,192,105875,1,0,0:0:0:0:
448,192,105937,1,0,0:0:0:0:
320,192,105937,1,0,0:0:0:0:
320,192,105968,1,0,0:0:0:0:
320,192,106000,1,0,0:0:0:0:
448,192,106125,1,0,0:0:0:0:
448,192,106187,1,0,0:0:0:0:
448,192,106250,1,0,0:0:0:0:
448,192,106281,1,0,0:0:0:0:
64,192,106406,1,0,0:0:0:0:
64,192,106468,1,0,0:0:0:0:
64,192,106500,1,0,0:0:0:0:
64,192,106625,1,0,0:0:0:0:
448,192,106656,1,0,0:0:0:0:
192,192,106750,1,0,0:0:0:0:
320,192,106750,1,0,0:0:0:0:
320,192,106812,1,0,0:0:0:0:
192,192,106843,1,0,0:0:0:0:
320,192,106906,1,0,0:0:0:0:
192,192,106968,1,0,0:0:0:0:
320,192,107031,1,0,0:0:0:0:
192,192,107062,1,0,0:0:0:0:
64,192,107125,1,0,0:0:0:0:
192,192,107250,1,0,0:0:0:0:
192,192,107312,1,0,0:0:0:0:
192,192,107343,1,0,0:0:0:0:
320,192,107468,1,0,0:0:0:0:
320,192,107531,1,0,0:0:0:0:
192,192,107531,1,0,0:0:0:0:
320,192,107593,1,0,0:0:0:0:
448,192,107625,1,0,0:0:0:0:
64,192,107687,1,0,0:0:0:0:
320,192,107718,1,0,0:0:0:0:
192,192,107781,1,0,0:0:0:0:
64,192,107843,1,0,0:0:0:0:
192,192,107968,1,0,0:0:0:0:
320,192,108000,1,0,0:0:0:0:
448,192,108031,1,0,0:0:0:0:
64,192,108125,1,0,0:0:0:0:
192,192,108312,1,0,0:0:0:0:
320,192,108375,1,0,0:0:0:0:
448,192,108406,1,0,0:0:0:0:
192,192,108500,1,0,0:0:0:0:
320,192,108531,1,0,0:0:0:0:
448,192,108531,1,0,0:0:0:0:
320,192,108593,1,0,0:0:0:0:
192,192,108593,1,0,0:0:0:0:
448,192,108625,1,0,0:0:0:0:
448,192,108656,1,0,0:0:0:0:
192,192,108687,1,0,0:0:0:0:
320,192,108687,1,0,0:0:0:0:
448,192,108750,1,0,0:0:0:0:
320,192,108781,1,0,0:0:0:0:
320,192,108812,1,0,0:0:0:0:
320,192,108843,1,0,0:0:0:0:
192,192,108843,1,0,0:0:0:0:
320,192,108875,1,0,0:0:0:0:
448,192,108875,1,0,0:0:0:0:
320,192,108968,1,0,0:0:0:0:
448,192,108968,1,0,0:0:0:0:
192,192,108968,1,0,0:0:0:0:
320,192,109000,1,0,0:0:0:0:
320,192,109062,1,0,0:0:0:0:
448,192,109062,1,0,0:0:0:0:
192,192,109093,1,0,0:0:0:0:
192,192,109187,1,0,0:0:0:0:
448,192,109218,1,0,0:0:0:0:
448,192,109250,1,0,0:0:0:0:
320,192,109250,1,0,0:0:0:0:
448,192,109281,1,0,0:0:0:0:
320,192,109281,1,0,0:0:0:0:
448,192,109312,1,0,0:0:0:0:
192,192,109312,1,0,0:0:0:0:
64,192,109312,128,0,109562:0:0:0:0:
448,192,109343,1,0,0:0:0:0:
192,192,109562,1,0,0:0:0:0:
192,192,109625,1,0,0:0:0:0:
192,192,109656,1,0,0:0:0:0:
192,192,109718,1,0,0:0:0:0:
448,192,109718,1,0,0:0:0:0:
192,192,109781,1,0,0:0:0:0:
448,192,109781,1,0,0:0:0:0:
192,192,109812,1,0,0:0:0:0:
192,192,109812,1,0,0:0:0:0:
448,192,109843,1,0,0:0:0:0:
448,192,109906,1,0,0:0:0:0:
448,192,109906,1,0,0:0:0:0:
192,192,109937,1,0,0:0:0:0:
320,192,110031,1,0,0:0:0:0:
192,192,110062,1,0,0:0:0:0:
320,192,110062,1,0,0:0:0:0:
192,192,110156,1,0,0:0:0:0:
320,192,110156,1,0,0:0:0:0:
192,192,110187,1,0,0:0:0:0:
320,192,110218,1,0,0:0:0:0:
192,192,110250,1,0,0:0:0:0:
320,192,110250,1,0,0:0:0:0:
192,192,110312,1,0,0:0:0:0:
320,192,110343,1,0,0:0:0:0:
320,192,110406,1,0,0:0:0:0:
192,192,110406,1,0,0:0:0:0:
320,192,110437,1,0,0:0:0:0:
192,192,110437,1,0,0:0:0:0:
320,192,110468,1,0,0:0:0:0:
320,192,110500,1,0,0:0:0:0:
192,192,110500,1,0,0:0:0:0:
192,192,110625,1,0,0:0:0:0:
448,192,110781,1,0,0:0:0:0:
448,192,110812,1,0,0:0:0:0:
448,192,110843,1,0,0:0:0:0:
192,192,110843,1,0,0:0:0:0:
192,192,110937,1,0,0:0:0:0:
192,192,110968,1,0,0:0:0:0:
448,192,111000,1,0,0:0:0:0:
192,192,111031,1,0,0:0:0:0:
192,192,111062,1,0,0:0:0:0:
448,192,111062,1,0,0:0:0:0:
192,192,111125,1,0,0:0:0:0:
192,192,111187,1,0,0:0:0:0:
192,192,111250,1,0,0:0:0:0:
192,192,111312,128,0,111437:0:0:0:0:
192,192,111593,1,0,0:0:0:0:
192,192,111687,1,0,0:0:0:0:
320,192,111718,1,0,0:0:0:0:
320,192,111812,1,0,0:0:0:0:
320,192,111906,1,0,0:0:0:0:
64,192,112000,1,0,0:0:0:0:
192,192,112062,1,0,0:0:0:0:
320,192,112093,1,0,0:0:0:0:
448,192,112156,1,0,0:0:0:0:
448,192,112218,1,0,0:0:0:0:
192,192,112375,1,0,0:0:0:0:
192,192,112500,1,0,0:0:0:0:
448,192,112562,1,0,0:0:0:0:
320,192,112687,1,0,0:0:0:0:
320,192,112781,1,0,0:0:0:0:
64,192,112906,1,0,0:0:0:0:
192,192,112968,1,0,0:0:0:0:
448,192,113062,1,0,0:0:0:0:
320,192,113125,1,0,0:0:0:0:
192,192,113187,1,0,0:0:0:0:
192,192,113250,1,0,0:0:0:0:
320,192,113312,1,0,0:0:0:0:
448,192,113406,1,0,0:0:0:0:
192,192,113468,1,0,0:0:0:0:
448,192,113531,1,0,0:0:0:0:
320,192,113593,1,0,0:0:0:0:
192,192,113656,1,0,0:0:0:0:
192,192,113687,1,0,0:0:0:0:
192,192,113718,1,0,0:0:0:0:
192,192,113750,1,0,0:0:0:0:
192,192,113781,1,0,0:0:0:0:
448,192,113812,128,0,113968:0:0:0:0:
192,192,114000,1,0,0:0:0:0:
192,192,114062,1,0,0:0:0:0:
320,192,114156,1,0,0:0:0:0:
448,192,114218,1,0,0:0:0:0:
448,192,114281,1,0,0:0:0:0:
320,192,114375,1,0,0:0:0:0:
192,192,114375,1,0,0:0:0:0:
64,192,114375,128,0,114625:0:0:0:0:
192,192,114437,1,0,0:0:0:0:
320,192,114468,1,0,0:0:0:0:
192,192,114531,1,0,0:0:0:0:
320,192,114562,1,0,0:0:0:0:
192,192,114812,1,0,0:0:0:0:
192,192,114968,1,0,0:0:0:0:
192,192,115125,1,0,0:0:0:0:
192,192,115250,1,0,0:0:0:0:
192,192,115375,1,0,0:0:0:0:
192,192,115562,1,0,0:0:0:0:
64,192,115562,1,0,0:0:0:0:
448,192,115812,1,0,0:0:0:0:
448,192,116000,1,0,0:0:0:0:
448,192,116156,1,0,0:0:0:0:
448,192,116281,1,0,0:0:0:0:
448,192,116468,1,0,0:0:0:0:
192,192,116468,1,0,0:0:0:0:
64,192,116781,1,0,0:0:0:0:
64,192,116968,1,0,0:0:0:0:
64,192,117125,1,0,0:0:0:0:
64,192,117250,1,0,0:0:0:0:
320,192,117437,1,0,0:0:0:0:
64,192,117437,1,0,0:0:0:0:
448,192,117718,1,0,0:0:0:0:
448,192,117906,1,0,0:0:0:0:
448,192,118062,1,0,0:0:0:0:
320,192,118093,1,0,0:0:0:0:
192,192,118093,1,0,0:0:0:0:
64,192,118125,1,0,0:0:0:0:
192,192,118125,1,0,0:0:0:0:
320,192,118125,1,0,0:0:0:0:
448,192,118125,1,0,0:0:0:0:
448,192,118156,1,0,0:0:0:0:
64,192,118156,1,0,0:0:0:0:
320,192,118156,1,0,0:0:0:0:
192,192,118156,1,0,0:0:0:0:
448,192,118187,1,0,0:0:0:0:
64,192,118187,1,0,0:0:0:0:
192,192,118187,1,0,0:0:0:0:
320,192,118187,1,0,0:0:0:0:
448,192,118218,1,0,0:0:0:0:
64,192,118218,1,0,0:0:0:0:
192,192,118218,1,0,0:0:0:0:
320,192,118218,1,0,0:0:0:0:
448,192,118250,1,0,0:0:0:0:
192,192,118250,1,0,0:0:0:0:
320,192,118250,1,0,0:0:0:0:
64,192,118250,128,0,118375:0:0:0:0:
448,192,118281,1,0,0:0:0:0:
192,192,118281,1,0,0:0:0:0:
320,192,118281,1,0,0:0:0:0:
64,192,118500,1,0,0:0:0:0:
64,192,118625,1,0,0:0:0:0:
192,192,118843,1,0,0:0:0:0:
320,192,118875,1,0,0:0:0:0:
192,192,119031,1,0,0:0:0:0:
320,192,119093,1,0,0:0:0:0:
192,192,119187,1,0,0:0:0:0:
192,192,119218,1,0,0:0:0:0:
192,192,119250,1,0,0:0:0:0:
192,192,119281,1,0,0:0:0:0:
192,192,119312,1,0,0:0:0:0:
448,192,119343,128,0,119625:0:0:0:0:
448,192,119812,1,0,0:0:0:0:
448,192,119843,1,0,0:0:0:0:
448,192,119875,1,0,0:0:0:0:
448,192,119906,1,0,0:0:0:0:
320,192,120031,1,0,0:0:0:0:
448,192,120031,1,0,0:0:0:0:
192,192,120125,1,0,0:0:0:0:
448,192,120218,1,0,0:0:0:0:
320,192,120218,1,0,0:0:0:0:
64,192,120312,1,0,0:0:0:0:
64,192,120375,1,0,0:0:0:0:
64,192,120406,1,0,0:0:0:0:
64,192,120437,1,0,0:0:0:0:
320,192,120468,128,0,120718:0:0:0:0:
64,192,120812,1,0,0:0:0:0:
64,192,120875,1,0,0:0:0:0:
64,192,120906,1,0,0:0:0:0:
64,192,120968,1,0,0:0:0:0:
192,192,121062,1,0,0:0:0:0:
320,192,121125,1,0,0:0:0:0:
192,192,121343,1,0,0:0:0:0:
320,192,121375,1,0,0:0:0:0:
192,192,121531,1,0,0:0:0:0:
192,192,121562,1,0,0:0:0:0:
192,192,121593,1,0,0:0:0:0:
192,192,121625,1,0,0:0:0:0:
448,192,121781,1,0,0:0:0:0:
448,192,121843,128,0,121968:0:0:0:0:
320,192,122000,128,0,122156:0:0:0:0:
448,192,122031,1,0,0:0:0:0:
448,192,122093,1,0,0:0:0:0:
