osu file format v14

[General]
AudioFilename: audio.mp3
AudioLeadIn: 0
PreviewTime: 35451
Countdown: 0
SampleSet: Drum
StackLeniency: 0.7
Mode: 0
LetterboxInBreaks: 0
WidescreenStoryboard: 0

[Editor]
DistanceSpacing: 0.7
BeatDivisor: 4
GridSize: 32
TimelineZoom: 1

[Metadata]
Title:Ga-Chi-I-Ku
TitleUnicode:Ga-Chi-I-Ku
Artist:AIdveNt
ArtistUnicode:AIdveNt
Creator:AdveNt
Version:IKU
Source:suno.AI
Tags:
BeatmapID:4584185
BeatmapSetID:2171859

[Difficulty]
HPDrainRate:5
CircleSize:4.2
OverallDifficulty:9.5
ApproachRate:9.8
SliderMultiplier:3.59999990463257
SliderTickRate:1

[Events]
//Background and Video events
0,0,"TSnOevaLkxzjHQT1714118853_1714118884.png",0,0
//Break Periods
//Storyboard Layer 0 (Background)
//Storyboard Layer 1 (Fail)
//Storyboard Layer 2 (Pass)
//Storyboard Layer 3 (Foreground)
//Storyboard Layer 4 (Overlay)
//Storyboard Sound Samples

[TimingPoints]
15,402.684563758389,4,3,1,70,1,0
1625,-100,4,3,1,70,0,0
2833,-200,4,3,1,70,0,0
3035,-66.6666666666667,4,3,1,70,0,0
3236,-100,4,3,1,70,0,0
4847,-66.6666666666667,4,3,1,70,0,0
5249,-100,4,3,1,70,0,0
7263,-66.6666666666667,4,3,1,70,0,0
7666,-100,4,3,1,70,0,0
10484,-66.6666666666667,4,3,1,70,0,0
11692,-100,4,3,1,70,0,0
12900,-66.6666666666667,4,3,1,70,0,0
14511,-100,4,3,1,70,0,0
24176,-66.6666666666667,4,3,1,70,0,0
24578,-100,4,3,1,70,0,0
30619,-66.6666666666667,4,3,1,70,0,0
31021,-100,4,3,1,70,0,0
35652,-250,4,3,1,5,0,0
36961,-250,4,3,1,5,0,0
37061,-66.6666666666667,4,3,1,100,0,0
37162,-66.6666666666667,4,3,1,80,0,0
40283,-55.5555555555556,4,3,1,80,0,0
41491,-66.6666666666667,4,3,1,80,0,0
41894,-55.5555555555556,4,3,1,80,0,0
43504,-66.6666666666667,4,3,1,80,0,0
49545,-333.333333333333,4,3,1,5,0,0
49947,-66.6666666666667,4,3,1,80,0,0
54780,-100,4,3,1,60,0,0
56390,-55.5555555555556,4,3,1,80,0,0
62833,-100,4,3,1,70,0,0
67666,-500,4,3,1,70,0,0
68471,-100,4,3,1,70,0,0
74108,-66.6666666666667,4,3,1,70,0,0
75719,-100,4,3,1,70,0,0
81155,-66.6666666666667,4,3,1,70,0,0
81558,-100,4,3,1,70,0,0
86994,-66.6666666666667,4,3,1,70,0,0
87396,-100,4,3,1,70,0,0
93437,-66.6666666666667,4,3,1,70,0,0
93839,-100,4,3,1,70,0,0
98471,-250,4,3,1,70,0,0
99880,-66.6666666666667,4,3,1,100,0,0
99981,-66.6666666666667,4,3,1,80,0,0
111357,-250,4,3,1,80,0,0
112968,-1000,4,3,1,80,0,0

[Colours]
Combo1 : 55,255,55
Combo2 : 255,255,32
Combo3 : 255,74,165
Combo4 : 66,255,255

[HitObjects]
410,167,1625,6,0,B|428:199|428:199|346:177,1,89.9999976158142,6|0,3:1|0:0,0:0:0:0:
260,98,1827,2,0,L|385:73,1,89.9999976158142,8|0,3:1|0:0,0:0:0:0:
221,296,2028,1,2,3:1:0:0:
171,253,2129,1,0,0:0:0:0:
123,299,2229,1,8,0:1:0:0:
81,296,2330,1,0,0:0:0:0:
36,259,2431,2,0,B|14:228|14:228|37:169,1,89.9999976158142,2|0,3:1|0:0,0:0:0:0:
189,33,2632,1,8,0:1:0:0:
159,125,2733,1,0,0:0:0:0:
92,56,2833,2,0,P|86:41|97:55,1,44.9999988079071,2|0,3:1|0:0,0:0:0:0:
260,98,3035,6,0,L|220:287,1,135.000001573563,8|0,0:1|0:0,0:0:0:0:
335,354,3236,5,2,3:1:0:0:
407,326,3337,1,0,0:0:0:0:
433,255,3437,1,8,0:1:0:0:
361,227,3538,1,0,0:0:0:0:
340,159,3639,2,0,B|360:96|360:96|386:84|386:84|471:95,1,179.999995231628,2|8,3:1|0:1,0:0:0:0:
509,164,3941,1,0,0:0:0:0:
431,247,4041,1,2,3:1:0:0:
433,255,4142,1,0,0:0:0:0:
512,295,4243,2,0,L|490:388,1,89.9999976158142,8|0,0:1|0:0,0:0:0:0:
336,360,4444,2,0,L|358:267,1,89.9999976158142,2|0,3:1|0:0,0:0:0:0:
512,295,4645,2,0,L|490:388,1,89.9999976158142,8|0,0:1|0:0,0:0:0:0:
313,349,4847,6,0,L|381:78,1,270.000003147125,2|8,3:1|0:1,0:0:0:0:
464,58,5149,1,0,0:0:0:0:
476,73,5249,2,0,L|454:170,1,89.9999976158142,2|0,3:1|0:0,0:0:0:0:
456,160,5451,1,8,0:1:0:0:
243,248,5652,2,0,L|279:125,1,89.9999976158142,2|0,3:1|0:0,0:0:0:0:
218,93,5853,1,8,0:1:0:0:
218,93,5954,1,0,0:0:0:0:
88,155,6055,2,0,P|130:183|198:173,1,89.9999976158142,2|0,3:1|0:0,0:0:0:0:
315,87,6256,2,0,P|357:59|425:69,1,89.9999976158142,8|0,0:1|0:0,0:0:0:0:
497,205,6457,5,2,3:1:0:0:
447,285,6558,1,0,0:0:0:0:
387,225,6659,2,0,L|280:197,1,89.9999976158142,8|0,0:1|0:0,0:0:0:0:
268,367,6860,5,2,3:1:0:0:
218,287,6961,1,0,0:0:0:0:
158,347,7062,2,0,L|51:375,1,89.9999976158142,8|0,0:1|0:0,0:0:0:0:
88,155,7263,6,0,B|26:145|26:145|157:88|157:88|71:184|90:296,1,405.000004720688,2|0,3:1|0:0,0:0:0:0:
164,198,7666,2,0,P|119:163|54:154,1,89.9999976158142,2|0,3:1|0:0,0:0:0:0:
268,367,7867,2,0,P|313:340|367:334,1,89.9999976158142,8|0,0:1|0:0,0:0:0:0:
488,93,8068,6,0,P|445:134|440:173,1,89.9999976158142,2|0,3:1|0:0,0:0:0:0:
269,217,8270,2,0,P|278:169|243:123,1,89.9999976158142,8|0,0:1|0:0,0:0:0:0:
184,333,8471,2,0,P|225:346|298:388,1,89.9999976158142,2|0,3:1|0:0,0:0:0:0:
84,23,8672,2,0,P|29:44|0:80,1,89.9999976158142,8|0,0:1|0:0,0:0:0:0:
21,265,8874,1,2,3:1:0:0:
21,265,8974,1,0,0:0:0:0:
120,246,9075,2,0,P|129:196|75:152,1,89.9999976158142,8|0,0:1|0:0,0:0:0:0:
228,55,9276,2,0,P|278:136|240:259,1,179.999995231628,2|8,3:1|0:1,0:0:0:0:
333,279,9578,1,0,0:0:0:0:
423,250,9679,6,0,P|430:231|361:226,1,89.9999976158142,2|0,3:1|0:0,0:0:0:0:
24,74,9880,1,8,0:1:0:0:
38,147,9981,1,0,0:0:0:0:
108,165,10082,1,2,3:1:0:0:
134,105,10182,1,0,0:0:0:0:
192,66,10283,1,8,0:1:0:0:
231,128,10384,1,0,0:0:0:0:
300,146,10484,2,0,B|330:102|330:102|330:69|330:69|368:-3,2,135.000001573563,2|0|8,3:1|0:0|0:1,0:0:0:0:
319,239,10786,1,0,0:0:0:0:
232,264,10887,2,0,B|202:308|202:308|202:341|202:341|164:413,2,135.000001573563,2|0|8,3:1|0:0|0:1,0:0:0:0:
331,237,11189,1,0,0:0:0:0:
405,213,11290,6,0,B|483:197|483:197|281:142,1,270.000003147125,2|8,3:1|0:1,0:0:0:0:
299,146,11592,1,0,0:0:0:0:
347,75,11692,2,0,L|454:100,1,89.9999976158142,2|0,3:1|0:0,0:0:0:0:
165,309,11894,2,0,L|58:284,1,89.9999976158142,8|0,0:1|0:0,0:0:0:0:
373,283,12095,2,0,L|348:390,1,89.9999976158142,2|0,3:1|0:0,0:0:0:0:
139,101,12297,2,0,L|164:-6,1,89.9999976158142,8|0,0:1|0:0,0:0:0:0:
165,309,12498,2,0,L|58:284,1,89.9999976158142,2|0,3:1|0:0,0:0:0:0:
347,75,12700,2,0,L|454:100,1,89.9999976158142,8|0,0:1|0:0,0:0:0:0:
318,346,12900,6,0,B|355:296|355:296|294:209|294:209|236:201|236:201|190:134|190:134|248:44,1,405.000004720688,2|0,3:1|0:0,0:0:0:0:
243,53,13303,2,0,B|295:134|295:134|249:201|249:201|191:209|191:209|130:296|130:296|167:346,1,405.000004720688,2|0,3:1|0:0,0:0:0:0:
245,384,13706,5,2,3:1:0:0:
98,115,14511,6,0,B|16:56|16:56|136:101,1,179.999995231628,6|8,3:1|0:1,0:0:0:0:
229,160,14813,1,0,0:0:0:0:
148,212,14914,2,0,L|109:329,1,89.9999976158142,2|0,3:1|0:0,0:0:0:0:
245,384,15115,2,0,L|284:267,1,89.9999976158142,8|0,0:1|0:0,0:0:0:0:
401,39,15317,5,2,3:1:0:0:
417,46,15417,1,0,0:0:0:0:
453,93,15518,1,8,0:1:0:0:
450,110,15619,1,0,0:0:0:0:
411,144,15719,1,2,3:1:0:0:
396,154,15820,1,0,0:0:0:0:
396,211,15921,1,8,0:1:0:0:
410,221,16021,1,0,0:0:0:0:
465,239,16122,6,0,B|495:225|495:225|501:186|501:186|468:158,1,89.9999976158142,2|0,3:1|0:0,0:0:0:0:
271,91,16323,1,8,0:1:0:0:
246,180,16424,1,0,0:0:0:0:
272,77,16525,2,0,B|285:59|285:59|328:60|328:60|348:108,1,89.9999976158142,2|0,3:1|0:0,0:0:0:0:
302,287,16726,2,0,L|101:237,1,179.999995231628,8|2,0:1|3:1,0:0:0:0:
127,243,17129,2,0,L|328:293,2,179.999995231628,8|2|8,0:1|3:1|0:1,0:0:0:0:
32,43,17733,6,0,B|19:61|19:61|39:134,1,89.9999976158142,2|0,3:1|0:0,0:0:0:0:
14,231,17934,2,0,L|135:182,1,89.9999976158142,8|0,0:1|0:0,0:0:0:0:
246,355,18135,2,0,L|367:306,1,89.9999976158142,2|0,3:1|0:0,0:0:0:0:
263,82,18337,2,0,B|293:60|316:58|316:58|340:54|343:60|426:29|437:40|437:40|426:21|520:9,1,269.999992847443,8|0,0:1|0:0,0:0:0:0:
499,100,18739,1,8,0:1:0:0:
418,142,18840,1,0,0:0:0:0:
493,200,18941,2,0,L|470:307,1,89.9999976158142,2|0,3:1|0:0,0:0:0:0:
329,321,19142,1,8,0:1:0:0:
307,229,19243,1,0,0:0:0:0:
336,336,19343,6,0,B|390:364|390:364|419:355,1,89.9999976158142,2|0,3:1|0:0,0:0:0:0:
247,143,19545,1,8,0:1:0:0:
143,193,19645,1,0,0:0:0:0:
256,139,19746,2,0,B|281:116|281:116|278:81|278:81|232:37,1,89.9999976158142,2|0,3:1|0:0,0:0:0:0:
155,36,19947,2,0,B|130:59|130:59|133:94|133:94|179:138,1,89.9999976158142,8|0,0:1|0:0,0:0:0:0:
321,223,20149,5,2,3:1:0:0:
331,238,20249,1,0,0:0:0:0:
343,299,20350,1,8,0:1:0:0:
397,258,20451,1,0,0:0:0:0:
429,249,20551,1,2,3:1:0:0:
460,255,20652,1,0,0:0:0:0:
507,186,20753,2,0,P|524:138|489:101,1,89.9999976158142,8|0,0:1|0:0,0:0:0:0:
314,22,20954,5,2,3:1:0:0:
314,22,21055,1,0,0:0:0:0:
347,96,21155,2,0,L|451:69,1,89.9999976158142,8|0,0:1|0:0,0:0:0:0:
186,133,21357,1,2,3:1:0:0:
232,208,21457,1,0,0:0:0:0:
166,261,21558,2,0,L|72:229,1,89.9999976158142,8|0,0:1|0:0,0:0:0:0:
309,362,21759,1,2,3:1:0:0:
377,312,21860,2,0,B|384:265|384:265|344:227,1,89.9999976158142,0|8,0:0|0:1,0:0:0:0:
186,133,22061,1,0,0:0:0:0:
118,83,22162,2,0,B|111:36|111:36|151:-2,1,89.9999976158142,2|0,3:1|0:0,0:0:0:0:
256,0,22363,5,8,0:1:0:0:
382,55,24176,6,0,B|419:84|419:84|339:309,1,270.000003147125,6|0,3:1|0:0,0:0:0:0:
344,294,24478,1,0,0:0:0:0:
285,358,24578,6,0,L|96:319,1,179.999995231628,2|0,3:1|0:0,0:0:0:0:
46,156,24981,2,0,L|235:117,1,179.999995231628,2|0,3:1|0:0,0:0:0:0:
285,358,25384,2,0,L|96:319,1,179.999995231628,2|0,3:1|0:0,0:0:0:0:
475,73,25786,6,0,P|441:168|349:171,1,179.999995231628,2|0,3:1|0:0,0:0:0:0:
174,215,26189,2,0,P|68:209|31:293,1,179.999995231628,2|0,3:1|0:0,0:0:0:0:
475,73,26592,2,0,P|441:168|349:171,1,179.999995231628,2|0,3:1|0:0,0:0:0:0:
129,43,26994,1,2,3:1:0:0:
261,14,27196,1,0,0:0:0:0:
129,43,27397,5,2,3:1:0:0:
204,68,27498,1,0,0:0:0:0:
261,14,27599,1,0,0:0:0:0:
163,161,27800,1,2,3:1:0:0:
295,190,28002,1,0,0:0:0:0:
179,364,28202,1,2,3:1:0:0:
311,335,28404,1,0,0:0:0:0:
129,43,28605,1,2,3:1:0:0:
261,14,28807,1,0,0:0:0:0:
295,190,29008,5,2,3:1:0:0:
215,223,29108,1,0,0:0:0:0:
163,161,29210,1,0,0:0:0:0:
295,190,29410,1,2,3:1:0:0:
163,161,29612,1,0,0:0:0:0:
179,364,29813,1,2,3:1:0:0:
311,335,30015,1,0,0:0:0:0:
261,14,30216,1,2,3:1:0:0:
129,43,30418,1,0,0:0:0:0:
100,365,30619,6,0,B|84:312|84:312|184:119,1,270.000003147125,6|0,3:1|0:0,0:0:0:0:
182,121,30921,1,0,0:0:0:0:
260,182,31021,2,0,L|304:391,1,179.999995231628,2|0,3:1|0:0,0:0:0:0:
6,186,31424,2,0,L|50:-23,1,179.999995231628,2|0,3:1|0:0,0:0:0:0:
260,182,31827,2,0,L|304:391,1,179.999995231628,2|0,3:1|0:0,0:0:0:0:
74,357,32229,6,0,P|99:241|184:244,1,179.999995231628,2|0,3:1|0:0,0:0:0:0:
395,195,32632,2,0,P|445:106|380:71,1,179.999995231628,2|0,3:1|0:0,0:0:0:0:
74,357,33035,2,0,P|99:241|184:244,1,179.999995231628,2|0,3:1|0:0,0:0:0:0:
437,327,33437,1,2,3:1:0:0:
286,353,33639,1,0,0:0:0:0:
437,327,33840,5,2,3:1:0:0:
352,292,33941,1,0,0:0:0:0:
286,353,34041,1,0,0:0:0:0:
395,195,34243,1,2,3:1:0:0:
244,169,34445,1,0,0:0:0:0:
251,16,34645,1,2,3:1:0:0:
398,2,34847,1,0,0:0:0:0:
437,327,35048,1,2,3:1:0:0:
286,353,35250,1,0,0:0:0:0:
322,185,35451,5,2,3:1:0:0:
376,131,35652,6,0,P|336:261|375:130,1,467.999987602234
322,185,37061,6,0,B|267:191|267:191|234:232|234:232|149:250,1,135.000001573563,6|0,3:1|0:0,0:0:0:0:
0,73,37263,2,0,B|55:79|55:79|88:120|88:120|173:138,1,135.000001573563,8|0,3:1|0:0,0:0:0:0:
157,292,37464,1,6,3:1:0:0:
89,337,37565,1,0,0:0:0:0:
19,294,37666,1,8,3:1:0:0:
36,215,37766,1,0,0:0:0:0:
122,205,37867,5,6,3:1:0:0:
122,205,37968,1,0,0:0:0:0:
196,173,38068,1,8,3:1:0:0:
186,92,38169,1,0,0:0:0:0:
258,51,38270,5,6,3:1:0:0:
258,51,38371,1,0,0:0:0:0:
334,75,38471,1,8,3:1:0:0:
319,154,38572,1,0,0:0:0:0:
359,223,38672,6,0,L|490:192,1,135.000001573563,6|0,3:1|0:0,0:0:0:0:
306,371,38874,2,0,L|168:342,1,135.000001573563,8|0,3:1|0:0,0:0:0:0:
55,273,39075,5,6,3:1:0:0:
55,273,39176,1,0,0:0:0:0:
111,207,39276,1,8,3:1:0:0:
187,235,39377,1,0,0:0:0:0:
228,151,39478,5,6,3:1:0:0:
228,151,39579,1,0,0:0:0:0:
284,217,39679,1,8,3:1:0:0:
360,189,39780,1,0,0:0:0:0:
401,266,39880,5,6,3:1:0:0:
353,199,39981,1,0,0:0:0:0:
393,128,40082,1,8,3:1:0:0:
473,124,40182,1,0,0:0:0:0:
512,194,40283,6,0,L|473:364,1,161.999990764618,6|0,3:1|0:0,0:0:0:0:
464,364,40484,6,0,L|500:206,1,161.999990764618,8|0,3:1|0:0,0:0:0:0:
224,22,40686,5,6,3:1:0:0:
154,67,40786,1,0,0:0:0:0:
194,137,40887,1,8,3:1:0:0:
274,128,40988,1,0,0:0:0:0:
340,173,41088,1,6,3:1:0:0:
323,254,41188,1,0,0:0:0:0:
277,321,41289,1,8,3:1:0:0:
197,311,41390,1,0,0:0:0:0:
127,252,41491,2,0,B|81:273|81:273|69:308|69:308|96:379,1,135.000001573563,6|0,3:1|0:0,0:0:0:0:
406,235,41692,2,0,B|452:214|452:214|464:179|464:179|437:108,1,135.000001573563,8|0,3:1|0:0,0:0:0:0:
177,23,41894,6,0,B|87:87|87:87|264:148|361:379,1,485.999972293855,6|0,3:1|0:0,0:0:0:0:
166,344,42296,2,0,B|248:148|425:87|425:87|335:23,1,485.999972293855,6|0,3:1|0:0,0:0:0:0:
256,96,42699,5,6,3:1:0:0:
256,352,42900,1,0,0:0:0:0:
256,352,43001,1,0,0:0:0:0:
183,261,43102,1,0,0:0:0:0:
308,243,43202,1,0,0:0:0:0:
118,26,43504,5,6,3:1:0:0:
68,90,43605,1,0,0:0:0:0:
137,131,43706,1,8,3:1:0:0:
201,83,43806,2,0,B|266:59|266:59|331:83,1,135.000001573563,0|6,0:0|3:1,0:0:0:0:
458,164,44008,1,0,0:0:0:0:
367,207,44108,2,0,B|348:343,1,135.000001573563,8|0,3:1|0:0,0:0:0:0:
178,248,44310,5,6,3:1:0:0:
255,274,44410,1,0,0:0:0:0:
225,350,44511,1,8,3:1:0:0:
144,353,44612,2,0,L|-9:369,1,135.000001573563,0|6,0:0|3:1,0:0:0:0:
322,134,44813,1,0,0:0:0:0:
367,207,44914,2,0,L|517:254,1,135.000001573563,8|0,3:1|0:0,0:0:0:0:
171,29,45115,5,6,3:1:0:0:
90,39,45216,1,0,0:0:0:0:
83,119,45317,1,8,3:1:0:0:
157,148,45417,2,0,L|194:299,1,135.000001573563,0|6,0:0|3:1,0:0:0:0:
387,378,45619,1,0,0:0:0:0:
463,353,45719,2,0,L|500:202,1,135.000001573563,8|0,3:1|0:0,0:0:0:0:
489,25,45921,5,6,3:1:0:0:
409,37,46021,1,0,0:0:0:0:
376,111,46122,1,8,3:1:0:0:
291,132,46223,2,0,L|246:-27,1,135.000001573563,0|6,0:0|3:1,0:0:0:0:
86,159,46424,1,0,0:0:0:0:
164,215,46525,2,0,L|119:379,1,135.000001573563,8|0,3:1|0:0,0:0:0:0:
303,362,46726,5,6,3:1:0:0:
380,339,46827,1,0,0:0:0:0:
372,258,46927,1,8,3:1:0:0:
297,225,47028,2,0,L|275:59,1,135.000001573563,0|6,0:0|3:1,0:0:0:0:
0,0,47229,1,0,0:0:0:0:
63,60,47330,2,0,L|41:226,1,135.000001573563,8|0,3:1|0:0,0:0:0:0:
20,358,47531,5,6,3:1:0:0:
69,293,47632,1,0,0:0:0:0:
149,299,47733,1,8,3:1:0:0:
194,232,47833,2,0,B|251:199|251:199|280:121,1,135.000001573563,0|6,0:0|3:1,0:0:0:0:
455,192,48035,1,0,0:0:0:0:
391,106,48135,2,0,B|415:41|415:41|472:8,1,135.000001573563,8|0,3:1|0:0,0:0:0:0:
476,97,48337,5,6,3:1:0:0:
391,106,48437,1,0,0:0:0:0:
309,139,48538,1,0,0:0:0:0:
229,110,48638,1,0,0:0:0:0:
194,28,48739,5,6,3:1:0:0:
117,53,48840,1,0,0:0:0:0:
77,133,48941,1,0,0:0:0:0:
1,171,49041,1,0,0:0:0:0:
1,82,49142,5,6,3:1:0:0:
478,279,49343,1,2,3:1:0:0:
478,279,49444,1,2,3:1:0:0:
421,343,49545,2,0,L|327:319,1,80.9999953823091,2|0,3:1|0:0,0:0:0:0:
256,354,49947,6,0,B|231:299|231:299|345:82,1,270.000003147125,6|8,3:1|3:1,0:0:0:0:
384,39,50249,1,0,0:0:0:0:
209,3,50350,2,0,B|188:59|188:59|242:129,1,135.000001573563,6|0,3:1|0:0,0:0:0:0:
376,236,50551,2,0,B|445:215|445:215|382:226,1,135.000001573563,8|0,3:1|0:0,0:0:0:0:
48,186,50753,2,0,B|16:213|16:213|24:249|24:249|82:288,1,135.000001573563,6|0,3:1|0:0,0:0:0:0:
256,354,50954,2,0,B|288:327|288:327|280:291|280:291|222:252,1,135.000001573563,8|0,3:1|0:0,0:0:0:0:
70,280,51155,1,6,3:1:0:0:
134,230,51256,1,0,0:0:0:0:
215,223,51357,1,8,3:1:0:0:
276,171,51457,1,0,0:0:0:0:
357,165,51558,6,0,B|384:126|384:126|351:29,1,135.000001573563,6|0,3:1|0:0,0:0:0:0:
206,27,51759,1,8,3:1:0:0:
183,122,51860,1,0,0:0:0:0:
4,83,51961,2,0,B|48:50|48:50|138:65,1,135.000001573563,6|0,3:1|0:0,0:0:0:0:
304,283,52162,2,0,B|332:300|332:300|497:254,1,135.000001573563,8|0,3:1|0:0,0:0:0:0:
509,14,52363,1,6,3:1:0:0:
434,45,52464,1,0,0:0:0:0:
428,126,52565,1,8,3:1:0:0:
357,165,52666,1,0,0:0:0:0:
289,121,52766,2,0,B|256:109|256:109|134:119,1,135.000001573563,6|0,3:1|0:0,0:0:0:0:
4,335,52968,2,0,B|37:347|37:347|159:337,1,135.000001573563,8|0,3:1|0:0,0:0:0:0:
473,230,53169,5,6,3:1:0:0:
473,311,53270,1,0,0:0:0:0:
401,348,53370,1,8,3:1:0:0:
341,293,53471,1,0,0:0:0:0:
260,278,53572,2,0,B|237:261|234:237|234:237|185:204|124:211,1,135.000001573563,6|0,3:1|0:0,0:0:0:0:
358,75,53773,2,0,L|318:222,1,135.000001573563,8|0,3:1|0:0,0:0:0:0:
146,369,53974,5,6,3:1:0:0:
150,290,54075,1,0,0:0:0:0:
89,230,54176,1,8,3:1:0:0:
140,167,54276,1,0,0:0:0:0:
62,133,54377,2,0,L|40:-33,1,135.000001573563,6|0,3:1|0:0,0:0:0:0:
322,205,54578,2,0,L|344:371,1,135.000001573563,8|0,3:1|0:0,0:0:0:0:
493,23,54780,5,6,3:1:0:0:
476,29,55182,1,0,0:0:0:0:
439,48,55585,1,0,0:0:0:0:
378,64,55786,1,0,0:0:0:0:
356,125,55988,1,8,3:1:0:0:
295,158,56088,1,8,3:1:0:0:
204,170,56189,1,8,3:1:0:0:
151,236,56290,1,8,3:1:0:0:
70,214,56390,6,0,B|37:174|37:174|39:105|104:50,1,161.999990764618,6|0,3:1|0:0,0:0:0:0:
301,23,56592,1,8,3:1:0:0:
358,78,56692,1,0,0:0:0:0:
301,23,56894,1,0,0:0:0:0:
358,78,56994,1,8,3:1:0:0:
351,159,57095,1,0,0:0:0:0:
273,184,57196,5,6,3:1:0:0:
254,262,57296,1,0,0:0:0:0:
301,328,57397,1,8,3:1:0:0:
381,339,57498,1,0,0:0:0:0:
301,328,57699,1,0,0:0:0:0:
381,339,57800,1,8,3:1:0:0:
431,276,57900,5,0,0:0:0:0:
394,203,58001,1,6,3:1:0:0:
313,194,58102,1,0,0:0:0:0:
247,147,58202,1,8,3:1:0:0:
165,147,58303,1,0,0:0:0:0:
247,147,58504,5,0,0:0:0:0:
165,147,58605,1,8,3:1:0:0:
112,84,58706,1,0,0:0:0:0:
150,13,58806,5,6,3:1:0:0:
231,8,58907,1,0,0:0:0:0:
293,59,59008,1,8,3:1:0:0:
328,131,59108,1,0,0:0:0:0:
293,59,59310,5,0,0:0:0:0:
328,131,59410,1,8,3:1:0:0:
336,211,59511,1,0,0:0:0:0:
315,289,59612,5,6,3:1:0:0:
235,277,59712,1,0,0:0:0:0:
177,219,59813,1,8,3:1:0:0:
95,220,59914,1,0,0:0:0:0:
177,219,60115,5,0,0:0:0:0:
95,220,60216,1,8,3:1:0:0:
28,172,60317,1,0,0:0:0:0:
62,99,60417,5,6,3:1:0:0:
143,95,60518,1,0,0:0:0:0:
211,51,60619,1,8,3:1:0:0:
147,0,60719,1,0,0:0:0:0:
211,51,60921,5,0,0:0:0:0:
147,0,61021,1,8,3:1:0:0:
68,21,61122,1,0,0:0:0:0:
62,99,61223,5,6,3:1:0:0:
126,147,61323,1,0,0:0:0:0:
172,213,61424,1,8,3:1:0:0:
146,290,61525,1,0,0:0:0:0:
172,213,61727,5,0,0:0:0:0:
146,290,61827,1,8,3:1:0:0:
71,320,61927,1,0,0:0:0:0:
22,254,62028,5,6,3:1:0:0:
70,188,62129,1,0,0:0:0:0:
151,200,62231,1,8,3:1:0:0:
225,166,62332,1,0,0:0:0:0:
275,227,62431,5,6,3:1:0:0:
342,269,62530,1,0,0:0:0:0:
408,220,62632,1,8,3:1:0:0:
459,165,62733,1,0,0:0:0:0:
512,222,62833,5,6,3:1:0:0:
0,162,63236,1,0,0:0:0:0:
256,192,63639,1,0,0:0:0:0:
278,105,64041,5,0,0:0:0:0:
256,192,64142,1,0,0:0:0:0:
233,278,64243,1,0,0:0:0:0:
233,278,64444,6,0,L|299:28,1,179.999995231629,6|8,3:1|3:1,0:0:0:0:
213,62,64746,1,0,0:0:0:0:
370,218,64847,2,0,B|435:205|435:205|447:151,1,89.9999976158143,2|0,3:1|0:0,0:0:0:0:
450,108,65048,1,8,0:1:0:0:
450,108,65149,1,0,0:0:0:0:
378,26,65249,2,0,L|356:119,1,89.9999976158143,2|0,3:1|0:0,0:0:0:0:
406,364,65451,1,8,0:1:0:0:
483,319,65551,1,0,0:0:0:0:
458,234,65652,2,0,L|365:217,1,89.9999976158143,2|0,3:1|0:0,0:0:0:0:
229,313,65853,2,0,L|331:293,1,89.9999976158143,8|0,0:1|0:0,0:0:0:0:
139,61,66055,6,0,P|38:53|41:140,2,179.999995231629,2|8|2,3:1|0:1|3:1,0:0:0:0:
15,33,66659,1,8,0:1:0:0:
15,33,66759,1,0,0:0:0:0:
148,148,66860,2,0,P|120:184|117:229,1,89.9999976158143,2|0,3:1|0:0,0:0:0:0:
290,269,67061,2,0,P|255:223|204:213,1,89.9999976158143,8|0,0:1|0:0,0:0:0:0:
47,354,67263,2,0,L|136:328,1,89.9999976158143,2|0,3:1|0:0,0:0:0:0:
420,191,67464,2,0,L|331:165,1,89.9999976158143,8|0,0:1|0:0,0:0:0:0:
136,8,67666,6,0,L|146:66,1,53.9999985694885,2|0,3:1|0:0,0:0:0:0:
30,169,68068,1,2,3:1:0:0:
124,142,68169,1,0,0:0:0:0:
218,115,68270,1,8,0:1:0:0:
320,235,68471,6,0,B|340:279|340:279|202:238,1,179.999995231629,2|8,3:1|0:1,0:0:0:0:
148,301,68773,1,0,0:0:0:0:
320,235,68874,6,0,B|340:279|340:279|202:238,2,179.999995231629,2|8|2,3:1|0:1|3:1,0:0:0:0:
148,301,69478,1,8,0:1:0:0:
148,301,69578,1,0,0:0:0:0:
320,235,69679,6,0,B|340:279|340:279|202:238,1,179.999995231629,2|8,3:1|0:1,0:0:0:0:
148,301,69981,1,0,0:0:0:0:
213,241,70082,2,0,B|340:279|340:279|320:235,1,179.999995231629,2|8,3:1|0:1,0:0:0:0:
270,176,70384,1,0,0:0:0:0:
120,117,70484,2,0,B|113:132|113:132|142:214,1,89.9999976158143,2|0,3:1|0:0,0:0:0:0:
292,351,70686,2,0,B|307:345|307:345|345:266,1,89.9999976158143,8|0,0:1|0:0,0:0:0:0:
441,29,70887,5,2,3:1:0:0:
496,100,70988,1,0,0:0:0:0:
425,161,71088,5,8,0:1:0:0:
370,232,71189,1,0,0:0:0:0:
425,161,71290,5,2,3:1:0:0:
480,232,71391,1,0,0:0:0:0:
424,289,71491,5,8,0:1:0:0:
369,360,71592,1,0,0:0:0:0:
424,289,71692,5,2,3:1:0:0:
479,360,71793,1,0,0:0:0:0:
369,360,71894,2,0,L|272:334,1,89.9999976158143,8|0,0:1|0:0,0:0:0:0:
197,265,72095,2,0,L|389:219,1,179.999995231629,2|8,3:1|0:1,0:0:0:0:
372,223,72397,1,0,0:0:0:0:
166,43,72498,5,2,3:1:0:0:
123,28,72598,1,0,0:0:0:0:
49,55,72699,5,8,0:1:0:0:
34,98,72799,1,0,0:0:0:0:
100,146,72900,5,2,3:1:0:0:
143,161,73000,1,0,0:0:0:0:
212,222,73102,5,8,0:1:0:0:
197,265,73202,1,0,0:0:0:0:
108,285,73303,6,0,B|14:260|14:260|-17:350|-17:350|74:376,1,269.999992847443,2|0,3:1|0:0,0:0:0:0:
146,366,73706,5,2,3:1:0:0:
136,360,73806,1,0,0:0:0:0:
146,358,73907,1,8,0:1:0:0:
139,370,74008,1,0,0:0:0:0:
225,377,74108,6,0,B|275:355|275:355|334:2,1,405.000004720688,2|0,3:1|0:0,0:0:0:0:
282,83,74511,5,2,3:1:0:0:
347,72,74612,1,0,0:0:0:0:
385,144,74712,5,8,0:1:0:0:
450,133,74813,1,0,0:0:0:0:
257,214,74914,5,2,3:1:0:0:
322,203,75015,1,0,0:0:0:0:
389,252,75115,5,8,0:1:0:0:
454,241,75216,1,0,0:0:0:0:
261,327,75317,5,2,3:1:0:0:
326,316,75418,1,0,0:0:0:0:
402,359,75518,5,8,0:1:0:0:
467,348,75619,1,0,0:0:0:0:
257,214,75719,6,0,P|166:243|147:322,1,179.999995231629,2|0,3:1|0:0,0:0:0:0:
246,308,76021,1,0,0:0:0:0:
395,154,76122,6,0,P|415:60|356:4,1,179.999995231629,2|0,3:1|0:0,0:0:0:0:
318,97,76424,1,0,0:0:0:0:
467,348,76525,5,2,3:1:0:0:
344,274,77330,6,0,P|311:226|240:227,1,89.9999976158143,6|0,3:1|0:0,0:0:0:0:
169,283,77531,2,0,L|185:392,1,89.9999976158143,8|0,0:1|0:0,0:0:0:0:
26,225,77733,1,2,3:1:0:0:
102,160,77833,1,0,0:0:0:0:
24,102,77934,2,0,L|19:-3,1,89.9999976158143,8|0,0:1|0:0,0:0:0:0:
174,93,78135,5,2,3:1:0:0:
102,160,78236,1,0,0:0:0:0:
186,212,78337,2,0,L|281:195,1,89.9999976158143,8|0,0:1|0:0,0:0:0:0:
440,257,78538,5,2,3:1:0:0:
512,324,78639,1,0,0:0:0:0:
428,376,78740,2,0,L|333:359,1,89.9999976158143,8|0,0:1|0:0,0:0:0:0:
279,259,78941,6,0,L|299:158,1,89.9999976158143,2|0,3:1|0:0,0:0:0:0:
465,49,79142,2,0,P|461:90|409:129,1,89.9999976158143,8|0,0:1|0:0,0:0:0:0:
262,87,79343,2,0,P|232:69|180:83,1,89.9999976158143,2|0,3:1|0:0,0:0:0:0:
35,220,79545,1,8,0:1:0:0:
35,220,79645,1,0,0:0:0:0:
119,316,79746,2,0,L|143:206,1,89.9999976158143,2|0,3:1|0:0,0:0:0:0:
330,184,79947,2,0,L|368:-17,2,179.999995231629,8|2|8,0:1|3:1|0:1,0:0:0:0:
412,251,80551,5,2,3:1:0:0:
412,251,80652,1,0,0:0:0:0:
500,208,80753,2,0,P|480:177|414:159,1,89.9999976158143,8|0,0:1|0:0,0:0:0:0:
271,299,80954,2,0,P|224:283|189:227,1,89.9999976158143,2|0,3:1|0:0,0:0:0:0:
281,59,81155,2,0,B|229:44|229:44|222:29|146:36|121:86|191:100|54:75|66:65|66:65|63:51|-30:93|23:103,1,270.000003147125,8|2,0:1|3:1,0:0:0:0:
226,132,81558,5,8,0:1:0:0:
226,132,81659,1,0,0:0:0:0:
130,186,81759,1,2,3:1:0:0:
164,277,81860,1,0,0:0:0:0:
269,232,81961,2,0,B|300:259|300:259|291:323,1,89.9999976158143,8|0,0:1|0:0,0:0:0:0:
120,365,82162,5,2,3:1:0:0:
19,309,82263,2,0,P|12:269|92:265,1,89.9999976158143,0|8,0:0|0:1,0:0:0:0:
379,186,82464,1,0,0:0:0:0:
460,127,82565,2,0,P|454:102|385:68,1,89.9999976158143,2|0,3:1|0:0,0:0:0:0:
171,32,82766,6,0,L|203:221,1,179.999995231629,8|2,0:1|3:1,0:0:0:0:
166,288,83068,1,0,0:0:0:0:
291,318,83169,1,8,0:1:0:0:
291,318,83270,1,0,0:0:0:0:
100,344,83370,2,0,P|73:294|94:236,1,89.9999976158143,2|0,3:1|0:0,0:0:0:0:
318,129,83572,2,0,P|300:197|264:216,1,89.9999976158143,8|0,0:1|0:0,0:0:0:0:
45,118,83773,6,0,P|86:40|210:62,1,179.999995231629,2|8,3:1|0:1,0:0:0:0:
243,67,84075,1,0,0:0:0:0:
159,119,84176,1,2,3:1:0:0:
177,180,84276,1,0,0:0:0:0:
320,217,84377,1,8,0:1:0:0:
303,284,84478,1,0,0:0:0:0:
192,353,84578,6,0,B|162:351|162:351|235:335,1,89.9999976158143,2|0,3:1|0:0,0:0:0:0:
438,181,84780,1,8,0:1:0:0:
486,283,84880,2,0,L|379:251,1,89.9999976158143,0|2,0:0|3:1,0:0:0:0:
243,67,85082,1,0,0:0:0:0:
364,24,85182,1,8,0:1:0:0:
137,93,86994,6,0,B|106:123|106:123|201:345,1,270.000003147125,6|0,3:1|0:0,0:0:0:0:
195,331,87296,1,0,0:0:0:0:
303,354,87397,2,0,L|366:160,1,179.999995231629,2|0,3:1|0:0,0:0:0:0:
457,4,87800,2,0,L|520:198,1,179.999995231629,2|0,3:1|0:0,0:0:0:0:
303,354,88202,2,0,L|366:160,1,179.999995231629,2|0,3:1|0:0,0:0:0:0:
512,320,88605,6,0,P|401:328|380:259,1,179.999995231629,2|0,3:1|0:0,0:0:0:0:
195,51,89008,2,0,P|103:29|56:103,1,179.999995231629,2|0,3:1|0:0,0:0:0:0:
512,320,89410,2,0,P|401:328|380:259,1,179.999995231629,2|0,3:1|0:0,0:0:0:0:
280,30,89813,1,2,3:1:0:0:
406,51,90014,1,0,0:0:0:0:
406,51,90216,5,2,3:1:0:0:
330,103,90317,1,0,0:0:0:0:
280,30,90417,1,0,0:0:0:0:
232,182,90619,1,2,3:1:0:0:
398,226,90820,1,0,0:0:0:0:
356,381,91021,1,2,3:1:0:0:
179,374,91223,1,0,0:0:0:0:
232,182,91424,1,2,3:1:0:0:
398,226,91625,1,0,0:0:0:0:
232,182,91827,5,2,3:1:0:0:
326,152,91927,1,0,0:0:0:0:
398,226,92028,1,0,0:0:0:0:
209,341,92229,1,2,3:1:0:0:
358,382,92431,1,0,0:0:0:0:
406,51,92632,1,2,3:1:0:0:
280,30,92833,1,0,0:0:0:0:
398,226,93035,1,2,3:1:0:0:
232,182,93236,1,0,0:0:0:0:
330,115,93437,6,0,B|348:158|348:158|244:382,1,270.000003147125,6|0,3:1|0:0,0:0:0:0:
253,360,93739,1,0,0:0:0:0:
175,287,93840,2,0,L|-25:195,1,179.999995231629,2|0,3:1|0:0,0:0:0:0:
349,362,94243,2,0,L|549:270,1,179.999995231629,2|0,3:1|0:0,0:0:0:0:
175,287,94645,2,0,L|-25:195,1,179.999995231629,2|0,3:1|0:0,0:0:0:0:
378,30,95048,6,0,P|422:122|339:160,1,179.999995231629,2|0,3:1|0:0,0:0:0:0:
99,249,95451,2,0,P|97:355|178:379,1,179.999995231629,2|0,3:1|0:0,0:0:0:0:
378,30,95853,2,0,P|422:122|339:160,1,179.999995231629,2|0,3:1|0:0,0:0:0:0:
71,129,96256,1,2,3:1:0:0:
99,249,96457,1,0,0:0:0:0:
71,129,96659,5,2,3:1:0:0:
136,177,96759,1,0,0:0:0:0:
99,249,96860,1,0,0:0:0:0:
267,270,97061,1,2,3:1:0:0:
299,127,97263,1,0,0:0:0:0:
487,275,97464,1,2,3:1:0:0:
484,145,97666,1,0,0:0:0:0:
267,270,97867,1,2,3:1:0:0:
299,127,98068,1,0,0:0:0:0:
383,218,98270,5,2,3:1:0:0:
424,153,98471,6,0,P|333:278|437:164,1,467.999987602234
382,218,99880,6,0,B|388:266|388:266|400:273|400:273|433:361,1,135.000001573563,6|0,3:1|0:0,0:0:0:0:
242,124,100082,2,0,B|248:76|248:76|260:69|260:69|293:-19,1,135.000001573563,8|0,3:1|0:0,0:0:0:0:
246,298,100283,1,6,3:1:0:0:
168,353,100384,1,0,0:0:0:0:
94,294,100484,1,8,3:1:0:0:
94,294,100585,1,0,0:0:0:0:
160,212,100686,5,6,3:1:0:0:
48,186,100786,1,0,0:0:0:0:
122,123,100887,1,8,3:1:0:0:
122,123,100988,1,0,0:0:0:0:
55,55,101088,5,6,3:1:0:0:
122,123,101189,1,0,0:0:0:0:
209,103,101290,1,8,3:1:0:0:
293,130,101390,1,0,0:0:0:0:
376,88,101491,5,6,3:1:0:0:
361,188,101592,1,0,0:0:0:0:
454,210,101692,1,8,3:1:0:0:
472,109,101793,1,0,0:0:0:0:
472,109,101894,5,6,3:1:0:0:
454,210,101995,1,0,0:0:0:0:
361,188,102095,1,8,3:1:0:0:
376,88,102196,1,0,0:0:0:0:
454,210,102296,5,6,3:1:0:0:
361,188,102397,1,0,0:0:0:0:
391,268,102498,1,8,3:1:0:0:
391,268,102598,1,0,0:0:0:0:
322,317,102699,5,6,3:1:0:0:
229,295,102800,1,0,0:0:0:0:
259,375,102901,1,8,3:1:0:0:
259,375,103001,1,0,0:0:0:0:
352,384,103102,5,6,3:1:0:0:
259,362,103202,1,0,0:0:0:0:
190,294,103303,1,8,3:1:0:0:
91,279,103404,1,0,0:0:0:0:
190,294,103504,5,6,3:1:0:0:
283,272,103604,1,0,0:0:0:0:
352,204,103705,1,8,3:1:0:0:
451,189,103806,1,0,0:0:0:0:
352,204,103907,5,6,3:1:0:0:
259,182,104007,1,0,0:0:0:0:
190,114,104108,1,8,3:1:0:0:
91,99,104209,1,0,0:0:0:0:
190,114,104310,5,6,3:1:0:0:
283,92,104410,1,0,0:0:0:0:
352,24,104511,1,8,3:1:0:0:
451,9,104612,1,0,0:0:0:0:
352,24,104712,6,0,P|161:187|170:380,1,405.000004720688,6|0,3:1|0:0,0:0:0:0:
359,327,105115,2,0,P|324:133|160:24,1,405.000004720688,6|0,3:1|0:0,0:0:0:0:
256,192,105518,5,6,3:1:0:0:
256,258,105719,5,0,0:0:0:0:
189,192,105820,1,0,0:0:0:0:
256,125,105921,1,0,0:0:0:0:
322,192,106021,1,0,0:0:0:0:
22,248,106323,5,6,3:1:0:0:
46,337,106424,1,0,0:0:0:0:
156,303,106525,2,0,B|189:300|219:319|219:319|231:361|285:382,1,135.000001573563,8|0,3:1|0:0,0:0:0:0:
490,275,106726,5,6,3:1:0:0:
323,234,106827,1,0,0:0:0:0:
470,153,106927,2,0,B|495:151|495:151|448:189|448:189|405:167|355:157,1,135.000001573563,8|0,3:1|0:0,0:0:0:0:
51,83,107129,5,6,3:1:0:0:
121,20,107229,1,0,0:0:0:0:
193,81,107330,2,0,L|164:238,1,135.000001573563,8|0,3:1|0:0,0:0:0:0:
241,339,107531,5,6,3:1:0:0:
335,346,107632,1,0,0:0:0:0:
384,265,107733,1,8,3:1:0:0:
339,182,107833,1,0,0:0:0:0:
331,191,107934,5,6,3:1:0:0:
267,120,108035,1,0,0:0:0:0:
304,34,108135,1,8,3:1:0:0:
398,38,108236,1,0,0:0:0:0:
435,116,108337,6,0,B|411:150|411:150|341:162|327:197,1,135.000001573563,6|0,3:1|0:0,0:0:0:0:
88,228,108538,2,0,B|112:262|112:262|182:274|196:309,1,135.000001573563,8|0,3:1|0:0,0:0:0:0:
433,353,108739,5,6,3:1:0:0:
493,279,108840,1,0,0:0:0:0:
434,204,108941,1,8,3:1:0:0:
344,232,109041,1,0,0:0:0:0:
336,326,109142,1,6,3:1:0:0:
336,326,109243,1,0,0:0:0:0:
412,280,109343,1,8,3:1:0:0:
412,280,109444,1,0,0:0:0:0:
368,155,109545,5,6,3:1:0:0:
307,82,109645,1,0,0:0:0:0:
212,75,109746,1,8,3:1:0:0:
145,141,109847,1,0,0:0:0:0:
144,155,109947,5,6,3:1:0:0:
205,82,110047,1,0,0:0:0:0:
300,75,110148,1,8,3:1:0:0:
367,141,110249,1,0,0:0:0:0:
256,208,110350,5,6,3:1:0:0:
239,192,110451,1,0,0:0:0:0:
256,175,110551,1,8,3:1:0:0:
272,192,110652,1,0,0:0:0:0:
256,267,110753,5,6,3:1:0:0:
180,192,110854,1,0,0:0:0:0:
256,116,110954,1,8,3:1:0:0:
331,192,111055,1,0,0:0:0:0:
256,192,111155,5,6,3:1:0:0:
201,78,111357,6,0,B|138:166|37:194|37:194|143:167|143:167|122:380,1,503.99998664856
309,213,112968,6,0,B|347:93|347:93|480:120|480:120|407:356,1,503.99998664856,14|0,3:1|0:0,0:0:0:0:
