osu file format v14

[General]
AudioFilename: audio.mp3
AudioLeadIn: 0
PreviewTime: 165256
Countdown: 0
SampleSet: Normal
StackLeniency: 0.7
Mode: 0
LetterboxInBreaks: 0
WidescreenStoryboard: 1

[Editor]
Bookmarks: 26125,33061,46974,60908,76560,97409,107843,121756,144365,149582,165235,186104,193714,208496,223279,235453,244148,258061,273279,294583
DistanceSpacing: 1
BeatDivisor: 4
GridSize: 32
TimelineZoom: 1.750001

[Metadata]
Title:Love the Subhuman Self
TitleUnicode:Love the Subhuman Self
Artist:AISHA, Epsilon Zero
ArtistUnicode:AISHA, Epsilon Zero
Creator:Aragon
Version:Immature Murderer
Source:GUILTY GEAR -STRIVE-
Tags:millia rage theme daisuke ishiwatari naoki hashimoto arcsys arc system works ggst english metal video game original soundtrack ギルティギア アークシステムワークス
BeatmapID:3063569
BeatmapSetID:1494707

[Difficulty]
HPDrainRate:6
CircleSize:4
OverallDifficulty:8.5
ApproachRate:9.3
SliderMultiplier:3
SliderTickRate:1

[Events]
//Background and Video events
0,0,"millia_temp.png",0,0
//Break Periods
2,57521,59702
2,244368,256766
//Storyboard Layer 0 (Background)
//Storyboard Layer 1 (Fail)
//Storyboard Layer 2 (Pass)
//Storyboard Layer 3 (Foreground)
//Storyboard Layer 4 (Overlay)
//Storyboard Sound Samples

[TimingPoints]
3517,434.782608695652,4,1,1,60,1,0
3517,-111.111111111111,4,1,1,70,0,0
22211,-111.111111111111,4,1,1,60,0,0
22647,-166.666666666667,4,1,1,60,0,0
23082,-166.666666666667,4,1,1,60,0,0
26124,-181.818181818181,4,1,1,40,0,0
33081,-200,4,1,1,45,0,0
46994,-133.333333333333,4,1,1,50,0,0
60255,-333.333333333333,4,1,1,50,0,0
60907,-166.666666666667,4,1,1,55,0,0
67864,-200,4,1,1,55,0,0
76560,-90.9090909090909,4,1,1,70,0,1
83515,-100,4,1,1,60,0,1
89602,-86.9565217391304,4,1,1,60,0,1
90472,-90.9090909090909,4,1,1,70,0,1
92212,-86.9565217391304,4,1,1,70,0,1
92647,-90.9090909090909,4,1,1,70,0,1
97430,-200,4,1,1,40,0,0
107755,-200,4,1,1,5,0,0
107864,-111.111111111111,4,1,1,70,0,0
120038,-181.818181818181,4,1,1,60,0,0
121342,-111.111111111111,4,1,1,60,0,0
121396,-111.111111111111,4,1,1,5,0,0
121451,-111.111111111111,4,1,1,60,0,0
121505,-111.111111111111,4,1,1,5,0,0
121559,-111.111111111111,4,1,1,60,0,0
121614,-111.111111111111,4,1,1,5,0,0
121668,-111.111111111111,4,1,1,60,0,0
121722,-111.111111111111,4,1,1,5,0,0
121777,-111.111111111111,4,1,1,60,0,0
146124,-125,4,1,1,60,0,0
147864,-181.818181818181,4,1,1,45,0,0
148516,-142.857142857143,4,1,1,45,0,0
148733,-111.111111111111,4,1,1,60,0,0
149603,-153.846153846154,4,1,1,55,0,0
156559,-200,4,1,1,55,0,0
165256,-90.9090909090909,4,1,1,70,0,1
172211,-100,4,1,1,60,0,1
178298,-83.3333333333333,4,1,1,60,0,1
178733,-90.9090909090909,4,1,1,60,0,1
179168,-90.9090909090909,4,1,1,70,0,1
186125,-181.818181818181,4,1,1,40,0,0
187864,-200,4,1,1,40,0,0
191342,-222.222222222222,4,1,1,50,0,0
193734,434.782608695652,4,1,1,60,1,0
193734,-100,4,1,1,60,0,0
208516,-100,4,1,1,65,0,1
215689,-86.9565217391304,4,1,1,65,0,1
216341,-100,4,1,1,65,0,1
222428,-83.3333333333333,4,1,1,65,0,1
223299,-100,4,1,1,60,0,0
230254,-90.9090909090909,4,1,1,65,0,0
233734,-90.9090909090909,4,1,1,70,0,0
235472,-100,4,1,1,70,0,0
235689,-83.3333333333333,4,1,1,70,0,0
237212,-133.333333333333,4,1,1,60,0,0
244168,-133.333333333333,4,1,1,45,0,0
257973,-125,4,1,1,5,0,0
258081,-111.111111111111,4,1,1,55,0,0
262429,-111.111111111111,4,1,1,60,0,0
263299,-100,4,1,1,70,0,1
265038,-100,4,1,1,55,0,0
273734,-90.9090909090909,4,1,1,70,0,1
280690,-100,4,1,1,60,0,1
285690,-83.3333333333333,4,1,1,65,0,1
287647,-80,4,1,1,75,0,1
294603,-250.000000000001,4,1,1,50,0,0
304929,-100,4,1,1,5,0,0

[Colours]
Combo1 : 17,254,176
Combo2 : 173,255,95
Combo3 : 255,88,100
Combo4 : 255,94,55

[HitObjects]
256,192,38,12,0,3408,2:0:0:0:
103,96,3517,5,0,1:0:0:0:
196,147,3625,1,0,1:0:0:0:
175,75,3734,1,0,1:0:0:0:
111,180,3843,2,0,P|184:185|246:194,1,134.999995880127,14|0,0:1|0:0,0:0:0:0:
464,125,4169,5,0,1:0:0:0:
371,175,4277,1,0,1:0:0:0:
392,104,4386,1,0,1:0:0:0:
456,208,4495,2,0,P|382:213|320:222,1,134.999995880127,14|0,0:1|0:0,0:0:0:0:
235,336,4821,5,0,1:1:0:0:
192,273,4930,1,8,0:1:0:0:
121,295,5038,1,8,0:0:0:0:
63,247,5147,1,10,0:1:0:0:
67,172,5256,1,0,1:1:0:0:
130,134,5364,1,0,1:1:0:0:
194,170,5473,1,0,1:0:0:0:
251,116,5582,2,0,P|314:136|403:149,1,134.999995880127,14|0,0:1|0:0,0:0:0:0:
385,328,5908,5,0,1:0:0:0:
436,235,6016,1,0,1:0:0:0:
364,256,6125,1,0,1:0:0:0:
469,320,6234,2,0,P|474:247|483:185,1,134.999995880127,14|0,0:1|0:0,0:0:0:0:
512,24,6560,5,8,0:0:0:0:
437,30,6669,1,8,0:0:0:0:
363,38,6777,1,8,0:0:0:0:
289,46,6886,1,8,0:0:0:0:
175,5,6995,6,0,B|211:61|211:61|198:138,1,134.999995880127,6|8,1:2|0:0,0:0:0:0:
377,185,7321,1,0,1:0:0:0:
315,258,7430,2,0,B|279:202|279:202|292:125,1,134.999995880127,2|8,1:2|0:0,0:0:0:0:
113,78,7756,1,0,1:0:0:0:
56,139,7864,6,0,P|50:172|50:209,1,67.4999979400635,2|0,1:2|0:0,0:0:0:0:
199,128,8082,2,0,P|200:163|205:198,1,67.4999979400635,10|0,0:2|0:0,0:0:0:0:
126,199,8299,2,0,P|131:232|132:266,1,67.4999979400635,2|0,1:2|0:0,0:0:0:0:
282,188,8516,2,0,P|281:222|276:256,1,67.4999979400635,8|8,0:0|0:0,0:0:0:0:
438,54,8734,6,0,B|404:53|404:53|377:30,1,67.4999979400635,6|0,1:2|1:0,0:0:0:0:
474,127,8951,1,8,0:0:0:0:
332,102,9060,2,0,L|199:128,1,134.999995880127,2|0,1:2|0:0,0:0:0:0:
413,227,9386,6,0,P|450:236|485:252,1,67.4999979400635,10|0,0:2|1:0,0:0:0:0:
258,272,9603,1,0,1:0:0:0:
322,322,9712,2,0,P|352:311|393:307,2,67.4999979400635,2|8|0,1:2|0:0|1:0,0:0:0:0:
74,347,10038,6,0,P|107:351|140:357,1,67.4999979400635,2|0,1:2|0:0,0:0:0:0:
153,279,10256,2,0,P|120:273|85:268,1,67.4999979400635,10|0,0:2|0:0,0:0:0:0:
31,103,10473,5,0,1:0:0:0:
91,155,10582,1,0,1:0:0:0:
164,116,10690,1,0,1:0:0:0:
214,205,10799,2,0,B|260:198|260:198|287:170|287:170|336:166,1,134.999995880127,14|0,0:1|0:0,0:0:0:0:
512,115,11125,5,0,1:0:0:0:
439,88,11234,1,0,1:0:0:0:
506,40,11343,1,0,1:0:0:0:
442,164,11451,2,0,B|393:168|393:168|366:196|366:196|307:204,1,134.999995880127,14|0,0:1|0:0,0:0:0:0:
184,344,11777,5,8,0:0:0:0:
257,382,11886,1,8,0:0:0:0:
191,329,11995,1,8,0:0:0:0:
207,256,12103,1,8,0:0:0:0:
284,230,12212,5,0,1:0:0:0:
300,158,12321,1,0,1:0:0:0:
245,107,12430,1,0,1:0:0:0:
90,160,12538,2,0,P|161:169|223:180,1,134.999995880127,14|0,0:1|0:0,0:0:0:0:
474,163,12864,5,0,1:0:0:0:
379,221,12973,1,0,1:0:0:0:
396,143,13082,1,0,1:0:0:0:
456,239,13190,2,0,B|475:302|475:302|451:368,1,134.999995880127,14|0,0:1|0:0,0:0:0:0:
252,259,13516,5,8,0:0:0:0:
199,308,13625,1,8,0:0:0:0:
129,288,13734,1,8,0:0:0:0:
182,235,13843,1,8,0:0:0:0:
290,353,13951,6,0,P|337:287|320:223,1,134.999995880127,6|8,1:2|0:0,0:0:0:0:
236,70,14277,1,0,0:0:0:0:
153,146,14386,2,0,P|221:151|287:162,1,134.999995880127,2|8,1:2|0:0,0:0:0:0:
446,51,14712,5,0,0:0:0:0:
369,93,14821,2,0,B|360:126|360:126|365:163,1,67.4999979400635,2|0,1:2|0:0,0:0:0:0:
470,202,15038,2,0,B|474:234|474:234|465:267,1,67.4999979400635,10|0,0:2|0:0,0:0:0:0:
328,237,15256,2,0,L|404:231,1,67.4999979400635,2|0,1:2|0:0,0:0:0:0:
505,127,15473,2,0,L|437:132,1,67.4999979400635,8|0,0:2|0:0,0:0:0:0:
233,36,15690,5,6,1:2:0:0:
233,36,15799,2,0,P|199:35|166:48,1,67.4999979400635,2|8,1:2|0:0,0:0:0:0:
247,119,16016,2,0,P|216:131|182:130,1,67.4999979400635,2|0,1:2|0:0,0:0:0:0:
65,220,16234,1,0,0:0:0:0:
65,220,16343,2,0,P|95:207|129:208,1,67.4999979400635,10|0,0:2|0:0,0:0:0:0:
190,331,16560,1,0,0:0:0:0:
78,344,16669,2,0,P|91:313|117:291,2,67.4999979400635,2|8|0,1:2|0:0|0:0,0:0:0:0:
242,261,16995,6,0,P|256:197|312:162,1,134.999995880127,2|8,1:2|0:0,0:0:0:0:
299,318,17321,1,8,0:0:0:0:
372,228,17430,5,6,1:2:0:0:
372,228,17538,2,0,P|407:232|453:242,1,67.4999979400635,2|8,1:2|0:0,0:0:0:0:
393,124,17756,2,0,P|426:120|459:113,1,67.4999979400635,2|0,1:2|0:0,0:0:0:0:
245,151,17973,1,0,0:0:0:0:
245,151,18082,2,0,P|280:155|326:165,1,67.4999979400635,10|0,0:2|0:0,0:0:0:0:
105,24,18299,1,0,0:0:0:0:
163,74,18408,2,0,P|196:67|229:63,2,67.4999979400635,2|8|0,1:2|0:0|0:0,0:0:0:0:
1,227,18734,5,10,0:1:0:0:
77,207,18843,1,8,0:1:0:0:
131,261,18951,1,10,0:1:0:0:
208,244,19060,1,8,0:1:0:0:
291,316,19169,6,0,P|282:350|279:382,1,67.4999979400635,6|0,1:2|0:0,0:0:0:0:
200,357,19386,1,8,0:0:0:0:
375,312,19495,2,0,P|423:255|489:261,1,134.999995880127,2|0,1:2|0:0,0:0:0:0:
279,168,19821,6,0,L|205:153,1,67.4999979400635,10|0,0:2|0:0,0:0:0:0:
435,124,20038,1,0,1:0:0:0:
371,74,20147,2,0,P|341:85|300:89,2,67.4999979400635,2|8|0,1:2|0:0|0:0,0:0:0:0:
476,227,20473,5,8,0:0:0:0:
396,242,20582,1,8,0:0:0:0:
317,258,20690,1,8,0:0:0:0:
237,274,20799,1,8,0:0:0:0:
158,375,20908,5,8,1:3:0:0:
86,351,21343,1,0,0:0:0:0:
14,328,21777,1,0,1:0:0:0:
241,217,21995,1,0,1:0:0:0:
364,14,22212,6,0,P|353:42|342:81,1,67.4999979400635,8|8,1:0|1:0,1:0:0:0:
144,230,22430,2,0,P|154:201|165:150,1,67.4999979400635,8|8,1:0|1:0,1:0:0:0:
289,309,22647,2,0,P|349:325|425:355,1,134.999995880127,8|0,1:3|1:0,1:0:0:0:
505,329,23082,6,0,P|484:289|464:239,1,89.9999972534181,8|0,0:2|0:0,0:0:0:0:
424,164,23408,2,8,P|399:202|366:244,1,89.9999972534181,8|8,0:2|0:0,0:0:0:0:
321,318,23734,2,0,P|366:319|421:329,1,89.9999972534181,8|0,1:3|0:0,0:0:0:0:
214,384,24060,6,0,B|230:342|230:342|211:278,1,89.9999972534181,0|0,1:0|0:0,0:0:0:0:
0,265,24386,2,0,B|76:264|63:313|146:308,1,134.999995880127,8|0,1:3|0:0,0:0:0:0:
164,224,24821,6,0,P|162:179|200:150,1,89.9999972534181,8|0,0:2|0:0,0:0:0:0:
278,123,25147,2,0,P|321:135|371:146,1,89.9999972534181,8|0,0:2|0:0,0:0:0:0:
456,129,25473,2,0,P|487:100|482:54,1,89.9999972534181,8|0,1:3|0:0,0:0:0:0:
388,2,25799,1,8,0:2:0:0:
332,16,25908,1,8,0:2:0:0:
368,56,26016,1,8,0:2:0:0:
361,26,26125,5,8,1:3:0:0:
255,40,26343,1,0,1:0:0:0:
132,12,26560,1,8,0:2:0:0:
174,94,26777,5,0,1:0:0:0:
174,94,26886,1,0,1:0:0:0:
299,177,27103,1,0,1:0:0:0:
299,177,27212,1,8,1:3:0:0:
104,240,27430,1,8,0:2:0:0:
194,185,27647,5,8,1:3:0:0:
194,185,27756,1,0,1:0:0:0:
194,185,27864,1,8,1:3:0:0:
275,302,28082,1,0,0:0:0:0:
128,318,28299,1,8,0:2:0:0:
287,210,28516,5,0,1:0:0:0:
287,210,28625,1,8,1:3:0:0:
422,309,28843,1,0,1:0:0:0:
422,309,28951,1,8,1:3:0:0:
498,157,29169,1,8,0:2:0:0:
498,157,29277,1,0,1:0:0:0:
498,157,29386,1,8,0:2:0:0:
349,53,29603,5,8,1:3:0:0:
382,164,29821,1,0,1:0:0:0:
462,46,30038,1,8,0:2:0:0:
282,12,30256,5,0,1:2:0:0:
282,12,30364,1,8,1:3:0:0:
173,97,30582,1,0,1:0:0:0:
173,97,30690,1,8,1:3:0:0:
5,18,30908,1,8,0:2:0:0:
50,98,31125,5,0,1:0:0:0:
50,98,31234,1,8,0:2:0:0:
50,98,31343,1,8,1:3:0:0:
0,218,31560,1,0,1:0:0:0:
90,301,31777,1,8,0:2:0:0:
18,338,31995,5,0,1:0:0:0:
18,338,32103,1,0,1:0:0:0:
176,384,32321,1,0,1:0:0:0:
176,384,32430,1,8,1:3:0:0:
286,257,32647,1,8,0:2:0:0:
320,245,32755,1,8,0:2:0:0:
357,251,32864,1,8,0:2:0:0:
385,274,32973,1,8,0:2:0:0:
400,307,33082,6,0,P|407:245|425:149,1,150,0|8,1:0|0:2,0:0:0:0:
492,117,33734,1,8,0:3:0:0:
298,20,33951,2,0,P|291:82|275:178,1,150,0|8,0:0|0:2,0:0:0:0:
207,221,34603,1,8,0:3:0:0:
380,95,34821,6,0,P|382:61|390:14,2,75,0|0|8,0:0|0:0|0:2,0:0:0:0:
190,52,35473,1,0,1:0:0:0:
190,52,35582,2,0,P|188:85|181:128,1,75,0|0,1:0|1:0,1:0:0:0:
362,223,35908,6,0,P|366:200|368:164,1,37.5,0|0,1:0|0:2,0:0:0:0:
285,163,36125,1,8,0:2:0:0:
285,163,36234,1,8,0:2:0:0:
285,163,36343,1,8,0:2:0:0:
221,237,36560,5,8,1:3:0:0:
268,341,36777,1,0,0:0:0:0:
149,376,36995,1,8,0:2:0:0:
84,319,37212,5,0,1:0:0:0:
84,319,37321,2,0,P|95:272|101:232,1,75,0|0,1:0|0:0,0:0:0:0:
159,189,37647,2,0,P|152:162|145:120,1,37.5,8|0,1:3|0:0,0:0:0:0:
85,104,37864,1,8,0:2:0:0:
194,18,38082,5,0,1:0:0:0:
194,18,38190,1,8,0:2:0:0:
194,18,38299,1,8,1:3:0:0:
253,122,38516,1,0,1:0:0:0:
374,61,38734,1,8,0:2:0:0:
284,39,38951,5,0,1:0:0:0:
284,39,39060,1,8,1:3:0:0:
338,146,39277,1,0,1:0:0:0:
338,146,39386,1,8,1:3:0:0:
462,44,39603,1,8,0:2:0:0:
457,77,39711,1,8,0:2:0:0:
452,110,39820,1,8,0:2:0:0:
448,144,39929,1,8,0:2:0:0:
443,177,40037,5,8,1:3:0:0:
370,195,40256,1,8,0:3:0:0:
467,304,40473,1,8,0:2:0:0:
325,340,40690,1,0,1:0:0:0:
325,340,40799,1,0,1:0:0:0:
223,229,41016,1,8,1:3:0:0:
223,229,41125,1,0,1:3:0:0:
304,247,41343,5,8,0:2:0:0:
196,352,41560,1,0,1:0:0:0:
196,352,41669,1,8,0:2:0:0:
196,352,41777,1,8,1:3:0:0:
103,306,41995,1,0,1:0:0:0:
219,263,42212,1,8,0:2:0:0:
80,209,42430,5,0,1:2:0:0:
80,209,42538,1,0,1:3:0:0:
80,209,42647,1,0,1:0:0:0:
3,230,42864,1,0,1:0:0:0:
126,109,43082,1,8,0:2:0:0:
126,109,43190,1,8,0:2:0:0:
126,109,43299,1,8,0:2:0:0:
197,131,43516,5,8,1:3:0:0:
322,81,43734,1,0,1:0:0:0:
404,183,43951,1,8,0:2:0:0:
279,233,44169,1,0,1:0:0:0:
279,233,44277,1,0,1:0:0:0:
404,283,44495,1,0,1:0:0:0:
404,283,44603,1,8,0:3:0:0:
298,366,44821,1,8,0:2:0:0:
298,366,44930,1,8,0:2:0:0:
298,366,45038,1,8,0:2:0:0:
324,291,45256,5,8,1:3:0:0:
192,355,45473,1,0,1:0:0:0:
118,242,45690,2,0,P|126:208|135:166,1,75,8|0,0:2|0:0,0:0:0:0:
145,162,46016,1,0,1:0:0:0:
159,155,46125,1,0,1:0:0:0:
287,112,46343,1,0,1:0:0:0:
360,8,46560,1,8,0:2:0:0:
392,17,46668,1,8,0:2:0:0:
424,26,46777,1,8,0:2:0:0:
456,35,46886,1,8,0:2:0:0:
489,26,46995,6,0,P|470:118|460:202,1,168.750006437302,8|0,1:3|0:2,0:2:0:0:
444,206,47430,2,0,B|390:190|390:190|331:213,1,112.500004291535,8|0,0:2|0:0,0:0:0:0:
337,210,47756,1,0,1:0:0:0:
337,210,47864,5,8,1:3:0:0:
498,277,48082,1,8,0:3:0:0:
343,380,48299,1,8,0:2:0:0:
301,386,48407,1,8,0:2:0:0:
261,374,48516,1,8,0:2:0:0:
230,345,48625,1,8,0:2:0:0:
216,308,48734,6,0,B|151:265|151:265|49:289,1,168.750006437302,8|0,1:3|0:0,0:0:0:0:
43,295,49169,2,0,P|54:253|68:183,1,112.500004291535,8|0,0:2|1:0,0:0:0:0:
274,108,49495,2,0,P|258:158|246:224,1,112.500004291535,0|0,1:0|0:0,0:0:0:0:
141,70,49821,1,8,1:3:0:0:
274,15,50038,1,8,0:2:0:0:
315,27,50146,1,8,0:2:0:0:
357,40,50255,1,8,0:2:0:0:
399,53,50364,1,8,0:2:0:0:
441,66,50473,6,0,B|389:131|389:131|422:233,1,168.750006437302,8|0,1:3|0:0,0:0:0:0:
409,231,50908,2,0,L|294:266,1,112.500004291535,8|0,0:2|0:0,0:0:0:0:
208,338,51234,2,0,P|215:297|212:223,1,112.500004291535,0|0,1:0|0:0,0:0:0:0:
131,275,51560,2,0,L|16:242,1,112.500004291535,8|8,0:3|0:2,0:0:0:0:
17,230,51886,1,8,0:2:0:0:
13,212,51995,1,0,0:2:0:0:
10,195,52104,1,8,0:2:0:0:
7,178,52212,5,8,1:3:0:0:
184,113,52430,1,8,1:3:0:0:
69,42,52647,1,8,0:2:0:0:
220,27,52864,5,0,1:0:0:0:
293,0,52973,2,0,P|372:18|468:36,1,168.750006437302,0|0,1:0|1:0,1:0:0:0:
492,152,53516,5,8,0:2:0:0:
449,163,53624,1,8,0:2:0:0:
407,176,53733,1,8,0:2:0:0:
366,190,53842,1,8,0:2:0:0:
324,205,53951,6,0,B|296:252|296:252|326:315,1,112.500004291535,8|0,1:3|0:0,0:0:0:0:
505,356,54386,2,0,B|529:302|529:302|498:238,1,112.500004291535,8|0,0:2|0:0,0:0:0:0:
353,338,54712,2,0,L|156:377,1,168.750006437302,8|0,0:2|0:0,0:0:0:0:
47,382,55256,5,8,0:2:0:0:
59,339,55364,1,8,0:2:0:0:
71,297,55473,1,8,0:2:0:0:
82,254,55582,1,8,0:2:0:0:
94,211,55690,6,0,P|83:161|77:92,1,112.500004291535,8|0,1:3|0:0,0:0:0:0:
246,5,56125,2,0,P|255:54|262:119,1,112.500004291535,8|0,0:2|0:0,0:0:0:0:
183,287,56451,2,0,P|250:232|336:229,1,168.750006437302,8|0,0:2|0:0,0:0:0:0:
412,359,56995,5,8,0:2:0:0:
418,315,57103,1,8,0:2:0:0:
425,272,57212,1,8,0:2:0:0:
431,228,57321,1,8,0:2:0:0:
72,204,60256,6,0,P|84:228|93:258,2,44.999998626709,8|8|8,0:3|0:0|0:3,0:0:0:0:
99,48,60908,6,0,P|111:182|118:317,1,269.999991760254,6|0,1:0|0:0,0:0:0:0:
386,149,61777,2,0,P|290:163|245:231,1,179.999994506836,6|0,1:0|0:0,0:0:0:0:
352,255,62430,1,8,0:0:0:0:
256,8,62647,5,6,1:0:0:0:
210,99,62864,1,0,1:0:0:0:
210,99,62973,1,0,1:0:0:0:
210,99,63082,1,0,1:0:0:0:
301,187,63299,1,4,0:3:0:0:
200,301,63516,1,0,1:0:0:0:
200,301,63625,1,0,1:0:0:0:
200,301,63734,1,0,1:0:0:0:
265,380,63951,5,0,1:0:0:0:
329,268,64169,1,8,0:0:0:0:
158,54,64386,5,6,1:0:0:0:
87,69,64712,5,2,1:2:0:0:
16,84,65038,5,2,1:2:0:0:
354,54,65256,5,6,1:0:0:0:
429,73,65582,5,10,0:2:0:0:
429,73,65690,1,2,1:2:0:0:
500,88,65908,5,2,1:2:0:0:
486,296,66125,5,6,1:0:0:0:
260,196,66343,1,8,0:0:0:0:
260,196,66451,1,8,0:0:0:0:
260,196,66560,1,10,0:1:0:0:
26,296,66777,1,8,0:3:0:0:
26,296,66995,5,2,1:0:0:0:
256,192,67212,1,4,0:3:0:0:
486,296,67430,1,4,1:0:0:0:
256,0,67864,6,0,P|246:104|248:153,1,150,4|0,1:2|0:0,0:0:0:0:
201,213,68516,1,0,1:0:0:0:
394,339,68734,1,0,1:0:0:0:
256,0,69169,5,8,0:0:0:0:
256,0,69603,6,0,P|265:104|264:153,1,150,4|0,1:2|1:0,0:0:0:0:
311,213,70256,1,0,1:0:0:0:
118,339,70473,1,4,0:3:0:0:
118,339,70582,1,4,0:3:0:0:
59,169,70799,1,4,0:3:0:0:
59,169,70908,1,4,0:3:0:0:
185,40,71125,1,4,0:3:0:0:
256,352,71343,5,4,1:0:0:0:
172,315,72864,5,0,1:0:0:0:
256,352,73082,1,4,1:0:0:0:
484,140,73734,5,0,1:0:0:0:
399,186,73951,1,0,3:3:0:0:
378,177,74060,1,0,3:3:0:0:
352,171,74169,1,0,3:3:0:0:
319,171,74277,1,0,3:3:0:0:
283,179,74386,1,8,0:0:0:0:
246,204,74495,1,8,0:0:0:0:
211,234,74603,1,8,0:0:0:0:
158,244,74712,1,8,0:0:0:0:
90,196,74821,5,2,0:0:0:0:
503,361,76560,6,0,P|505:287|513:181,1,165.000005035401,6|8,1:0|0:0,0:0:0:0:
288,319,76886,1,0,1:0:0:0:
376,357,76995,2,0,P|375:313|370:266,1,82.5000025177003,0|0,1:0|0:0,0:0:0:0:
208,374,77212,2,0,P|204:332|203:291,1,82.5000025177003,8|0,0:0|0:0,0:0:0:0:
352,133,77430,6,0,P|315:213|238:221,1,165.000005035401,0|8,1:0|0:0,0:0:0:0:
116,122,77756,1,0,1:0:0:0:
271,45,77864,2,0,P|273:90|266:128,1,82.5000025177003,2|0,1:0|1:0,0:0:0:0:
36,8,78082,5,8,0:0:0:0:
36,8,78190,1,8,0:0:0:0:
36,8,78299,2,0,B|123:-10|113:34|197:13,1,165.000005035401,2|8,1:0|0:0,0:0:0:0:
329,58,78625,1,0,1:0:0:0:
181,153,78734,2,0,P|161:189|165:238,1,82.5000025177003,0|0,1:0|0:0,0:0:0:0:
357,215,78951,2,0,P|357:174|337:138,1,82.5000025177003,8|0,0:2|0:0,0:0:0:0:
70,235,79169,6,0,P|102:308|180:321,1,165.000005035401,0|8,1:0|0:2,0:0:0:0:
241,375,79495,1,0,1:0:0:0:
358,303,79603,2,0,P|396:292|446:277,1,82.5000025177003,2|0,1:0|0:0,0:0:0:0:
180,321,79821,2,0,P|140:328|100:339,1,82.5000025177003,8|0,0:0|0:0,0:0:0:0:
284,80,80038,6,0,B|227:93|227:93|196:131|196:131|134:142,1,165.000005035401,6|8,1:0|0:0,0:0:0:0:
238,257,80364,1,0,1:0:0:0:
348,142,80473,2,0,P|385:149|440:163,1,82.5000025177003,0|0,1:0|0:0,0:0:0:0:
447,77,80690,2,0,P|403:70|361:57,1,82.5000025177003,8|0,0:0|0:0,0:0:0:0:
44,8,80908,6,0,P|35:87|60:183,1,165.000005035401,6|8,1:0|0:0,0:0:0:0:
234,75,81234,1,8,1:0:0:0:
310,12,81343,2,0,P|319:91|294:187,1,165.000005035401,0|8,1:0|0:0,0:0:0:0:
122,231,81669,5,8,0:0:0:0:
14,307,81777,2,0,P|53:313|107:305,1,82.5000025177003,2|0,1:1|0:0,0:0:0:0:
212,152,81995,2,0,P|173:146|119:154,1,82.5000025177003,8|0,0:1|0:0,0:0:0:0:
229,348,82212,2,0,P|235:306|228:250,1,82.5000025177003,2|0,1:1|0:0,0:0:0:0:
323,90,82430,2,0,P|319:131|325:171,1,82.5000025177003,8|0,0:2|0:0,0:0:0:0:
372,275,82647,5,4,0:3:0:0:
385,280,82755,1,4,0:3:0:0:
399,286,82864,1,4,0:3:0:0:
413,292,82973,1,4,0:3:0:0:
496,258,83082,5,10,0:2:0:0:
486,179,83190,1,10,0:2:0:0:
419,137,83299,1,10,0:2:0:0:
344,158,83408,1,10,0:2:0:0:
267,253,83516,6,0,P|257:178|251:103,1,150,4|8,1:0|0:0,0:0:0:0:
197,299,83843,1,0,1:0:0:0:
117,338,83951,2,0,P|118:300|112:254,1,75,0|0,1:0|0:0,0:0:0:0:
56,149,84169,6,0,P|128:146|171:204,1,150,10|0,0:2|1:0,0:0:0:0:
285,143,84495,1,0,1:0:0:0:
217,85,84603,2,0,L|209:10,1,75,10|0,0:2|0:0,0:0:0:0:
367,139,84821,2,0,L|361:65,1,75,0|0,1:3|0:0,0:0:0:0:
455,7,85038,2,0,B|466:44|466:44|447:78,1,75,8|0,0:0|0:0,0:0:0:0:
285,143,85256,6,0,B|264:189|264:189|302:282,1,150,2|8,1:2|0:0,0:0:0:0:
487,203,85582,1,0,1:0:0:0:
408,173,85690,2,0,L|402:255,1,75,0|0,1:0|0:0,0:0:0:0:
512,343,85908,6,0,B|433:329|442:368|346:344,1,150,10|0,0:2|1:0,0:0:0:0:
187,278,86234,1,0,1:0:0:0:
302,207,86343,2,0,B|309:242|309:242|295:310,1,75,10|0,0:2|0:0,0:0:0:0:
192,196,86560,2,0,B|184:158|184:158|191:123,1,75,0|0,1:3|0:0,0:0:0:0:
299,32,86777,2,0,B|306:67|306:67|292:135,1,75,8|0,0:0|0:0,0:0:0:0:
512,48,86995,2,0,P|430:71|405:136,1,150,2|8,1:2|0:0,0:0:0:0:
280,189,87321,5,0,1:0:0:0:
373,263,87430,2,0,P|377:224|370:181,1,75,2|0,1:2|0:0,0:0:0:0:
497,134,87647,2,0,P|484:210|491:293,1,150,10|0,0:2|1:0,0:0:0:0:
406,353,87973,1,0,1:0:0:0:
230,300,88082,2,0,P|298:269|372:262,1,150,10|0,0:2|1:3,0:0:0:0:
405,125,88408,1,0,1:0:0:0:
337,179,88516,2,0,P|298:177|261:171,1,75,10|0,0:2|1:0,0:0:0:0:
38,85,88734,5,6,1:2:0:0:
113,72,88843,1,2,1:2:0:0:
173,121,88951,1,10,0:2:0:0:
176,199,89060,1,2,1:2:0:0:
76,266,89169,5,2,1:2:0:0:
111,259,89277,1,10,0:2:0:0:
139,271,89386,1,2,1:2:0:0:
158,303,89495,1,2,1:2:0:0:
51,384,89603,6,0,B|112:368|112:368|145:332|145:332|209:319,1,172.500003290176,8|0,1:3|1:0,0:0:0:0:
331,209,89930,1,0,1:0:0:0:
488,298,90038,2,0,B|427:284|427:284|394:246|394:246|330:233,1,172.500003290176,12|0,1:2|1:0,0:0:0:0:
172,49,90364,1,0,1:0:0:0:
255,161,90473,6,0,B|231:81|280:84|251:0,2,165.000005035401,6|8|0,1:0|0:0|1:0,0:0:0:0:
5,119,91016,1,0,1:0:0:0:
75,161,91125,2,0,B|115:147|115:147|157:158,1,82.5000025177003,8|0,0:0|0:0,0:0:0:0:
70,346,91343,6,0,P|80:269|165:248,1,165.000005035401,0|8,1:0|0:0,0:0:0:0:
297,293,91669,1,0,1:0:0:0:
214,383,91777,2,0,B|226:344|226:344|212:292,1,82.5000025177003,2|0,1:0|1:0,0:0:0:0:
425,156,91995,5,8,0:0:0:0:
425,156,92103,1,8,0:0:0:0:
425,156,92212,2,0,B|436:238|381:229|400:322,1,172.500003290176,2|8,1:0|0:0,0:0:0:0:
328,378,92538,1,0,1:0:0:0:
259,192,92647,2,0,L|341:178,1,82.5000025177003,0|0,1:0|0:0,0:0:0:0:
512,255,92864,2,0,L|432:270,1,82.5000025177003,8|0,0:0|0:0,0:0:0:0:
246,18,93082,6,0,B|306:30|306:30|337:62|337:62|394:75,1,165.000005035401,0|8,1:0|0:0,0:0:0:0:
169,143,93408,1,0,1:0:0:0:
110,6,93516,2,0,P|96:44|101:84,1,82.5000025177003,2|0,1:0|0:0,0:0:0:0:
256,183,93734,2,0,P|269:144|264:104,1,82.5000025177003,8|0,0:0|0:0,0:0:0:0:
0,158,93951,6,0,P|75:177|112:262,1,165.000005035401,6|8,1:0|0:0,0:0:0:0:
269,303,94277,1,0,1:0:0:0:
188,364,94386,2,0,B|176:324|176:324|189:283,1,82.5000025177003,0|0,1:3|0:0,0:0:0:0:
351,283,94603,2,0,B|362:323|362:323|350:364,1,82.5000025177003,8|0,0:0|0:0,0:0:0:0:
179,186,94821,6,0,P|197:113|281:81,1,165.000005035401,2|8,1:0|0:0,0:0:0:0:
325,160,95147,1,8,0:0:0:0:
161,173,95256,2,0,P|188:98|263:65,1,165.000005035401,2|8,1:2|0:0,0:0:0:0:
422,134,95582,1,8,0:0:0:0:
86,46,95690,2,0,B|174:29|162:73|247:50,1,165.000005035401,6|8,1:0|0:0,0:0:0:0:
394,52,96016,1,8,0:0:0:0:
237,159,96125,5,2,1:0:0:0:
231,193,96234,1,2,1:2:0:0:
235,227,96343,1,10,1:2:0:0:
249,259,96451,1,2,1:2:0:0:
234,358,96560,5,14,0:1:0:0:
302,384,96669,1,10,0:2:0:0:
366,349,96777,1,10,0:1:0:0:
371,273,96886,1,10,0:2:0:0:
313,180,96995,5,4,0:3:0:0:
374,130,97103,1,4,0:3:0:0:
324,72,97212,1,4,0:3:0:0:
387,26,97321,1,4,0:3:0:0:
272,0,97430,5,6,1:2:0:0:
77,92,97864,1,2,0:2:0:0:
141,133,98516,2,0,P|180:134|227:140,1,75,2|0,0:2|0:0,0:0:0:0:
281,191,98951,1,0,0:0:0:0:
480,288,99169,5,4,1:2:0:0:
256,352,99603,1,2,0:2:0:0:
172,384,100256,2,0,P|175:328|174:298,1,75,2|4,0:2|0:3,0:0:0:0:
221,245,100690,1,0,0:0:0:0:
109,89,100908,5,6,1:2:0:0:
25,170,101560,2,0,P|65:171|119:177,1,75,2|0,0:2|0:0,0:0:0:0:
159,229,101995,5,0,1:0:0:0:
259,168,102212,1,8,0:3:0:0:
386,249,102430,1,4,0:3:0:0:
503,169,102647,6,0,B|380:119|399:262|283:231,1,225,4|0,1:0|0:0,0:0:0:0:
48,54,103516,2,0,B|171:12|156:147|266:127,1,225,4|0,1:0|0:0,0:0:0:0:
41,255,104386,1,4,0:2:0:0:
256,192,107103,12,0,107756,0:0:0:0:
422,66,107864,5,0,1:0:0:0:
371,158,107973,1,0,1:0:0:0:
450,150,108082,1,0,1:0:0:0:
339,82,108190,2,0,B|281:93|281:93|267:89|267:89|194:104,1,134.999995880127,14|0,0:1|0:0,0:0:0:0:
41,7,108516,5,0,1:0:0:0:
105,54,108625,1,0,1:0:0:0:
48,107,108734,1,0,1:0:0:0:
57,224,108843,2,0,B|98:169|98:169|164:164,1,134.999995880127,14|0,0:1|0:0,0:0:0:0:
117,363,109169,5,8,0:0:0:0:
158,376,109277,1,8,0:0:0:0:
221,316,109386,1,4,0:3:0:0:
265,306,109495,1,4,0:3:0:0:
330,375,109603,5,0,1:0:0:0:
384,327,109712,1,0,1:0:0:0:
371,256,109821,1,0,1:0:0:0:
301,230,109930,2,0,P|300:148|307:83,1,134.999995880127,14|0,0:1|0:0,0:0:0:0:
477,25,110256,5,0,1:0:0:0:
422,111,110364,1,0,1:0:0:0:
495,96,110473,1,0,1:0:0:0:
385,29,110582,2,0,P|390:96|389:163,1,134.999995880127,14|0,0:1|0:0,0:0:0:0:
503,275,110908,5,8,0:0:0:0:
427,290,111016,1,8,0:0:0:0:
366,301,111125,1,4,0:3:0:0:
324,307,111234,1,4,0:3:0:0:
372,384,111343,6,0,B|321:371|321:371|305:347|305:347|244:330,1,134.999995880127,6|8,1:2|0:0,0:0:0:0:
232,297,111669,1,0,1:0:0:0:
23,291,111777,2,0,L|87:272,1,67.4999979400635,2|0,1:2|0:0,0:0:0:0:
163,207,111995,2,0,L|99:188,1,67.4999979400635,10|0,0:0|0:0,0:0:0:0:
23,75,112212,6,0,L|180:121,1,134.999995880127,0|10,1:2|0:2,0:0:0:0:
193,95,112538,1,0,1:0:0:0:
329,26,112647,2,0,P|325:64|325:126,1,67.4999979400635,2|0,1:2|0:0,0:0:0:0:
408,28,112864,2,0,P|412:66|412:128,1,67.4999979400635,8|0,0:2|0:0,0:0:0:0:
210,199,113082,5,6,1:2:0:0:
210,199,113190,2,0,P|244:194|281:184,1,67.4999979400635,0|8,1:0|0:0,0:0:0:0:
291,214,113408,2,0,P|324:219|357:228,1,67.4999979400635,2|0,1:2|0:0,0:0:0:0:
169,337,113625,1,0,1:0:0:0:
169,337,113734,2,0,P|201:328|235:323,1,67.4999979400635,10|0,0:2|0:0,0:0:0:0:
338,314,113951,1,0,1:0:0:0:
338,314,114060,2,0,P|306:306|273:302,1,67.4999979400635,2|8,1:2|0:0,0:0:0:0:
483,311,114277,5,0,1:0:0:0:
504,333,114386,2,0,L|518:262,1,67.4999979400635,2|0,1:2|0:0,0:0:0:0:
430,172,114603,2,0,L|440:238,1,67.4999979400635,10|0,0:2|0:0,0:0:0:0:
498,18,114821,5,4,1:0:0:0:
424,71,114930,1,0,0:0:0:0:
491,102,115038,1,0,0:0:0:0:
375,11,115147,2,0,P|308:33|230:48,1,134.999995880127,14|0,0:1|0:0,0:0:0:0:
22,63,115473,5,0,1:0:0:0:
96,116,115582,1,0,1:0:0:0:
29,147,115690,1,0,1:0:0:0:
145,56,115799,2,0,P|212:78|290:93,1,134.999995880127,14|0,0:1|0:0,0:0:0:0:
421,228,116125,5,0,1:0:0:0:
345,220,116234,1,8,0:0:0:0:
317,289,116343,1,8,0:0:0:0:
243,304,116451,1,8,0:0:0:0:
187,254,116560,1,0,1:0:0:0:
198,181,116669,1,0,1:0:0:0:
266,154,116777,1,0,1:0:0:0:
382,129,116886,2,0,P|315:115|251:94,1,134.999995880127,14|0,0:1|0:0,0:0:0:0:
497,19,117212,5,0,1:0:0:0:
432,64,117321,1,0,1:0:0:0:
466,134,117430,1,0,1:0:0:0:
356,43,117538,2,0,P|289:54|222:61,1,134.999995880127,14|0,0:1|0:0,0:0:0:0:
50,169,117864,5,8,0:0:0:0:
124,171,117973,1,8,0:0:0:0:
171,208,118082,1,4,0:3:0:0:
184,253,118190,1,4,0:3:0:0:
157,335,118299,6,0,L|293:356,1,134.999995880127,6|8,1:2|0:0,0:0:0:0:
437,250,118625,1,0,1:0:0:0:
364,294,118734,2,0,P|316:249|324:185,1,134.999995880127,2|0,1:2|0:0,0:0:0:0:
447,124,119060,1,0,1:0:0:0:
463,151,119169,2,0,P|426:148|384:139,1,67.4999979400635,2|0,1:2|0:0,0:0:0:0:
322,87,119386,2,0,P|285:90|243:99,1,67.4999979400635,10|0,0:2|0:0,0:0:0:0:
112,174,119603,6,0,P|145:176|178:182,1,67.4999979400635,2|0,1:2|0:0,0:0:0:0:
241,227,119821,1,8,0:0:0:0:
195,287,119930,1,8,0:0:0:0:
243,354,120038,6,0,L|307:341,3,41.2500012588501,0|0|0|0,1:3|0:0|0:0|0:0,0:0:0:0:
380,334,120473,2,0,L|400:272,3,41.2500012588501,0|0|0|0,1:0|0:0|0:0|0:0,0:0:0:0:
431,205,120908,2,0,L|387:156,1,41.2500012588501,0|0,1:0|0:0,0:0:0:0:
344,96,121125,2,0,L|280:108,1,41.2500012588501,0|0,1:0|0:0,0:0:0:0:
246,179,121343,6,0,L|208:165,1,33.7499989700318,10|0,0:2|0:2,0:2:0:0:
175,176,121451,6,0,L|137:162,1,33.7499989700318,10|0,0:2|0:2,0:2:0:0:
105,173,121560,6,0,L|67:159,1,33.7499989700318,10|0,0:2|0:2,0:2:0:0:
34,170,121669,6,0,L|-3:156,1,33.7499989700318,10|0,0:2|0:2,0:2:0:0:
0,252,121777,6,0,P|72:273|102:335,1,134.999995880127,6|8,1:0|0:0,0:0:0:0:
87,359,122103,1,0,1:0:0:0:
195,258,122212,2,0,P|228:247|266:250,1,67.4999979400635,0|0,1:0|0:0,0:0:0:0:
304,319,122430,2,0,P|271:330|233:327,1,67.4999979400635,8|0,0:0|0:0,0:0:0:0:
353,192,122647,2,0,P|417:239|411:309,1,134.999995880127,2|8,1:0|0:0,0:0:0:0:
398,315,122973,1,0,1:0:0:0:
261,249,123082,2,0,P|261:210|266:177,1,67.4999979400635,0|0,1:0|0:0,0:0:0:0:
351,99,123299,2,0,P|350:137|346:171,1,67.4999979400635,8|0,0:0|0:0,0:0:0:0:
186,125,123516,6,0,P|193:60|248:25,1,134.999995880127,2|8,1:0|0:0,0:0:0:0:
265,182,123843,2,0,P|302:179|345:172,1,67.4999979400635,0|0,1:0|0:0,0:0:0:0:
465,153,124060,5,0,1:0:0:0:
416,228,124169,2,0,P|409:292|354:328,1,134.999995880127,10|0,0:1|1:0,0:0:0:0:
212,266,124495,1,0,1:0:0:0:
212,266,124603,2,0,P|245:269|278:274,1,67.4999979400635,10|0,0:1|0:0,0:0:0:0:
124,367,124821,2,0,P|127:333|132:300,1,67.4999979400635,0|0,1:2|0:0,0:0:0:0:
24,240,125038,2,0,P|57:236|90:231,1,67.4999979400635,8|0,0:2|0:0,0:0:0:0:
254,79,125256,6,0,P|194:118|180:183,1,134.999995880127,6|8,1:2|0:0,0:0:0:0:
165,198,125582,1,0,1:2:0:0:
321,138,125690,2,0,P|355:145|386:157,1,67.4999979400635,0|0,1:2|0:0,0:0:0:0:
465,55,125908,1,10,0:2:0:0:
465,55,126016,2,0,P|430:62|389:79,1,67.4999979400635,0|0,1:2|0:0,0:0:0:0:
275,0,126234,2,0,P|310:7|351:24,2,67.4999979400635,2|8|0,1:2|0:0|0:0,0:0:0:0:
175,46,126560,6,0,P|175:80|165:112,1,67.4999979400635,2|0,1:2|0:0,0:0:0:0:
94,34,126777,2,0,P|83:66|84:100,1,67.4999979400635,10|0,0:2|0:0,0:0:0:0:
3,188,126995,5,10,0:2:0:0:
3,188,127103,2,0,P|71:204|138:238,1,134.999995880127,2|0,1:2|0:0,0:0:0:0:
168,308,127430,2,0,P|208:297|247:277,1,67.4999979400635,0|0,1:2|0:0,0:0:0:0:
407,252,127647,5,10,0:2:0:0:
407,252,127756,2,0,P|339:236|272:202,1,134.999995880127,2|0,1:2|0:0,0:0:0:0:
242,129,128082,2,0,P|211:142|178:150,1,67.4999979400635,8|0,0:0|0:0,0:0:0:0:
384,13,128299,6,0,B|368:42|368:42|374:86,1,67.4999979400635,2|0,1:2|0:0,0:0:0:0:
464,23,128516,2,0,B|468:56|468:56|452:86,1,67.4999979400635,10|0,0:2|0:0,0:0:0:0:
465,206,128734,2,0,B|413:162|413:162|339:167,1,134.999995880127,2|0,1:2|0:0,0:0:0:0:
318,146,129060,1,0,1:0:0:0:
182,213,129169,6,0,L|190:291,1,67.4999979400635,2|0,1:1|0:0,0:0:0:0:
93,162,129386,2,0,L|84:83,1,67.4999979400635,8|0,0:1|0:0,0:0:0:0:
35,252,129603,2,0,L|101:243,1,67.4999979400635,0|0,1:0|0:0,0:0:0:0:
172,131,129821,2,0,L|238:122,1,67.4999979400635,10|0,0:1|0:0,0:0:0:0:
265,224,130038,2,0,L|331:215,1,67.4999979400635,0|0,1:0|0:0,0:0:0:0:
444,84,130256,6,0,P|459:54|478:26,1,67.4999979400635,10|0,0:1|0:0,0:0:0:0:
427,224,130473,2,0,P|396:159|354:105,1,134.999995880127,2|8,1:2|0:0,0:0:0:0:
228,32,130799,6,0,P|197:46|158:54,1,67.4999979400635,2|0,1:2|0:0,0:0:0:0:
278,125,131016,1,0,1:0:0:0:
278,125,131125,2,0,L|205:128,1,67.4999979400635,10|0,0:2|0:0,0:0:0:0:
167,205,131343,1,0,1:0:0:0:
167,205,131451,2,0,P|201:210|233:222,1,67.4999979400635,2|8,1:2|0:0,0:0:0:0:
63,308,131669,5,0,1:0:0:0:
52,331,131777,2,0,P|84:327|125:325,1,67.4999979400635,2|0,1:2|0:0,0:0:0:0:
209,365,131995,2,0,P|204:331|203:297,1,67.4999979400635,10|0,0:2|0:0,0:0:0:0:
375,239,132212,6,0,P|314:262|291:325,2,134.999995880127,2|8|0,1:2|0:0|1:0,0:0:0:0:
403,153,132756,2,0,B|369:150|369:150|342:129,1,67.4999979400635,0|8,1:2|0:0,0:0:0:0:
174,60,132973,2,0,P|235:83|258:146,1,134.999995880127,2|0,1:2|0:0,0:0:0:0:
228,231,133299,2,0,B|201:210|201:210|167:207,1,67.4999979400635,8|0,0:2|0:0,0:0:0:0:
59,364,133516,6,0,P|55:327|61:291,1,67.4999979400635,0|0,1:0|0:0,0:0:0:0:
146,361,133734,2,0,P|150:327|146:294,1,67.4999979400635,8|0,0:0|0:0,0:0:0:0:
21,134,133951,5,10,0:2:0:0:
21,134,134060,2,0,P|40:193|112:216,1,134.999995880127,2|0,1:2|0:0,0:0:0:0:
183,111,134386,2,0,P|176:142|176:178,1,67.4999979400635,0|0,1:0|0:0,0:0:0:0:
348,9,134603,1,10,0:2:0:0:
348,9,134712,2,0,P|286:30|264:92,1,134.999995880127,2|0,1:2|0:0,0:0:0:0:
366,168,135038,2,0,P|400:164|433:169,1,67.4999979400635
280,268,135256,5,8,0:0:0:0:
201,264,135364,1,8,0:0:0:0:
142,317,135473,1,8,0:0:0:0:
62,311,135582,1,8,0:0:0:0:
7,367,135690,6,0,L|22:219,1,134.999995880127,6|8,1:0|0:0,0:0:0:0:
73,112,136016,1,0,1:0:0:0:
135,54,136125,2,0,P|169:45|215:45,1,67.4999979400635,0|0,1:0|0:0,0:0:0:0:
213,150,136343,2,0,P|178:158|132:158,1,67.4999979400635,8|0,0:0|0:0,0:0:0:0:
338,0,136560,6,0,P|293:48|292:114,1,134.999995880127,2|8,1:0|0:0,0:0:0:0:
421,183,136886,2,0,L|285:202,1,134.999995880127,0|0,1:0|0:0,0:0:0:0:
512,273,137212,2,0,L|446:265,1,67.4999979400635,8|0,0:0|0:0,0:0:0:0:
260,351,137430,6,0,L|393:332,1,134.999995880127,2|8,1:0|0:0,0:0:0:0:
213,157,137756,1,0,1:0:0:0:
160,214,137864,2,0,B|154:247|154:247|173:281,1,67.4999979400635,0|0,1:0|0:0,0:0:0:0:
261,52,138082,5,10,0:1:0:0:
335,10,138190,2,0,B|368:4|368:4|397:21,1,67.4999979400635,0|0,1:0|0:0,0:0:0:0:
411,106,138408,2,0,B|377:111|377:111|348:94,1,67.4999979400635,0|10,1:0|0:1,0:0:0:0:
174,10,138625,5,0,1:0:0:0:
103,49,138734,2,0,P|93:82|98:118,1,67.4999979400635,0|0,1:0|0:1,0:0:0:0:
239,130,138951,2,0,P|242:163|232:195,1,67.4999979400635,10|0,0:1|0:0,0:0:0:0:
10,214,139169,2,0,P|77:201|156:193,2,134.999995880127,6|8|0,1:2|0:0|1:2,0:0:0:0:
123,287,139712,2,0,P|175:291|208:302,1,67.4999979400635,2|8,1:2|0:0,0:0:0:0:
346,361,139930,6,0,B|402:324|402:324|478:326,1,134.999995880127,2|0,1:2|0:0,0:0:0:0:
329,235,140256,2,0,P|277:239|244:250,1,67.4999979400635,10|0,0:2|0:0,0:0:0:0:
156,114,140473,2,0,P|163:146|163:180,1,67.4999979400635,0|0,1:0|0:0,0:0:0:0:
281,107,140690,2,0,L|244:169,1,67.4999979400635,8|0,0:0|0:0,0:0:0:0:
455,7,140908,5,10,0:2:0:0:
512,72,141016,2,0,B|467:63|467:63|436:32|436:32|386:23,1,134.999995880127,2|0,1:2|0:0,0:0:0:0:
266,42,141343,2,0,P|275:75|282:108,1,67.4999979400635,0|0,1:0|0:0,0:0:0:0:
109,169,141560,1,10,0:2:0:0:
55,223,141669,2,0,P|56:298|60:357,1,134.999995880127,2|0,1:2|0:0,0:0:0:0:
240,206,141995,6,0,P|271:226|307:238,1,67.4999979400635,10|0,0:2|0:0,0:0:0:0:
308,320,142212,2,0,P|274:336|246:362,1,67.4999979400635,2|0,1:2|0:0,0:0:0:0:
175,322,142430,2,0,P|177:284|168:247,1,67.4999979400635,10|0,0:2|0:0,0:0:0:0:
394,160,142647,6,0,P|398:227|399:294,1,134.999995880127,2|8,1:2|0:0,0:0:0:0:
492,227,142973,1,0,1:0:0:0:
360,83,143082,6,0,P|356:49|349:16,1,67.4999979400635,2|0,1:1|0:0,0:0:0:0:
434,19,143299,2,0,P|472:10|504:8,1,67.4999979400635,8|0,0:0|0:0,0:0:0:0:
153,82,143516,6,0,P|114:73|83:71,1,67.4999979400635,2|0,1:1|0:0,0:0:0:0:
227,146,143734,2,0,P|230:112|237:79,1,67.4999979400635,8|0,0:0|0:0,0:0:0:0:
84,219,143951,2,0,P|90:185|93:152,1,67.4999979400635,0|0,1:0|0:0,0:0:0:0:
165,214,144169,2,0,P|203:222|235:225,1,67.4999979400635,8|0,0:0|0:0,0:0:0:0:
411,341,144386,6,0,B|339:324|347:360|278:343,1,134.999995880127,6|8,1:2|0:0,0:0:0:0:
485,276,144712,1,2,1:2:0:0:
485,276,144821,2,0,L|493:194,1,67.4999979400635,0|0,1:2|0:0,0:0:0:0:
309,162,145038,6,0,P|370:184|391:246,1,134.999995880127,10|0,0:2|0:0,0:0:0:0:
225,163,145364,1,2,1:2:0:0:
184,248,145473,2,0,P|217:243|251:244,1,67.4999979400635,8|0,0:0|0:0,0:0:0:0:
102,375,145690,5,8,0:3:0:0:
391,247,145908,1,4,0:3:0:0:
114,34,146125,6,0,P|128:95|134:168,1,120,12|0,0:0|1:0,0:0:0:0:
154,170,146451,1,0,1:0:0:0:
258,88,146560,2,0,P|325:80|385:65,1,120,12|0,0:0|1:0,0:0:0:0:
395,84,146886,1,0,1:0:0:0:
328,202,146995,2,0,P|299:193|270:189,1,60,12|0,0:0|0:0,0:0:0:0:
466,227,147212,5,8,0:0:0:0:
421,209,147321,1,8,0:0:0:0:
376,216,147430,1,8,0:0:0:0:
342,249,147538,1,8,0:0:0:0:
321,288,147647,1,8,0:0:0:0:
280,307,147756,1,8,0:0:0:0:
124,257,147864,5,4,1:0:0:0:
124,257,147973,2,0,L|83:265,4,41.2500012588501,2|2|2|2|2,0:2|0:0|0:0|0:0|0:0,0:0:0:0:
255,101,148516,6,0,L|310:90,1,52.4999983978272,0|0,1:0|0:0,0:0:0:0:
313,9,148734,2,0,P|502:93|461:272,1,404.999987640381,10|0,0:2|0:0,0:0:0:0:
56,111,149603,6,0,P|176:190|242:319,1,292.499986610413,6|0,1:0|0:0,0:0:0:0:
447,90,150473,2,0,B|336:63|352:159|267:157,1,194.999991073609,6|0,1:0|0:0,0:0:0:0:
428,255,151125,1,8,0:0:0:0:
179,41,151343,5,6,1:0:0:0:
54,184,151560,1,0,1:0:0:0:
54,184,151669,1,0,1:0:0:0:
54,184,151777,1,0,1:0:0:0:
185,315,151995,1,4,0:3:0:0:
325,37,152212,5,0,1:0:0:0:
325,37,152321,1,0,1:0:0:0:
325,37,152430,1,0,1:0:0:0:
452,172,152647,1,0,1:0:0:0:
327,315,152864,1,8,0:0:0:0:
14,257,153082,5,6,1:0:0:0:
85,233,153734,1,2,1:2:0:0:
482,303,153951,1,6,1:0:0:0:
411,327,154277,1,10,0:2:0:0:
411,327,154386,1,2,1:2:0:0:
411,327,154495,1,0,0:0:0:0:
411,327,154603,1,2,1:2:0:0:
85,233,154821,5,6,1:0:0:0:
312,49,155038,1,8,0:0:0:0:
312,49,155147,1,8,0:0:0:0:
312,49,155256,1,10,0:1:0:0:
386,75,155473,1,8,0:3:0:0:
476,282,155690,1,2,1:0:0:0:
476,282,155799,1,0,0:0:0:0:
476,282,155908,1,4,0:3:0:0:
402,308,156125,1,4,1:0:0:0:
24,191,156560,6,0,P|97:185|188:191,1,150,4|0,1:2|0:0,0:0:0:0:
173,189,157212,1,0,1:0:0:0:
328,268,157430,5,0,1:0:0:0:
193,116,157756,1,0,0:0:0:0:
193,116,157864,1,8,0:0:0:0:
296,23,158082,1,0,0:0:0:0:
488,191,158299,6,0,P|416:197|323:191,1,150,4|0,1:2|1:0,0:0:0:0:
450,274,158951,1,0,1:0:0:0:
364,112,159169,5,4,0:3:0:0:
364,112,159277,1,4,0:3:0:0:
364,112,159386,1,0,0:0:0:0:
231,139,159603,1,4,0:3:0:0:
104,109,159821,1,4,0:3:0:0:
8,319,160038,5,4,1:0:0:0:
79,353,161560,5,0,1:0:0:0:
175,320,161777,1,4,1:0:0:0:
11,145,162430,5,0,1:0:0:0:
113,186,162647,1,0,3:3:0:0:
134,177,162756,1,0,3:3:0:0:
160,171,162864,1,0,3:3:0:0:
193,171,162973,1,0,3:3:0:0:
229,179,163082,1,8,0:0:0:0:
266,204,163190,1,8,0:0:0:0:
301,234,163299,1,8,0:0:0:0:
354,244,163408,1,8,0:0:0:0:
424,203,163516,5,2,0:0:0:0:
95,55,165038,5,2,1:2:0:0:
114,68,165111,5,2,1:2:0:0:
101,105,165183,5,2,1:2:0:0:
124,128,165256,6,0,B|90:204|90:204|132:277,1,165.000005035401,6|8,1:0|0:0,0:0:0:0:
280,346,165582,1,0,1:0:0:0:
406,268,165690,2,0,P|359:265|320:270,1,82.5000025177003,0|0,1:0|0:0,0:0:0:0:
217,128,165908,2,0,P|215:170|220:210,1,82.5000025177003,8|0,0:0|0:0,0:0:0:0:
424,32,166125,6,0,P|345:61|338:141,1,165.000005035401,0|8,1:0|0:0,0:0:0:0:
399,261,166451,1,0,1:0:0:0:
511,166,166560,2,0,B|470:153|470:153|430:169,1,82.5000025177003,2|0,1:0|1:0,0:0:0:0:
62,104,166777,5,8,0:0:0:0:
62,104,166886,1,8,0:0:0:0:
63,105,166995,2,0,B|149:107|125:64|224:72,1,165.000005035401,2|8,1:0|0:0,0:0:0:0:
96,227,167321,1,0,1:0:0:0:
150,373,167430,2,0,P|158:332|163:290,1,82.5000025177003,0|0,1:0|0:0,0:0:0:0:
267,213,167647,2,0,P|226:207|185:200,1,82.5000025177003,8|0,1:2|0:0,0:0:0:0:
416,365,167864,6,0,P|349:315|353:233,1,165.000005035401,0|8,1:0|0:2,0:0:0:0:
459,190,168190,1,0,1:0:0:0:
512,276,168299,2,0,P|469:272|425:274,1,82.5000025177003,2|0,1:0|0:0,0:0:0:0:
308,141,168516,2,0,P|351:143|390:140,1,82.5000025177003,8|0,0:0|0:0,0:0:0:0:
193,367,168734,6,0,P|184:289|198:189,1,165.000005035401,6|8,1:0|0:0,0:0:0:0:
315,286,169060,1,0,1:0:0:0:
97,322,169169,2,0,B|87:281|87:281|101:231,1,82.5000025177003,0|0,1:0|0:0,0:0:0:0:
221,128,169386,2,0,B|233:168|233:168|223:207,1,82.5000025177003,8|0,0:0|0:0,0:0:0:0:
3,36,169603,6,0,P|91:30|173:21,1,165.000005035401,6|8,1:0|0:0,0:0:0:0:
136,130,169930,1,8,1:0:0:0:
387,220,170038,2,0,P|305:212|223:207,1,165.000005035401,0|8,1:0|0:0,0:0:0:0:
446,158,170364,1,8,0:0:0:0:
259,19,170473,6,0,P|264:58|267:102,1,82.5000025177003,4|0,1:2|0:0,0:0:0:0:
446,158,170690,2,0,P|446:115|450:75,1,82.5000025177003,8|0,0:0|0:0,0:0:0:0:
139,3,170908,2,0,P|147:45|181:76,1,82.5000025177003,6|0,1:2|0:0,0:0:0:0:
393,297,171125,2,0,P|399:244|372:205,1,82.5000025177003,8|0,0:0|0:0,0:0:0:0:
190,185,171343,5,6,1:2:0:0:
179,190,171451,1,4,0:3:0:0:
169,196,171560,1,4,0:3:0:0:
160,200,171669,1,4,0:3:0:0:
81,262,171777,5,10,0:1:0:0:
11,221,171886,1,10,0:1:0:0:
0,146,171995,1,10,0:1:0:0:
58,93,172103,1,10,0:1:0:0:
160,200,172212,6,0,P|230:187|265:108,1,150,4|8,1:0|0:0,0:0:0:0:
408,21,172538,1,0,1:0:0:0:
479,65,172647,2,0,P|488:100|479:148,1,75,0|0,1:0|0:0,0:0:0:0:
342,178,172864,6,0,P|414:192|448:257,1,150,10|0,0:2|1:0,0:0:0:0:
404,327,173190,1,0,1:0:0:0:
270,363,173299,6,0,B|263:327|263:327|273:282,1,75,10|0,0:2|0:0,0:0:0:0:
116,297,173516,2,0,L|203:289,1,75,0|0,1:3|0:0,0:0:0:0:
35,220,173734,2,0,B|42:256|42:256|33:293,1,75,8|0,0:0|0:0,0:0:0:0:
203,72,173951,6,0,B|125:86|135:52|55:66,1,150,2|8,1:2|0:0,0:0:0:0:
86,145,174277,1,0,1:0:0:0:
216,152,174386,2,0,B|253:144|253:144|302:149,1,75,0|0,1:0|0:0,0:0:0:0:
321,220,174603,6,0,B|401:234|391:200|469:214,1,150,10|0,0:2|1:0,0:0:0:0:
206,331,174930,1,0,1:0:0:0:
299,373,175038,2,0,P|301:334|291:283,1,75,10|0,0:2|0:0,0:0:0:0:
165,261,175256,2,0,P|159:223|161:186,1,75,0|0,1:3|0:0,0:0:0:0:
308,195,175473,2,0,P|307:154|298:104,1,75,8|0,0:0|0:0,0:0:0:0:
92,74,175690,6,0,L|243:64,1,150,2|8,1:2|0:0,0:0:0:0:
302,120,176016,1,0,1:0:0:0:
390,0,176125,6,0,B|382:38|382:38|388:86,1,75,2|0,1:2|0:0,0:0:0:0:
512,130,176343,2,0,P|442:161|422:239,1,150,10|0,0:2|1:0,0:0:0:0:
494,279,176669,1,0,1:0:0:0:
383,355,176777,2,0,B|313:330|313:330|215:367,1,150,10|0,0:2|1:3,0:0:0:0:
336,251,177103,1,0,1:0:0:0:
277,197,177212,2,0,P|239:208|203:213,1,75,10|0,0:2|1:0,0:0:0:0:
416,10,177430,5,4,1:0:0:0:
348,37,177538,1,2,1:2:0:0:
324,105,177647,1,10,0:2:0:0:
361,168,177756,1,0,1:0:0:0:
473,203,177864,5,0,1:0:0:0:
487,243,177973,1,10,0:2:0:0:
471,284,178082,1,0,1:0:0:0:
431,303,178190,1,0,1:3:0:0:
287,241,178299,6,0,P|359:256|399:353,1,179.999994506836,8|0,1:3|0:0,0:0:0:0:
414,360,178625,1,0,1:0:0:0:
139,346,178734,2,0,P|221:340|303:329,1,165.000005035401,12|0,0:2|0:0,0:0:0:0:
273,209,179060,1,0,1:0:0:0:
486,148,179169,6,0,P|412:180|389:256,2,165.000005035401,6|8|0,1:0|0:0|1:0,0:0:0:0:
465,0,179712,1,0,1:0:0:0:
326,38,179821,2,0,B|318:82|318:82|330:129,1,82.5000025177003,8|0,0:0|0:0,0:0:0:0:
500,242,180038,6,0,B|412:228|424:271|338:255,1,165.000005035401,0|8,1:0|0:0,0:0:0:0:
196,185,180364,1,0,1:0:0:0:
257,373,180473,2,0,B|269:334|269:334|257:294,1,82.5000025177003,2|0,1:0|1:0,0:0:0:0:
34,173,180690,5,8,0:0:0:0:
34,173,180799,1,8,0:0:0:0:
34,173,180908,2,0,P|64:263|131:281,1,165.000005035401,2|8,1:0|0:0,0:0:0:0:
257,373,181234,1,0,1:0:0:0:
350,334,181343,2,0,P|355:292|348:252,1,82.5000025177003,0|0,1:0|0:0,0:0:0:0:
200,169,181560,2,0,P|194:210|201:250,1,82.5000025177003,8|0,0:0|0:0,0:0:0:0:
453,147,181777,6,0,P|367:148|286:155,1,165.000005035401,0|8,1:0|0:0,0:0:0:0:
117,58,182103,1,0,1:0:0:0:
217,11,182212,2,0,P|209:51|207:92,1,82.5000025177003,2|0,1:0|0:0,0:0:0:0:
34,110,182430,2,0,P|30:69|22:29,1,82.5000025177003,8|0,0:0|0:0,0:0:0:0:
120,284,182647,6,0,P|77:215|0:195,1,165.000005035401,6|8,1:0|0:0,0:0:0:0:
24,381,182973,1,0,1:0:0:0:
224,357,183082,2,0,B|185:344|185:344|141:359,1,82.5000025177003,0|0,1:3|0:0,0:0:0:0:
355,368,183299,2,0,B|369:328|369:328|362:287,1,82.5000025177003,8|0,0:0|0:0,0:0:0:0:
175,99,183516,6,0,P|106:138|88:216,1,165.000005035401,2|8,1:0|0:0,0:0:0:0:
234,169,183843,1,8,0:0:0:0:
360,10,183951,2,0,P|429:49|447:128,1,165.000005035401,2|8,1:2|0:0,0:0:0:0:
314,234,184277,1,8,0:0:0:0:
207,21,184386,6,0,L|43:0,1,165.000005035401,6|8,1:0|0:0,0:0:0:0:
150,228,184712,1,8,0:0:0:0:
377,165,184821,5,2,1:0:0:0:
401,197,184930,1,0,1:0:0:0:
407,238,185038,1,8,1:0:0:0:
394,276,185147,1,0,1:0:0:0:
350,365,185256,5,14,0:1:0:0:
273,384,185364,1,8,0:1:0:0:
211,341,185473,1,10,0:1:0:0:
213,263,185582,1,8,0:1:0:0:
109,209,185690,5,4,0:3:0:0:
50,262,185799,1,4,0:3:0:0:
51,337,185908,1,4,0:3:0:0:
116,379,186016,1,4,0:3:0:0:
211,341,186125,6,0,B|288:302|307:367|386:354,2,165.000005035401,4|2|2,1:0|0:2|0:2,0:0:0:0:
139,291,187212,1,0,0:0:0:0:
15,267,187647,1,4,0:3:0:0:
268,177,187864,6,0,P|272:101|274:23,1,150,4|0,1:0|0:0,0:0:0:0:
274,27,188951,6,0,P|275:66|282:111,1,75,4|4,0:3|0:3,0:0:0:0:
344,149,189386,1,0,0:0:0:0:
194,360,189603,5,4,1:0:0:0:
62,311,190256,1,0,1:0:0:0:
282,227,190690,1,8,0:3:0:0:
433,202,190908,1,4,0:3:0:0:
163,59,191125,1,4,0:3:0:0:
0,32,191343,6,0,B|112:-8|111:122|207:91,1,202.499993820191,6|0,1:2|0:0,0:0:0:0:
473,188,192212,2,0,B|361:148|362:278|266:247,1,202.499993820191,2|0,0:2|0:0,0:0:0:0:
91,348,193082,1,0,1:0:0:0:
63,72,193734,5,6,1:2:0:0:
134,104,193842,1,0,1:2:0:0:
206,75,193951,1,8,0:2:0:0:
272,122,194060,2,0,P|274:193|273:273,1,150,2|0,1:2|1:0,0:0:0:0:
135,369,194386,6,0,P|97:361|60:359,1,75,10|0,0:2|0:0,0:0:0:0:
53,220,194603,1,0,1:0:0:0:
116,279,194712,2,0,P|153:279|189:273,2,75,2|8|0,1:2|0:0|0:0,0:0:0:0:
457,371,195038,6,0,P|461:333|448:298,1,75,2|0,1:2|0:0,0:0:0:0:
369,380,195255,2,0,P|355:344|360:308,1,75,8|0,0:2|0:0,0:0:0:0:
512,182,195473,6,0,B|484:159|484:159|443:160,1,75,2|0,1:2|0:0,0:0:0:0:
413,82,195690,1,8,0:0:0:0:
328,191,195799,2,0,P|331:109|330:34,1,150,2|0,1:2|0:0,0:0:0:0:
174,38,196125,6,0,P|201:63|225:98,1,75,10|0,0:2|0:0,0:0:0:0:
208,177,196342,1,0,1:0:0:0:
90,184,196451,2,0,P|117:158|138:127,2,75,2|8|0,1:2|0:0|0:0,0:0:0:0:
232,347,196777,6,0,P|267:335|320:331,1,75,2|0,1:2|0:0,0:0:0:0:
349,261,196994,2,0,P|384:272|421:277,1,75,8|0,0:0|0:0,0:0:0:0:
462,384,197212,6,0,B|449:350|449:350|449:304,1,75,2|0,1:2|0:0,0:0:0:0:
512,264,197429,1,8,0:0:0:0:
367,172,197538,2,0,P|438:145|459:74,1,150,2|0,1:2|1:0,0:0:0:0:
275,3,197864,2,0,P|284:39|290:81,1,75,10|0,0:2|0:0,0:0:0:0:
374,84,198081,1,0,1:0:0:0:
243,149,198190,2,0,P|205:154|169:163,1,75,2|8,1:2|0:0,0:0:0:0:
100,122,198407,1,0,1:0:0:0:
1,345,198516,6,0,P|39:349|82:359,1,75,2|0,1:2|0:0,0:0:0:0:
26,219,198734,2,0,P|63:214|100:207,1,75,8|0,0:0|0:0,0:0:0:0:
264,276,198951,5,10,0:2:0:0:
264,276,199060,2,0,B|183:260|192:299|114:282,1,150,2|0,1:2|1:0,0:0:0:0:
327,217,199386,2,0,P|326:177|330:138,1,75,8|0,0:0|0:0,0:0:0:0:
452,64,199603,1,10,0:2:0:0:
452,64,199712,2,0,B|371:80|380:41|302:58,1,150,2|0,1:2|0:0,0:0:0:0:
488,157,200038,2,0,P|450:153|413:154,1,75,8|0,0:0|0:0,0:0:0:0:
384,287,200255,5,10,0:2:0:0:
310,300,200364,1,10,0:2:0:0:
236,314,200473,1,10,0:2:0:0:
162,329,200581,1,10,0:2:0:0:
0,262,200690,6,0,P|36:256|73:260,1,75,6|0,1:2|0:0,0:0:0:0:
106,189,200907,1,8,0:0:0:0:
216,48,201016,2,0,B|284:17|323:87|389:60,1,150,2|0,1:2|1:0,0:0:0:0:
141,19,201342,6,0,B|136:56|136:56|148:91,1,75,10|0,0:2|0:0,0:0:0:0:
61,40,201560,1,0,1:0:0:0:
282,3,201668,2,0,B|294:37|294:37|289:75,2,75,2|8|0,1:2|0:0|0:0,0:0:0:0:
507,246,201994,6,0,P|465:240|428:223,1,75,2|0,1:2|0:0,0:0:0:0:
412,150,202212,2,0,P|370:156|333:173,1,75,8|0,0:0|0:0,0:0:0:0:
322,314,202429,6,0,B|289:298|289:298|251:296,1,75,2|0,1:2|0:0,0:0:0:0:
357,243,202647,1,8,0:0:0:0:
200,360,202755,2,0,P|146:313|157:242,1,150,2|0,1:2|1:0,0:0:0:0:
55,305,203081,6,0,P|51:342|32:375,1,75,10|0,0:2|0:0,0:0:0:0:
31,145,203299,1,0,1:0:0:0:
102,181,203407,2,0,P|134:163|180:160,2,75,2|8|0,1:2|0:0|0:0,0:0:0:0:
262,20,203734,6,0,L|341:36,1,75,2|0,1:2|0:0,0:0:0:0:
430,97,203951,2,0,L|351:113,1,75,10|0,0:2|0:0,0:0:0:0:
241,272,204168,6,0,B|230:237|230:237|237:199,1,75,2|0,1:2|0:0,0:0:0:0:
315,238,204386,1,8,0:0:0:0:
445,314,204494,2,0,B|392:291|392:291|300:332,1,150,2|0,1:2|1:0,0:0:0:0:
141,210,204820,6,0,L|157:290,1,75,10|0,0:2|0:0,0:0:0:0:
76,266,205038,1,0,1:0:0:0:
252,125,205147,2,0,L|236:205,1,75,10|0,0:2|0:0,0:0:0:0:
317,181,205364,1,0,1:0:0:0:
485,14,205473,6,0,P|505:45|507:82,1,75,10|0,0:2|0:0,0:0:0:0:
346,53,205690,2,0,P|348:90|369:122,1,75,2|0,1:2|1:0,0:0:0:0:
452,270,205907,5,10,1:2:0:0:
391,218,206016,2,0,P|403:144|426:72,1,150,2|0,1:2|1:0,0:0:0:0:
268,23,206342,2,0,B|235:42|235:42|191:40,1,75,8|0,0:0|0:0,0:0:0:0:
0,33,206560,1,10,0:2:0:0:
74,0,206668,2,0,P|97:71|109:145,1,150,2|0,1:2|1:0,0:0:0:0:
214,173,206994,2,0,P|191:208|178:239,1,75,8|0,0:0|0:0,0:0:0:0:
0,313,207212,5,10,0:2:0:0:
74,326,207320,1,10,0:2:0:0:
148,340,207429,1,10,0:2:0:0:
222,355,207538,1,10,0:2:0:0:
367,281,207647,5,0,1:2:0:0:
367,281,208516,6,0,P|374:259|386:233,2,50,10|0|0,1:2|1:0|1:0,1:0:0:0:
269,209,208734,2,0,P|263:182|252:153,2,50,10|0|0,1:2|1:0|1:0,1:0:0:0:
378,78,208951,5,10,1:2:0:0:
338,70,209023,1,0,1:0:0:0:
300,80,209096,1,0,1:0:0:0:
270,106,209168,1,0,1:0:0:0:
240,132,209241,1,0,1:0:0:0:
200,135,209313,1,0,1:0:0:0:
151,78,209386,6,0,P|146:147|149:227,1,150,6|8,1:0|0:0,0:0:0:0:
208,289,209712,1,0,1:0:0:0:
19,375,209820,2,0,B|-1:344|-1:344|0:306,1,75,0|0,1:0|0:0,0:0:0:0:
83,288,210038,2,0,B|103:318|103:318|101:356,1,75,8|0,0:0|0:0,0:0:0:0:
266,354,210255,6,0,L|340:342,1,75,2|0,1:2|1:0,0:0:0:0:
349,264,210473,1,8,0:2:0:0:
443,358,210581,2,0,B|418:311|418:311|449:214,1,150,2|0,1:2|0:0,0:0:0:0:
337,42,210907,6,0,L|391:55,2,50,10|0|0,1:2|1:0|1:0,1:0:0:0:
284,106,211125,5,10,0:2:0:0:
213,114,211234,1,8,0:0:0:0:
144,123,211342,1,8,0:0:0:0:
73,134,211451,1,8,0:0:0:0:
41,217,211560,5,2,1:2:0:0:
92,229,211668,1,0,1:0:0:0:
145,242,211777,1,0,1:0:0:0:
197,255,211886,1,0,1:0:0:0:
223,343,211994,5,4,0:3:0:0:
188,355,212103,1,4,0:3:0:0:
155,369,212212,1,4,0:3:0:0:
122,382,212320,1,4,0:3:0:0:
29,321,212429,5,10,0:2:0:0:
24,335,212538,1,8,0:0:0:0:
112,263,212647,1,10,0:2:0:0:
117,277,212755,1,8,0:0:0:0:
0,143,212864,6,2,B|54:134|54:134|86:107|86:107|148:99,1,150,6|8,1:1|0:1,0:1:0:0:
233,30,213190,1,0,1:0:0:0:
236,210,213299,2,0,P|271:215|312:228,1,75,0|0,1:0|0:0,0:0:0:0:
324,217,213516,2,0,P|359:206|397:201,1,75,8|0,0:0|0:0,0:0:0:0:
233,30,213734,6,0,B|225:66|225:66|235:102,1,75,2|0,1:1|0:0,0:0:0:0:
248,111,213951,1,8,0:0:0:0:
429,121,214060,2,0,P|365:99|335:22,1,150,0|0,1:0|1:0,0:0:0:0:
502,164,214386,2,0,B|514:128|514:128|507:84,1,75,8|0,0:0|0:0,0:0:0:0:
419,349,214603,6,0,B|423:279|423:279|419:266|419:266|423:195,1,150,2|8,1:1|0:0,0:0:0:0:
505,243,214929,1,0,1:0:0:0:
336,305,215038,2,0,P|298:309|260:323,1,75,0|0,1:0|0:0,0:0:0:0:
183,291,215255,2,0,P|219:295|258:311,1,75,8|0,0:0|0:0,0:0:0:0:
18,186,215473,6,0,P|27:149|52:116,1,75,2|0,1:2|1:0,0:0:0:0:
9,20,215690,2,2,B|220:22|80:190|280:192,1,345.000006580353,10|8,0:1|0:0,0:1:0:0:
447,35,216234,1,4,0:3:0:0:
362,7,216342,6,0,P|357:78|357:165,2,150,4|8|0,1:0|0:0|1:0,0:0:0:0:
481,113,216886,1,0,1:0:0:0:
501,216,216994,2,0,B|464:202|464:202|427:205,1,75,8|0,0:0|0:0,0:0:0:0:
202,321,217212,6,0,B|236:305|236:305|274:309,1,75,2|0,1:2|0:0,0:0:0:0:
173,247,217429,1,8,0:0:0:0:
308,383,217538,2,0,L|315:220,1,150,2|0,1:2|1:0,0:0:0:0:
293,91,217864,2,0,P|278:123|250:150,1,75,8|0,0:0|0:0,0:0:0:0:
53,55,218081,6,0,B|126:36|126:36|194:74,1,150,2|8,1:2|0:0,0:0:0:0:
113,133,218407,1,0,1:0:0:0:
35,193,218516,2,0,B|99:229|99:229|173:209,1,150,2|8,1:2|0:0,0:0:0:0:
172,209,218842,1,0,1:0:0:0:
229,340,218951,6,0,P|268:342|305:352,1,75,2|0,1:2|0:0,0:0:0:0:
315,324,219168,2,0,P|350:321|390:307,1,75,10|0,0:2|0:0,0:0:0:0:
510,189,219386,6,0,P|476:184|435:169,1,75,2|0,1:2|0:0,0:0:0:0:
342,210,219603,2,0,P|380:200|416:197,1,75,8|0,0:0|0:0,0:0:0:0:
270,41,219820,6,0,L|260:195,1,150,2|8,1:1|0:0,0:0:0:0:
193,236,220147,1,0,1:0:0:0:
118,104,220255,2,0,B|80:99|80:99|46:114,1,75,0|0,1:0|0:0,0:0:0:0:
57,194,220473,2,0,B|94:198|94:198|128:183,1,75,8|0,0:0|0:0,0:0:0:0:
230,339,220690,5,2,1:2:0:0:
299,324,220799,1,0,1:0:0:0:
369,309,220907,1,8,0:0:0:0:
444,243,221016,5,2,1:2:0:0:
395,232,221125,1,0,1:0:0:0:
307,158,221234,5,2,1:2:0:0:
253,204,221342,1,10,0:2:0:0:
187,179,221451,1,2,1:2:0:0:
119,238,221560,6,0,P|107:273|96:335,1,75,6|0,1:2|0:0,0:0:0:0:
5,115,221777,2,0,P|15:140|21:161,2,50,10|0|0,0:2|1:0|1:0,0:0:0:0:
95,25,221994,5,4,0:3:0:0:
123,37,222103,1,4,0:3:0:0:
156,27,222212,1,4,0:3:0:0:
191,46,222320,1,4,0:3:0:0:
441,17,222429,6,0,B|337:10|379:128|260:111,1,179.999994506836,14|10,0:1|0:1,0:0:0:0:
104,123,222755,1,10,0:1:0:0:
140,205,222864,1,10,0:1:0:0:
234,290,222973,5,4,0:3:0:0:
295,223,223081,1,4,0:3:0:0:
386,255,223190,1,4,0:3:0:0:
439,360,223299,6,0,L|425:209,1,150,6|8,1:0|0:0,0:0:0:0:
348,75,223625,1,0,1:0:0:0:
257,79,223734,2,0,L|334:64,1,75,2|0,1:2|0:0,0:0:0:0:
96,100,223951,2,0,B|147:111|147:111|175:146|175:146|226:155,1,150,10|0,0:2|1:0,0:0:0:0:
141,221,224277,1,0,1:0:0:0:
155,230,224386,2,0,L|166:314,1,75,8|0,0:0|0:0,0:0:0:0:
407,299,224603,6,0,L|485:313,1,75,2|0,1:2|0:0,0:0:0:0:
265,360,224820,2,0,L|339:347,1,75,8|0,0:2|0:0,0:0:0:0:
366,172,225038,6,0,B|417:183|417:183|445:218|445:218|497:227,1,150,2|8,1:2|0:0,0:0:0:0:
308,103,225364,1,0,1:0:0:0:
300,119,225473,2,0,L|226:132,1,75,0|0,1:2|0:0,0:0:0:0:
148,332,225690,5,10,0:2:0:0:
148,332,225799,2,0,B|183:292|183:292|166:197,1,150,2|0,1:2|1:0,0:0:0:0:
39,294,226125,2,0,P|44:253|51:219,1,75,8|0,0:0|0:0,0:0:0:0:
149,10,226342,6,0,B|173:29|173:29|187:71,1,75,2|0,1:2|0:0,0:0:0:0:
74,37,226560,2,0,B|67:67|67:67|82:108,1,75,8|0,0:0|0:0,0:0:0:0:
264,25,226777,6,0,B|333:-5|333:-5|409:5,1,150,2|8,1:2|0:0,0:0:0:0:
462,84,227103,1,0,1:0:0:0:
475,95,227212,2,0,L|483:186,1,75,0|0,1:0|0:0,0:0:0:0:
223,164,227429,6,0,B|274:175|274:175|302:210|302:210|354:219,1,150,10|0,0:2|1:0,0:0:0:0:
243,276,227755,1,0,1:0:0:0:
235,290,227864,2,0,L|158:303,1,75,8|0,0:0|0:0,0:0:0:0:
64,106,228081,6,0,P|82:139|91:176,1,75,2|0,1:2|0:0,0:0:0:0:
185,41,228299,2,0,P|167:74|158:110,1,75,8|0,0:2|0:0,0:0:0:0:
32,224,228516,6,0,P|108:203|183:193,1,150,2|8,1:2|0:0,0:0:0:0:
281,101,228842,1,0,1:0:0:0:
286,118,228951,2,0,B|317:139|317:139|365:141,1,75,0|0,1:0|0:0,0:0:0:0:
501,6,229168,5,10,0:2:0:0:
440,63,229277,2,0,L|431:232,1,150,2|0,1:2|1:0,0:0:0:0:
342,307,229603,2,0,B|343:271|343:271|329:233,1,75,8|0,0:0|0:0,0:0:0:0:
224,178,229820,5,2,1:2:0:0:
168,242,229929,1,2,1:2:0:0:
88,222,230038,1,10,0:2:0:0:
85,209,230147,1,10,0:2:0:0:
0,365,230255,6,0,B|47:360|62:317|62:317|104:304|143:332,1,165.000005035401,6|8,1:0|0:0,0:0:0:0:
247,286,230581,1,0,1:0:0:0:
338,359,230690,2,0,P|386:363|447:380,1,82.5000025177003,0|0,1:2|1:0,0:0:0:0:
315,156,230907,6,0,P|321:236|396:276,1,165.000005035401,10|0,0:2|1:0,0:0:0:0:
504,161,231234,1,0,1:0:0:0:
441,105,231342,2,0,B|399:110|399:110|346:84,1,82.5000025177003,8|0,0:0|0:0,0:0:0:0:
114,94,231560,6,0,L|200:84,1,82.5000025177003,2|0,1:2|1:0,0:0:0:0:
281,9,231777,2,0,L|195:-1,1,82.5000025177003,10|0,0:2|0:2,0:0:0:0:
75,187,231994,6,0,B|138:196|138:196|165:224|165:224|226:234,1,165.000005035401,2|8,1:2|0:0,0:0:0:0:
315,156,232320,1,0,1:0:0:0:
316,241,232429,2,0,B|302:280|302:280|317:324,1,82.5000025177003,0|0,1:0|1:0,0:0:0:0:
511,183,232647,2,0,P|425:223|392:288,1,165.000005035401,10|0,0:0|1:0,0:0:0:0:
405,318,232973,1,0,1:0:0:0:
315,156,233081,2,0,B|301:117|301:117|316:73,1,82.5000025177003,8|0,0:0|0:0,0:0:0:0:
478,65,233299,6,0,P|431:67|393:76,1,82.5000025177003,2|0,1:2|1:0,0:0:0:0:
229,172,233516,2,0,P|187:170|147:161,1,82.5000025177003,10|0,0:2|0:0,0:0:0:0:
51,6,233734,5,10,0:2:0:0:
51,6,233842,2,0,B|98:31|90:89|90:89|55:110|60:159,1,165.000005035401,2|0,1:2|0:0,0:0:0:0:
37,295,234168,2,0,P|62:258|102:234,1,82.5000025177003,0|0,1:0|0:0,0:0:0:0:
182,77,234386,5,10,0:2:0:0:
280,147,234494,2,0,B|317:148|337:118|337:118|395:114|418:162,1,165.000005035401,2|0,1:2|1:0,0:0:0:0:
512,48,234820,2,0,L|496:149,1,82.5000025177003,8|0,0:0|0:0,0:0:0:0:
370,265,235038,5,10,0:2:0:0:
450,237,235147,1,10,0:2:0:0:
508,294,235255,1,10,0:2:0:0:
485,373,235364,1,10,0:2:0:0:
325,361,235473,6,0,L|406:348,1,75,8|0,0:3|0:0,0:0:0:0:
140,252,235690,6,0,L|241:222,1,89.9999972534181,12|0,0:1|0:0,0:0:0:0:
103,353,235907,2,0,L|204:323,1,89.9999972534181,8|0,0:1|0:0,0:0:0:0:
11,211,236125,2,0,L|112:181,1,89.9999972534181,8|0,0:2|0:0,0:0:0:0:
40,9,236342,5,0,1:0:0:0:
69,76,236451,1,0,1:0:0:0:
137,102,236560,1,0,1:0:0:0:
204,73,236668,1,0,1:0:0:0:
347,17,236777,5,8,0:0:0:0:
268,127,236886,1,8,0:0:0:0:
408,146,236994,1,8,0:0:0:0:
343,98,237103,1,8,0:0:0:0:
266,214,237212,5,8,1:3:0:0:
20,311,237429,2,2,P|131:329|236:370,1,225.000008583069,6|0,1:1|0:1,0:1:0:0:
20,311,238081,5,8,0:3:0:0:
452,65,238299,2,2,P|341:47|237:7,1,225.000008583069,6|0,1:1|0:0,0:1:0:0:
206,228,238951,5,8,0:0:0:0:
191,139,239060,1,8,0:0:0:0:
103,154,239168,1,8,0:0:0:0:
118,243,239277,1,8,0:0:0:0:
198,250,239603,5,8,0:0:0:0:
95,235,239712,1,8,0:0:0:0:
110,131,239820,1,8,0:0:0:0:
213,146,239929,1,8,0:0:0:0:
398,202,240255,5,0,1:0:0:0:
446,272,240364,1,8,0:0:0:0:
407,188,240473,1,8,0:0:0:0:
315,218,240581,1,8,0:0:0:0:
226,107,240690,5,8,0:3:0:0:
109,363,240907,2,2,P|110:248|116:127,1,225.000008583069,6|8,1:0|0:0,0:1:0:0:
319,149,241560,1,8,0:3:0:0:
403,363,241777,2,2,P|403:278|398:195,1,168.750006437302,6|0,1:1|1:0,0:1:0:0:
398,194,242212,1,0,1:0:0:0:
398,194,242320,1,0,1:0:0:0:
506,108,242429,5,8,0:3:0:0:
403,363,242647,2,2,P|403:278|398:195,1,168.750006437302,6|0,1:1|1:0,0:1:0:0:
398,194,243081,1,0,1:0:0:0:
398,194,243190,1,0,1:0:0:0:
294,131,243299,6,0,L|238:140,1,56.2500021457673,10|0,0:1|0:0,0:0:0:0:
208,215,243516,2,4,L|162:207,2,28.1250010728836,4|4|4,0:3|0:3|0:3,0:3:0:0:
91,99,243734,5,10,0:1:0:0:
103,171,243842,1,8,0:0:0:0:
30,185,243951,1,8,0:0:0:0:
15,111,244060,1,8,0:0:0:0:
15,111,244168,5,2,0:2:0:0:
256,192,257320,12,0,257973,0:0:0:0:
59,247,258081,6,0,L|215:233,1,134.999995880127,12|0,0:1|1:0,0:0:0:0:
135,330,258407,1,0,1:0:0:0:
53,234,258516,2,0,L|209:220,1,134.999995880127,8|0,0:0|1:0,0:0:0:0:
340,322,258842,5,0,1:0:0:0:
388,244,258951,2,0,L|374:87,1,134.999995880127,10|0,0:2|1:0,0:0:0:0:
295,185,259277,1,0,1:0:0:0:
400,247,259386,2,0,L|386:90,1,134.999995880127,8|0,0:0|1:0,0:0:0:0:
210,18,259712,5,0,1:0:0:0:
164,81,259820,2,0,L|82:91,1,67.4999979400635,10|0,0:2|0:0,0:0:0:0:
204,153,260038,2,0,L|122:163,1,67.4999979400635,0|0,1:0|0:0,0:0:0:0:
17,256,260255,2,0,L|99:266,1,67.4999979400635,10|0,0:2|0:0,0:0:0:0:
95,345,260473,2,0,L|27:336,1,67.4999979400635,0|0,1:0|0:0,0:0:0:0:
339,284,260690,6,0,B|296:278|296:278|261:250|261:250|212:244,1,134.999995880127,10|0,0:2|1:0,0:0:0:0:
193,262,261016,1,0,1:0:0:0:
309,173,261125,5,8,0:0:0:0:
316,138,261233,1,0,1:1:0:0:
321,101,261342,1,0,1:1:0:0:
327,64,261451,1,0,1:1:0:0:
169,164,261560,6,0,B|103:152|103:152|26:184,1,134.999995880127,12|0,0:1|1:0,0:0:0:0:
113,249,261886,1,0,1:0:0:0:
57,334,261994,2,0,B|123:346|123:346|200:314,1,134.999995880127,10|0,0:2|1:0,0:0:0:0:
278,347,262320,1,0,1:0:0:0:
423,269,262429,5,4,1:3:0:0:
372,255,262538,1,4,1:3:0:0:
322,242,262647,1,4,1:3:0:0:
271,230,262755,1,4,1:3:0:0:
122,204,262864,5,10,0:2:0:0:
193,175,262973,1,10,0:2:0:0:
265,150,263081,1,10,0:2:0:0:
338,126,263190,1,10,0:2:0:0:
512,114,263299,5,6,1:1:0:0:
256,22,263625,5,4,0:3:0:0:
0,114,263951,5,4,0:3:0:0:
448,256,264168,5,10,0:1:0:0:
256,176,264494,5,4,0:3:0:0:
64,256,264820,5,4,0:3:0:0:
247,384,265038,5,6,1:2:0:0:
247,384,265690,1,0,0:0:0:0:
271,240,265907,1,2,1:2:0:0:
341,272,266234,1,0,1:0:0:0:
341,272,266342,1,0,1:0:0:0:
455,241,266560,1,8,0:0:0:0:
238,150,266777,5,2,1:2:0:0:
161,185,267103,1,0,1:0:0:0:
161,185,267212,1,0,1:0:0:0:
60,141,267429,1,8,0:0:0:0:
0,198,267647,1,0,1:0:0:0:
0,198,267755,1,0,1:0:0:0:
97,241,267973,1,4,0:3:0:0:
97,241,268081,1,8,0:3:0:0:
161,185,268299,1,4,0:3:0:0:
270,16,268516,5,4,1:0:0:0:
270,16,270038,5,0,1:0:0:0:
270,16,270255,1,4,1:0:0:0:
270,16,271125,5,0,3:0:0:0:
280,37,271234,1,0,3:0:0:0:
287,65,271342,1,0,3:0:0:0:
289,101,271451,1,0,3:0:0:0:
283,140,271560,1,8,0:0:0:0:
257,180,271668,1,8,0:0:0:0:
227,221,271777,1,8,0:0:0:0:
219,278,271886,1,8,0:0:0:0:
286,338,271994,5,2,0:2:0:0:
364,359,273299,5,2,1:2:0:0:
407,338,273371,5,2,1:2:0:0:
434,371,273444,5,2,1:2:0:0:
466,356,273516,5,2,1:2:0:0:
481,376,273589,5,2,1:2:0:0:
500,370,273661,5,2,1:2:0:0:
510,384,273734,6,0,P|503:300|499:219,1,165.000005035401,6|8,1:0|0:0,0:0:0:0:
340,66,274060,1,0,1:0:0:0:
271,232,274168,2,0,B|309:247|309:247|356:232,1,82.5000025177003,0|0,1:0|0:0,0:0:0:0:
493,110,274386,2,0,B|454:94|454:94|407:109,1,82.5000025177003,8|0,0:0|0:0,0:0:0:0:
158,42,274603,6,0,P|231:59|265:139,1,165.000005035401,0|8,1:0|0:0,0:0:0:0:
182,258,274929,1,0,1:0:0:0:
109,178,275038,2,0,L|208:169,1,82.5000025177003,2|0,1:0|1:0,0:0:0:0:
249,346,275255,5,8,0:0:0:0:
296,328,275364,1,8,0:0:0:0:
344,360,275473,2,0,P|336:277|333:180,1,165.000005035401,2|8,1:0|0:0,0:0:0:0:
459,72,275799,1,0,1:0:0:0:
383,30,275907,2,0,B|343:42|343:42|290:27,1,82.5000025177003,0|0,1:0|0:0,0:0:0:0:
232,80,276125,2,0,L|225:163,1,82.5000025177003,8|0,0:0|0:0,0:0:0:0:
4,194,276342,6,0,B|85:180|85:180|160:214,1,165.000005035401,0|8,1:0|0:0,0:0:0:0:
344,174,276668,1,0,1:0:0:0:
269,261,276777,2,0,P|256:222|260:181,1,82.5000025177003,2|0,1:0|0:0,0:0:0:0:
425,120,276994,2,0,P|438:159|434:200,1,82.5000025177003,8|0,0:0|0:0,0:0:0:0:
231,20,277212,6,0,B|142:11|157:53|71:41,1,165.000005035401,6|8,1:0|0:0,0:0:0:0:
160,214,277538,1,0,1:0:0:0:
253,98,277647,2,0,P|296:100|339:107,1,82.5000025177003,0|0,1:0|0:0,0:0:0:0:
471,243,277864,2,0,P|429:248|388:253,1,82.5000025177003,8|0,0:0|0:0,0:0:0:0:
249,384,278081,6,0,B|268:297|233:305|251:220,1,165.000005035401,6|8,1:0|0:0,0:0:0:0:
201,155,278407,1,8,0:0:0:0:
164,350,278516,2,0,P|126:268|54:248,1,165.000005035401,0|8,1:0|0:0,0:0:0:0:
4,193,278842,1,8,0:0:0:0:
113,23,278951,6,0,L|202:34,1,82.5000025177003,6|0,1:2|0:0,0:0:0:0:
283,166,279168,2,0,L|194:155,1,82.5000025177003,8|0,0:0|0:0,0:0:0:0:
100,11,279386,2,0,L|188:-1,1,82.5000025177003,6|0,1:2|0:0,0:0:0:0:
296,178,279603,2,0,L|207:190,1,82.5000025177003,8|0,0:0|0:0,0:0:0:0:
16,102,279820,5,6,0:2:0:0:
42,103,279929,1,4,0:3:0:0:
67,115,280038,1,4,0:3:0:0:
86,135,280147,1,4,0:3:0:0:
129,254,280255,5,8,0:0:0:0:
202,284,280364,1,8,0:0:0:0:
274,251,280473,1,8,0:0:0:0:
296,178,280581,1,8,0:0:0:0:
384,77,280690,6,0,P|462:74|514:123,1,150,4|8,1:0|0:0,0:0:0:0:
390,189,281016,1,0,1:0:0:0:
301,95,281125,2,0,B|297:57|297:57|313:15,1,75,0|0,1:0|0:0,0:0:0:0:
226,12,281342,2,0,P|148:9|96:58,1,150,10|0,0:2|1:0,0:0:0:0:
68,193,281668,1,0,1:0:0:0:
162,139,281777,6,0,L|243:129,1,75,10|0,0:2|0:0,0:0:0:0:
164,257,281994,2,0,L|245:267,1,75,0|0,1:0|0:0,0:0:0:0:
285,196,282212,2,0,B|322:190|322:190|369:198,1,75,8|0,0:0|0:0,0:0:0:0:
508,144,282429,6,0,P|453:189|449:283,1,150,2|8,1:2|0:0,0:0:0:0:
481,368,282755,1,0,1:0:0:0:
350,310,282864,2,0,B|313:302|313:302|276:309,1,75,0|0,1:0|0:0,0:0:0:0:
197,384,283081,6,0,L|185:217,2,150,10|0|10,0:2|1:0|0:2,0:0:0:0:
55,201,283625,1,0,1:0:0:0:
158,131,283734,2,0,P|194:135|233:151,1,75,0|0,1:0|0:0,0:0:0:0:
315,151,283951,2,0,P|278:155|243:168,1,75,8|0,0:0|0:0,0:0:0:0:
435,25,284168,6,0,L|421:175,1,150,2|8,1:2|0:0,0:0:0:0:
306,255,284494,1,0,1:0:0:0:
400,328,284603,2,0,P|403:290|395:250,1,75,2|0,1:2|0:0,0:0:0:0:
243,341,284820,2,0,B|163:324|172:364|95:345,1,150,10|0,0:2|1:0,0:0:0:0:
151,180,285147,1,0,1:0:0:0:
241,125,285255,6,0,P|244:167|254:206,1,75,10|0,0:2|0:0,0:0:0:0:
69,126,285473,2,0,P|75:89|77:51,1,75,0|0,1:0|1:0,0:0:0:0:
286,11,285690,5,10,0:2:0:0:
353,50,285799,1,8,0:2:0:0:
476,12,285907,5,4,1:0:0:0:
490,88,286016,1,0,1:0:0:0:
442,150,286125,1,10,0:2:0:0:
365,156,286234,1,2,1:2:0:0:
234,91,286342,5,0,1:0:0:0:
157,97,286451,1,10,0:2:0:0:
109,159,286560,1,0,1:0:0:0:
123,235,286668,1,0,1:0:0:0:
313,229,286777,6,0,B|203:213|241:318|141:307,1,179.999994506836,8|0,1:3|1:0,0:0:0:0:
84,384,287103,1,0,1:0:0:0:
321,244,287212,2,0,B|211:228|249:333|149:322,1,179.999994506836,12|0,0:2|1:0,0:0:0:0:
68,373,287538,1,0,1:0:0:0:
0,168,287647,6,0,B|64:153|64:153|99:110|99:110|163:98,1,187.5,6|8,1:0|0:0,0:0:0:0:
250,0,287973,1,0,1:0:0:0:
436,122,288081,2,0,B|446:169|446:169|432:229,1,93.75,2|0,1:0|1:0,0:0:0:0:
251,279,288299,2,0,B|241:232|241:232|255:172,1,93.75,8|0,0:1|0:0,0:0:0:0:
445,307,288516,2,0,L|352:297,1,93.75,0|0,1:0|0:0,0:0:0:0:
347,113,288734,2,0,L|240:99,1,93.75,10|0,0:1|0:0,0:0:0:0:
26,231,288951,6,0,P|119:197|134:119,1,187.5,0|8,1:0|0:0,0:0:0:0:
180,38,289277,1,8,0:0:0:0:
112,252,289386,6,0,P|163:337|243:335,1,187.5,2|8,1:1|0:0,0:0:0:0:
380,205,289712,1,0,1:0:0:0:
242,245,289820,2,0,P|230:290|242:334,1,93.75,0|0,1:0|0:0,0:0:0:0:
437,364,290038,2,0,P|448:317|435:270,1,93.75,10|0,0:1|0:0,0:0:0:0:
357,99,290255,6,0,B|389:209|317:169|345:279,1,187.5,0|8,1:0|0:0,0:0:0:0:
160,116,290581,1,0,1:0:0:0:
110,183,290690,2,0,B|63:177|63:177|10:193,1,93.75,2|0,1:1|1:0,0:0:0:0:
159,11,290907,5,8,0:0:0:0:
235,52,291016,1,8,0:0:0:0:
326,5,291125,2,0,B|440:11|386:84|484:87,2,187.5,6|8|0,1:1|0:1|1:1,0:0:0:0:
203,127,291668,1,0,1:0:0:0:
339,208,291777,2,0,P|346:160|339:115,1,93.75,10|0,0:1|0:0,0:0:0:0:
147,258,291994,6,0,L|261:267,1,93.75,0|0,1:0|1:0,0:0:0:0:
140,97,292212,2,0,L|233:89,1,93.75,10|0,0:1|1:0,0:0:0:0:
62,277,292429,2,0,L|176:286,1,93.75,0|0,1:0|1:0,0:0:0:0:
53,78,292647,2,0,L|145:70,1,93.75,8|0,0:0|1:0,0:0:0:0:
0,180,292864,5,4,1:2:0:0:
74,189,292973,1,4,1:3:0:0:
146,172,293081,1,4,0:3:0:0:
218,187,293190,1,4,0:3:0:0:
331,88,293299,5,4,1:2:0:0:
410,89,293407,1,8,0:0:0:0:
448,159,293516,1,0,1:0:0:0:
406,227,293625,1,0,1:0:0:0:
357,357,293734,6,0,P|316:334|270:326,1,93.75,12|0,0:2|1:0,0:0:0:0:
172,185,293951,1,8,0:0:0:0:
192,267,294060,1,8,0:0:0:0:
272,289,294168,1,8,0:0:0:0:
333,232,294277,5,8,0:0:0:0:
333,144,294386,5,4,0:3:0:0:
305,113,294494,5,4,0:3:0:0:
265,109,294603,5,4,1:1:0:0:
48,41,295038,1,0,1:0:0:0:
48,41,295690,5,0,1:0:0:0:
127,16,296125,1,0,0:0:0:0:
408,59,296342,1,6,1:2:0:0:
482,80,296994,5,8,0:3:0:0:
396,203,297429,1,4,0:3:0:0:
323,228,297647,1,0,0:0:0:0:
110,304,298081,1,6,1:2:0:0:
13,186,299168,5,8,0:3:0:0:
92,204,299386,1,4,0:3:0:0:
34,262,299603,1,4,0:3:0:0:
136,43,299820,6,0,P|224:32|328:29,1,180,4|0,1:2|0:0,0:0:0:0:
410,159,300690,2,0,P|325:141|219:130,1,180,4|0,1:0|0:0,0:0:0:0:
160,182,301560,5,4,0:2:0:0:
256,192,301668,12,0,304929,0:0:0:0:
