osu file format v14

[General]
AudioFilename: audio.mp3
AudioLeadIn: 0
PreviewTime: 69595
Countdown: 0
SampleSet: Soft
StackLeniency: 0.7
Mode: 0
LetterboxInBreaks: 0
WidescreenStoryboard: 0

[Editor]
Bookmarks: 26928,37595,48262,58928,69595,90928,104262,114928,125595,152262,173595,178928,186928,208262,230928
DistanceSpacing: 0.9
BeatDivisor: 4
GridSize: 32
TimelineZoom: 1.999999

[Metadata]
Title:The Disaster of Passion
TitleUnicode:The Disaster of Passion
Artist:AISHA
ArtistUnicode:AISHA
Creator:Yukiyo
Version:Totsugeki
Source:GUILTY GEAR -STRIVE-
Tags:Arc System Works Daisuke Ishiwatari 石渡 太輔 Takao Suzuki NAOKI Toshihiro Kajihara Atsuhi Hasegawa GGS english rock guilty gear strive may totsugeki dolphin anchor waifu sea world jellyfish pirates
BeatmapID:3069924
BeatmapSetID:1497801

[Difficulty]
HPDrainRate:6
CircleSize:4
OverallDifficulty:8.9
ApproachRate:9.3
SliderMultiplier:1.7
SliderTickRate:1

[Events]
//Background and Video events
0,0,"1042297.jpg",0,0
//Break Periods
2,104362,112607
//Storyboard Layer 0 (Background)
//Storyboard Layer 1 (Fail)
//Storyboard Layer 2 (Pass)
//Storyboard Layer 3 (Foreground)
//Storyboard Layer 4 (Overlay)
//Storyboard Sound Samples

[TimingPoints]
162,333.333333333333,4,2,1,60,1,0
162,-66.6666666666667,4,2,1,60,0,0
2828,-100,4,2,1,80,0,0
10828,-83.3333333333333,4,2,1,100,0,0
12162,-100,4,2,1,100,0,0
21495,-76.9230769230769,4,2,1,100,0,0
26828,-125,4,2,1,70,0,0
37495,-83.3333333333333,4,2,1,80,0,0
42828,-125,4,2,1,70,0,0
47828,-83.3333333333333,4,2,1,80,0,0
48162,-100,4,2,1,80,0,0
56162,-83.3333333333333,4,2,1,80,0,0
58828,-76.9230769230769,4,2,1,90,0,0
64162,-100,4,2,1,90,0,0
66828,-71.4285714285714,4,2,1,90,0,0
69495,-125,4,2,1,100,0,1
69828,-58.8235294117647,4,2,1,100,0,1
70662,-83.3333333333333,4,2,1,100,0,1
72495,-58.8235294117647,4,2,1,100,0,1
73495,-83.3333333333333,4,2,1,100,0,1
74828,-125,4,2,1,100,0,1
75161,-58.8235294117647,4,2,1,100,0,1
75995,-83.3333333333333,4,2,1,100,0,1
77828,-58.8235294117647,4,2,1,100,0,1
78828,-83.3333333333333,4,2,1,100,0,1
80162,-66.6666666666667,4,2,1,100,0,1
81328,-76.9230769230769,4,2,1,100,0,1
90828,-100,4,2,1,80,0,0
98828,-76.9230769230769,4,2,1,80,0,0
114828,-76.9230769230769,4,2,1,80,0,0
120162,-100,4,2,1,90,0,0
122828,-71.4285714285714,4,2,1,90,0,0
125495,-125,4,2,1,100,0,1
125828,-58.8235294117647,4,2,1,100,0,1
126662,-83.3333333333333,4,2,1,100,0,1
128495,-58.8235294117647,4,2,1,100,0,1
129495,-83.3333333333333,4,2,1,100,0,1
130828,-125,4,2,1,100,0,1
131161,-58.8235294117647,4,2,1,100,0,1
131995,-83.3333333333333,4,2,1,100,0,1
133828,-58.8235294117647,4,2,1,100,0,1
134828,-83.3333333333333,4,2,1,100,0,1
136162,-66.6666666666667,4,2,1,100,0,1
137328,-76.9230769230769,4,2,1,100,0,1
149495,-66.6666666666667,4,2,1,100,0,1
149995,-76.9230769230769,4,2,1,100,0,1
152161,-76.9230769230769,4,2,1,80,0,0
154828,-66.6666666666667,4,2,1,80,0,0
161495,-66.6666666666667,4,2,1,100,0,0
170828,-62.5,4,2,1,100,0,0
178828,-71.4285714285714,4,2,1,80,0,0
186828,-125,4,2,1,100,0,1
187161,-58.8235294117647,4,2,1,100,0,1
187995,-83.3333333333333,4,2,1,100,0,1
189828,-58.8235294117647,4,2,1,100,0,1
190828,-83.3333333333333,4,2,1,100,0,1
192161,-125,4,2,1,100,0,1
192494,-58.8235294117647,4,2,1,100,0,1
193328,-83.3333333333333,4,2,1,100,0,1
195161,-58.8235294117647,4,2,1,100,0,1
196161,-83.3333333333333,4,2,1,100,0,1
197495,-66.6666666666667,4,2,1,100,0,1
198661,-76.9230769230769,4,2,1,100,0,1
208161,-100,4,2,1,80,0,0
216162,-83.3333333333333,4,2,1,80,0,0
217496,-100,4,2,1,80,0,0
226828,-76.9230769230769,4,2,1,80,0,0
231495,-100,4,2,1,100,0,1
231578,-100,4,2,1,100,0,0

[Colours]
Combo1 : 255,234,170
Combo2 : 255,177,100
Combo3 : 222,188,188
Combo4 : 147,220,255

[HitObjects]
373,159,162,54,0,B|346:165|315:155|315:155|328:173|302:191|302:191|293:160|309:153|309:153|249:132|234:74|234:74|268:79|287:67|287:67|337:37|381:64|381:64|374:15|437:-11|437:-11|410:38|451:82|451:82|522:122|531:203|519:261|488:299|457:339|410:342|328:344|273:324|273:324|248:345|248:345|262:319|258:289|258:289|274:317|274:317|321:319|365:307|415:286|442:227|414:157,1,1402.50005350113,2|0,0:1|0:0,0:0:0:0:
216,204,2162,5,2,0:3:0:0:
216,204,2245,1,4,0:3:0:0:
35,190,2412,1,4,0:3:0:0:
35,190,2495,1,8,0:3:0:0:
127,260,2662,5,8,0:0:0:0:
128,243,2745,1,8,0:0:0:0:
125,228,2828,2,0,P|115:187|104:145,1,85,4|0,0:2|0:0,0:0:0:0:
35,279,3162,1,8,0:0:0:0:
247,106,3328,2,0,P|237:147|227:189,1,85,0|0,0:0|3:0,0:0:0:0:
306,233,3662,1,0,3:0:0:0:
162,83,3828,1,8,0:0:0:0:
336,138,3995,6,0,P|387:133|444:120,1,85,0|0,0:0|3:0,0:0:0:0:
217,275,4328,2,0,P|166:270|109:257,1,85,0|8,0:0|0:0,0:0:0:0:
262,61,4662,1,0,3:0:0:0:
337,228,4828,1,0,0:0:0:0:
212,171,4995,1,0,3:0:0:0:
212,171,5078,1,0,3:0:0:0:
212,171,5162,1,8,0:0:0:0:
401,174,5328,1,0,3:0:0:0:
288,322,5495,6,0,P|242:357|218:386,1,85,0|0,3:0|0:0,0:0:0:0:
392,346,5828,1,8,0:0:0:0:
136,261,5995,2,0,P|178:257|219:266,1,85,0|0,0:0|3:0,0:0:0:0:
62,348,6328,1,0,3:0:0:0:
185,182,6495,1,8,0:0:0:0:
259,11,6662,6,0,P|245:51|241:93,1,85,0|0,0:2|3:0,0:0:0:0:
94,174,6995,2,0,P|89:131|76:91,1,85,0|8,0:0|0:0,0:0:0:0:
287,213,7328,2,0,P|335:217|459:250,1,170,0|0,3:0|0:0,0:0:0:0:
460,258,7745,1,0,3:0:0:0:
462,274,7828,1,8,0:0:0:0:
321,328,7995,1,0,3:0:0:0:
426,165,8162,6,0,P|444:118|468:71,1,85,4|0,3:1|0:0,0:0:0:0:
257,157,8495,1,8,0:0:0:0:
313,16,8662,2,0,P|331:54|346:94,1,85,0|0,0:0|3:0,0:0:0:0:
261,278,8995,1,0,3:0:0:0:
261,278,9078,1,0,3:0:0:0:
261,278,9162,1,8,0:0:0:0:
178,103,9328,6,0,P|242:121|279:137,1,85,0|0,0:2|3:0,0:0:0:0:
369,289,9662,2,0,P|347:249|330:186,1,85,0|8,0:0|0:0,0:0:0:0:
182,330,9995,1,0,3:0:0:0:
182,330,10078,1,0,3:0:0:0:
182,330,10162,1,4,3:1:0:0:
247,204,10328,1,0,3:0:0:0:
425,234,10495,2,0,P|447:194|470:96,1,127.5,8|0,0:0|0:0,0:0:0:0:
424,22,10828,6,0,P|373:23|395:115,1,152.999995330811,4|0,3:2|0:0,0:0:0:0:
379,195,11162,2,0,P|353:193|329:184,1,50.9999984436036,8|0,0:0|0:0,0:0:0:0:
274,252,11328,2,0,P|257:233|246:210,1,50.9999984436036,4|0,0:3|0:0,0:0:0:0:
218,52,11495,5,4,3:1:0:0:
50,214,11745,1,0,3:0:0:0:
50,214,11828,2,0,P|37:153|42:108,1,101.999996887207,8|0,3:0|0:0,0:0:0:0:
173,241,12162,5,6,3:2:0:0:
53,318,12328,1,0,3:0:0:0:
53,318,12412,1,0,3:0:0:0:
53,318,12495,1,10,0:1:0:0:
124,158,12662,2,0,P|173:174|207:199,1,85,4|0,3:1|0:0,0:0:0:0:
327,355,12995,5,2,0:3:0:0:
296,352,13078,1,2,0:3:0:0:
274,334,13162,1,4,0:3:0:0:
358,242,13328,1,8,0:3:0:0:
187,358,13495,6,0,P|183:302|171:248,1,85,4|0,3:2|0:0,0:0:0:0:
71,174,13828,1,8,0:0:0:0:
9,304,13995,2,0,P|44:279|82:260,1,85,0|0,0:0|3:0,0:0:0:0:
265,285,14328,1,0,3:0:0:0:
265,285,14495,1,8,0:0:0:0:
202,123,14662,6,0,P|180:159|165:199,1,85,0|0,3:0|0:0,0:0:0:0:
97,266,14995,1,0,3:0:0:0:
36,107,15162,2,0,P|21:67|0:31,1,85,8|0,0:0|0:0,0:0:0:0:
223,127,15495,1,0,3:0:0:0:
106,37,15662,1,0,3:0:0:0:
106,37,15745,1,0,3:0:0:0:
106,37,15828,1,8,0:0:0:0:
187,206,15995,1,0,0:0:0:0:
204,31,16162,6,0,P|252:12|325:-2,1,85,0|0,3:0|0:0,0:0:0:0:
387,52,16495,1,8,0:0:0:0:
315,202,16662,2,0,P|303:134|303:82,1,85,0|0,0:0|3:0,0:0:0:0:
423,158,16995,1,0,3:0:0:0:
212,123,17162,5,8,0:0:0:0:
212,123,17245,1,0,3:0:0:0:
212,123,17328,2,0,P|170:107|128:106,1,85,0|0,3:0|0:0,0:0:0:0:
292,255,17662,2,0,P|299:298|319:335,1,85,0|8,3:0|0:0,0:0:0:0:
480,112,17995,2,0,P|396:114|317:145,1,170,0|0,0:0|3:0,0:0:0:0:
230,200,18412,1,0,3:0:0:0:
230,200,18495,1,8,0:0:0:0:
295,41,18662,1,0,0:0:0:0:
417,209,18828,6,0,P|462:223|503:251,1,85,4|0,3:2|0:0,0:0:0:0:
274,259,19162,1,8,0:0:0:0:
280,364,19328,2,0,P|325:350|366:322,1,85,0|0,0:0|3:0,0:0:0:0:
176,201,19662,1,0,3:0:0:0:
176,201,19745,1,0,3:0:0:0:
176,201,19828,1,8,0:0:0:0:
155,367,19995,6,0,P|180:315|197:268,1,85,0|0,0:2|3:0,0:0:0:0:
0,185,20328,2,0,P|16:243|33:291,1,85,0|8,3:0|0:0,0:0:0:0:
253,215,20662,1,0,3:0:0:0:
253,215,20745,1,0,3:0:0:0:
253,215,20828,1,0,3:0:0:0:
76,88,20995,1,0,3:0:0:0:
114,263,21162,1,8,0:2:0:0:
58,75,21328,1,4,0:3:0:0:
221,127,21495,5,4,3:2:0:0:
221,127,21662,1,0,3:0:0:0:
470,66,21828,1,8,3:2:0:0:
347,13,21995,2,0,P|331:95|332:177,1,165.749992412568,4|0,0:1|0:0,0:0:0:0:
332,177,22328,1,2,0:3:0:0:
469,364,22495,1,4,0:3:0:0:
426,189,22662,1,8,0:3:0:0:
406,288,22828,5,4,3:2:0:0:
188,304,22995,1,0,3:0:0:0:
188,304,23078,1,0,3:0:0:0:
188,304,23162,1,8,3:2:0:0:
279,384,23328,2,0,P|294:302|293:220,1,165.749992412568,4|0,0:1|0:0,0:0:0:0:
293,220,23661,1,2,0:3:0:0:
166,46,23828,1,2,0:3:0:0:
158,65,23912,1,2,0:3:0:0:
154,81,23995,1,8,0:3:0:0:
151,101,24078,1,8,0:3:0:0:
152,117,24162,6,0,P|180:112|214:104,1,55.2499974708558,8|0,3:2|3:0,0:0:0:0:
370,19,24328,1,8,3:2:0:0:
370,19,24495,1,0,3:0:0:0:
170,21,24662,2,0,P|146:83|145:122,1,55.2499974708558,8|0,3:2|3:0,0:0:0:0:
146,273,24828,1,8,3:2:0:0:
44,114,24995,1,0,3:0:0:0:
245,199,25162,1,0,3:0:0:0:
51,318,25328,1,4,0:3:0:0:
51,318,25412,1,4,0:3:0:0:
51,318,25495,1,2,0:2:0:0:
311,335,26162,5,2,0:0:0:0:
316,320,26495,1,2,0:0:0:0:
488,248,26828,5,6,3:2:0:0:
395,379,27162,2,0,L|412:305,1,68,2|0,3:2|0:2,0:0:0:0:
341,246,27495,1,2,3:2:0:0:
341,246,27662,2,0,P|286:247|181:224,1,136,2|0,0:2|0:2,0:0:0:0:
81,367,28328,2,0,P|106:329|119:290,1,68,2|0,0:2|3:2,0:0:0:0:
53,252,28662,1,2,0:2:0:0:
43,239,28828,1,2,3:2:0:0:
59,191,28995,1,2,0:2:0:0:
74,169,29162,1,2,3:2:0:0:
58,145,29328,1,2,0:2:0:0:
153,31,29495,6,0,P|139:72|118:114,1,68,2|0,3:2|0:2,0:0:0:0:
216,84,29828,2,0,P|176:104|132:118,1,68,2|0,3:2|0:2,0:0:0:0:
48,47,30162,1,2,3:2:0:0:
48,47,30328,1,2,0:2:0:0:
194,190,30662,2,0,P|234:171|352:150,1,136,2|0,0:2|0:2,0:0:0:0:
404,184,31162,1,2,3:2:0:0:
404,184,31328,1,2,0:2:0:0:
459,258,31495,1,2,3:2:0:0:
376,212,31662,1,2,0:2:0:0:
478,142,31828,1,2,3:2:0:0:
377,18,32162,6,0,P|337:8|304:4,1,68,2|0,3:2|0:2,0:0:0:0:
229,38,32495,2,0,P|208:70|193:113,1,68,2|0,3:2|0:2,0:0:0:0:
305,88,32828,1,2,3:2:0:0:
214,179,32995,2,0,P|186:144|168:101,1,68,2|0,0:2|3:2,0:0:0:0:
5,42,33328,5,2,0:2:0:0:
148,13,33662,1,2,0:2:0:0:
80,168,33995,2,0,P|59:215|51:265,1,102,2|0,0:2|0:2,0:0:0:0:
194,333,34328,2,0,P|162:320|129:312,1,68,2|0,0:2|3:2,0:0:0:0:
17,363,34662,1,2,0:2:0:0:
157,235,34828,6,0,P|204:229|290:225,1,102,2|0,3:2|0:2,0:0:0:0:
258,225,35162,1,0,3:2:0:0:
342,287,35328,2,0,P|350:327|355:369,1,68,0|0,0:2|3:2,0:0:0:0:
502,175,35662,2,0,P|494:215|489:257,2,68,2|0|2,0:2|3:2|0:2,0:0:0:0:
360,207,36162,5,2,3:2:0:0:
486,54,36495,1,4,3:2:0:0:
451,170,36745,1,2,0:3:0:0:
451,170,36828,1,4,3:3:0:0:
375,91,36995,1,8,3:3:0:0:
302,165,37162,1,8,0:0:0:0:
257,155,37245,1,8,0:0:0:0:
231,127,37328,1,0,3:0:0:0:
215,89,37412,1,0,3:0:0:0:
207,47,37495,6,0,B|100:62|170:107|35:119,1,152.999995330811,4|0,3:2|0:0,0:0:0:0:
6,58,37828,1,4,0:3:0:0:
6,58,37995,1,12,0:3:0:0:
231,243,38162,2,0,P|187:219|175:171,1,101.999996887207,4|8,0:2|0:0,0:0:0:0:
28,355,38495,1,0,0:0:0:0:
0,133,38662,6,0,P|62:177|104:240,1,152.999995330811,4|0,0:2|0:0,0:0:0:0:
104,240,38995,1,8,0:0:0:0:
296,360,39162,1,8,0:0:0:0:
201,223,39328,1,2,0:3:0:0:
202,336,39495,1,0,3:0:0:0:
226,202,39662,1,8,0:0:0:0:
226,202,39745,1,8,0:0:0:0:
226,202,39828,1,0,3:0:0:0:
98,279,39995,1,4,0:3:0:0:
447,251,40162,6,0,P|372:262|302:292,1,152.999995330811,4|0,3:2|0:0,0:0:0:0:
250,364,40495,1,2,0:3:0:0:
250,364,40662,1,0,3:0:0:0:
346,111,40828,2,0,P|392:126|405:173,1,101.999996887207,4|8,3:2|0:0,0:0:0:0:
376,258,41078,1,8,0:0:0:0:
376,258,41162,1,4,0:3:0:0:
141,245,41328,6,0,P|218:230|311:191,1,152.999995330811,4|0,3:2|0:0,0:0:0:0:
287,203,41662,1,4,0:3:0:0:
225,53,41828,1,8,0:0:0:0:
225,53,41912,1,8,0:0:0:0:
225,53,41995,1,0,3:0:0:0:
174,162,42162,1,0,3:0:0:0:
292,112,42328,1,0,0:0:0:0:
171,12,42495,1,4,0:3:0:0:
280,147,42662,1,8,0:3:0:0:
465,32,42828,5,4,3:2:0:0:
465,32,42995,1,0,0:0:0:0:
368,26,43162,2,0,P|367:59|372:93,1,68,0|0,3:0|0:0,0:0:0:0:
478,198,43495,2,0,P|479:164|474:130,1,68,0|0,3:0|0:0,0:0:0:0:
275,208,43828,2,0,P|333:201|397:174,1,102,0|0,3:0|0:0,0:0:0:0:
426,260,44162,5,0,3:0:0:0:
426,260,44328,1,0,0:0:0:0:
334,368,44495,2,0,P|376:347|424:344,1,68,0|0,3:0|0:0,0:0:0:0:
342,225,44828,2,0,P|300:246|252:249,1,68,0|0,3:0|0:0,0:0:0:0:
140,306,45162,2,0,P|191:312|239:328,1,102,0|0,3:0|0:0,0:0:0:0:
311,279,45495,5,0,3:0:0:0:
311,279,45662,1,0,0:0:0:0:
192,163,45828,2,0,P|174:127|173:87,1,68,0|0,3:0|0:0,0:0:0:0:
279,65,46162,2,0,P|297:101|298:141,1,68,0|0,3:0|0:0,0:0:0:0:
142,270,46495,2,0,P|192:263|236:238,1,102,4|0,3:2|0:0,0:0:0:0:
264,203,46828,5,8,0:0:0:0:
177,63,46995,1,8,0:0:0:0:
387,148,47162,1,8,0:0:0:0:
170,170,47328,1,8,0:0:0:0:
380,133,47495,1,8,0:0:0:0:
261,346,47662,1,0,3:0:0:0:
258,323,47745,1,0,3:0:0:0:
261,297,47828,2,0,P|303:280|350:360,1,152.999995330811,8|0,0:0|0:0,0:0:0:0:
431,366,48162,5,4,3:2:0:0:
431,366,48328,1,0,3:0:0:0:
483,229,48495,1,8,0:0:0:0:
317,229,48662,1,0,3:0:0:0:
412,280,48828,2,0,P|427:240|433:198,1,85,0|0,3:0|0:0,0:0:0:0:
387,134,49078,1,0,3:0:0:0:
387,134,49162,1,8,0:0:0:0:
462,34,49328,6,0,P|383:74|300:100,1,170,0|0,3:0|3:0,0:0:0:0:
143,36,49828,1,8,0:0:0:0:
289,199,49995,1,0,3:0:0:0:
289,199,50078,1,0,3:0:0:0:
289,199,50162,1,0,3:0:0:0:
138,127,50328,1,0,3:0:0:0:
237,9,50495,2,0,P|224:66|212:132,1,85,8|0,0:0|0:0,0:0:0:0:
48,250,50828,6,0,P|125:215|206:189,1,170,4|8,3:2|0:0,0:0:0:0:
299,274,51328,1,0,0:0:0:0:
139,242,51495,1,0,3:0:0:0:
345,149,51662,1,0,3:0:0:0:
345,149,51745,1,0,3:0:0:0:
345,149,51828,1,8,0:0:0:0:
479,227,51995,6,0,P|404:197|312:171,1,170,4|0,3:2|0:0,0:0:0:0:
307,181,52412,1,0,3:0:0:0:
296,191,52495,1,8,3:2:0:0:
165,109,52662,1,0,3:0:0:0:
165,109,52745,1,0,3:0:0:0:
327,43,52912,1,8,0:0:0:0:
327,43,52995,1,0,3:0:0:0:
231,228,53162,1,4,0:3:0:0:
264,105,53328,1,8,0:3:0:0:
400,228,53495,5,4,3:2:0:0:
400,228,53662,1,0,3:0:0:0:
318,355,53828,2,0,P|313:305|318:240,1,85,8|0,0:0|0:0,0:0:0:0:
234,321,54078,1,0,3:0:0:0:
234,321,54162,1,0,3:0:0:0:
418,328,54328,2,0,P|460:333|502:334,1,85,0|8,3:0|0:0,0:0:0:0:
325,187,54662,5,0,3:0:0:0:
448,248,54828,1,0,0:0:0:0:
359,72,54995,1,0,3:0:0:0:
474,47,55162,1,2,0:3:0:0:
472,105,55245,1,2,0:3:0:0:
443,157,55328,1,4,0:3:0:0:
395,179,55412,1,4,0:3:0:0:
336,182,55495,1,8,0:3:0:0:
336,182,55662,2,0,P|316:246|307:337,1,127.5,8|0,0:0|0:0,0:0:0:0:
307,305,55995,1,0,3:0:0:0:
52,314,56162,6,0,P|125:292|191:255,1,152.999995330811,4|0,3:2|0:0,0:0:0:0:
191,255,56495,1,8,0:0:0:0:
150,67,56662,1,0,3:0:0:0:
120,53,56745,1,8,0:0:0:0:
84,53,56828,1,0,3:0:0:0:
48,66,56912,1,8,0:0:0:0:
25,95,56995,1,0,3:0:0:0:
131,314,57162,1,8,0:0:0:0:
12,194,57328,1,4,0:3:0:0:
241,94,57495,5,0,3:0:0:0:
233,243,57662,1,0,3:0:0:0:
223,374,57828,1,8,0:0:0:0:
132,264,57995,1,0,3:0:0:0:
132,264,58078,1,0,3:0:0:0:
132,264,58162,1,8,0:0:0:0:
309,204,58328,1,0,3:0:0:0:
233,74,58495,1,8,0:0:0:0:
233,74,58578,1,4,0:3:0:0:
233,74,58662,1,8,0:3:0:0:
298,284,58828,6,0,P|345:216|415:173,1,165.749992412568,4|0,3:2|0:0,0:0:0:0:
497,159,59162,1,8,0:0:0:0:
379,334,59328,1,0,3:0:0:0:
134,275,59495,2,0,P|211:248|288:204,1,165.749992412568,4|0,3:2|0:0,0:0:0:0:
283,206,59828,1,0,3:0:0:0:
34,189,59995,6,0,P|86:247|56:319,1,165.749992412568,4|0,3:2|0:0,0:0:0:0:
56,319,60328,1,0,3:0:0:0:
219,343,60495,1,8,0:0:0:0:
106,239,60662,1,0,3:0:0:0:
215,367,60828,1,0,0:1:0:0:
271,167,60995,1,0,3:0:0:0:
271,167,61078,1,0,3:0:0:0:
271,167,61162,1,8,0:1:0:0:
134,329,61328,1,0,3:0:0:0:
397,334,61495,6,0,P|324:286|245:257,1,165.749992412568,4|0,0:2|0:0,0:0:0:0:
250,258,61828,1,8,0:0:0:0:
428,35,61995,1,0,3:0:0:0:
428,35,62078,1,0,3:0:0:0:
428,35,62162,2,0,P|460:111|501:153,1,110.499994941712,4|0,0:2|3:0,0:0:0:0:
479,222,62412,1,0,3:0:0:0:
479,222,62495,1,0,3:0:0:0:
335,101,62662,6,0,P|303:63|233:72,1,110.499994941712,4|0,3:2|0:0,0:0:0:0:
173,229,62995,2,0,P|205:267|275:258,1,110.499994941712,0|8,3:0|0:0,0:0:0:0:
256,167,63328,1,0,3:0:0:0:
256,167,63412,1,0,3:0:0:0:
256,167,63495,1,8,0:0:0:0:
359,357,63662,1,0,3:0:0:0:
382,326,63745,1,0,3:0:0:0:
391,291,63828,1,8,0:0:0:0:
391,255,63912,1,0,3:0:0:0:
375,219,63995,1,4,0:3:0:0:
350,191,64078,1,4,0:3:0:0:
306,175,64162,6,0,P|263:173|222:183,1,85,4|0,3:2|0:0,0:0:0:0:
21,338,64495,2,0,P|17:279|74:263,1,127.5,8|0,0:0|0:0,0:0:0:0:
74,263,64828,1,0,3:0:0:0:
193,364,64995,1,0,3:0:0:0:
136,194,65162,2,0,P|123:146|123:82,1,85,8|0,0:0|0:0,0:0:0:0:
239,158,65495,5,0,3:0:0:0:
239,158,65662,1,0,3:0:0:0:
28,87,65828,1,8,0:0:0:0:
210,48,65995,1,0,0:0:0:0:
146,250,66162,1,0,3:0:0:0:
129,135,66328,1,0,3:0:0:0:
129,135,66412,1,0,3:0:0:0:
129,135,66495,1,8,0:0:0:0:
159,354,66662,1,0,3:0:0:0:
26,272,66828,5,4,3:2:0:0:
34,287,67162,1,0,3:0:0:0:
40,298,67495,1,0,3:0:0:0:
296,267,67662,1,2,0:3:0:0:
327,260,67745,1,4,0:3:0:0:
359,252,67828,1,0,0:0:0:0:
196,54,67995,1,8,0:0:0:0:
196,54,68162,5,0,3:0:0:0:
291,256,68328,1,8,0:0:0:0:
126,125,68495,1,0,3:0:0:0:
390,62,68662,1,4,0:3:0:0:
417,54,68745,1,4,0:3:0:0:
445,47,68828,1,8,0:3:0:0:
419,315,68995,2,0,L|443:234,1,59.4999981842042,12|0,3:2|0:0,0:0:0:0:
216,107,69162,2,0,L|232:164,1,59.4999981842042,12|0,3:2|0:0,0:0:0:0:
404,152,69328,1,0,0:0:0:0:
152,290,69495,6,0,P|125:249|76:248,1,102,4|0,3:2|0:0,0:0:0:0:
156,376,69828,2,0,P|173:269|213:168,1,216.750004134178,10|0,0:1|3:0,0:0:0:0:
213,168,70162,1,2,3:1:0:0:
452,362,70328,1,0,3:0:0:0:
257,279,70495,1,10,0:1:0:0:
455,96,70662,6,0,P|471:144|481:194,1,101.999996887207,0|2,3:0|0:1,0:0:0:0:
295,359,70995,1,0,3:0:0:0:
363,147,71162,1,10,0:1:0:0:
496,326,71328,1,0,3:0:0:0:
496,326,71411,1,0,3:0:0:0:
496,326,71495,2,0,P|428:297|365:291,1,101.999996887207,2|0,0:1|0:0,0:0:0:0:
327,234,71745,1,0,3:0:0:0:
327,234,71828,1,10,0:1:0:0:
131,356,71995,1,4,0:3:0:0:
57,287,72162,5,0,3:0:0:0:
57,287,72328,1,0,3:0:0:0:
385,245,72495,2,0,P|312:218|236:203,1,144.500002756119,12|0,0:2|0:0,0:0:0:0:
406,360,72828,5,0,3:0:0:0:
406,360,72995,1,0,3:0:0:0:
117,159,73162,2,0,P|190:132|266:117,1,144.500002756119,12|0,0:2|0:0,0:0:0:0:
328,163,73412,5,0,3:0:0:0:
328,163,73495,1,8,0:0:0:0:
206,378,73662,1,0,3:0:0:0:
179,153,73828,1,8,0:0:0:0:
382,275,73995,1,4,0:3:0:0:
419,269,74078,1,4,0:3:0:0:
456,264,74162,1,8,0:3:0:0:
124,278,74328,2,0,L|71:257,1,50.9999984436036,12|0,3:2|0:0,0:0:0:0:
90,132,74495,2,0,P|138:123|178:152,1,101.999996887207,12|0,3:2|0:0,0:0:0:0:
399,349,74828,6,0,P|420:304|399:260,1,102,4|0,3:2|0:0,0:0:0:0:
512,256,75162,2,0,P|417:228|308:91,1,216.750004134178,10|0,0:1|3:0,0:0:0:0:
333,148,75495,1,2,3:1:0:0:
512,49,75662,1,0,0:0:0:0:
399,260,75828,1,10,0:1:0:0:
335,49,75995,6,0,P|278:28|227:19,1,101.999996887207,0|2,3:0|0:1,0:0:0:0:
12,101,76328,1,0,3:0:0:0:
189,246,76495,1,10,0:1:0:0:
149,41,76662,1,0,3:0:0:0:
149,41,76745,1,0,3:0:0:0:
149,41,76828,2,0,P|115:126|104:171,1,101.999996887207,2|0,0:1|3:0,0:0:0:0:
32,182,77078,1,0,3:0:0:0:
32,182,77162,1,10,0:1:0:0:
168,357,77328,1,4,0:3:0:0:
71,292,77495,5,0,3:0:0:0:
71,292,77662,1,0,3:0:0:0:
370,255,77828,2,0,P|367:321|301:324,1,144.500002756119,12|0,0:2|0:0,0:0:0:0:
483,253,78162,5,0,3:0:0:0:
483,253,78328,1,0,3:0:0:0:
133,153,78495,2,0,P|135:218|201:221,1,144.500002756119,12|0,0:2|0:0,0:0:0:0:
452,71,78828,5,0,3:0:0:0:
258,14,78995,1,0,3:0:0:0:
248,38,79078,1,0,3:0:0:0:
247,65,79162,1,8,0:0:0:0:
433,215,79328,1,0,3:0:0:0:
438,191,79412,1,0,3:0:0:0:
425,164,79495,1,8,0:0:0:0:
76,260,79662,1,0,3:0:0:0:
98,313,79745,1,0,3:0:0:0:
153,330,79828,1,8,0:0:0:0:
205,308,79912,1,8,0:0:0:0:
254,279,79995,1,8,3:2:0:0:
312,284,80078,1,0,3:0:0:0:
352,317,80162,6,0,P|444:260|472:177,1,191.250007295609,4|0,3:2|0:0,0:0:0:0:
471,185,80495,1,8,0:0:0:0:
286,22,80662,1,0,3:0:0:0:
285,44,80745,1,0,3:0:0:0:
294,65,80828,2,0,P|366:58|438:35,1,127.500004863739,0|0,3:0|3:0,0:0:0:0:
495,83,81078,1,0,3:0:0:0:
495,83,81162,1,8,0:0:0:0:
289,207,81328,6,0,P|255:262|237:328,1,110.499994941712,0|0,3:0|0:0,0:0:0:0:
100,109,81662,2,0,P|164:110|230:93,1,110.499994941712,0|8,3:0|0:0,0:0:0:0:
105,314,81995,2,0,P|74:257|26:208,1,110.499994941712,0|0,3:0|3:0,0:0:0:0:
262,346,82328,1,0,3:0:0:0:
262,346,82412,1,0,3:0:0:0:
262,346,82495,1,8,0:0:0:0:
209,127,82662,1,0,0:0:0:0:
460,283,82828,6,0,P|378:269|300:241,1,165.749992412568,4|0,3:2|0:0,0:0:0:0:
296,151,83162,2,0,P|315:98|322:44,1,110.499994941712,8|0,0:0|0:0,0:0:0:0:
101,114,83495,1,0,3:0:0:0:
101,114,83662,1,0,3:0:0:0:
281,330,83828,1,8,0:0:0:0:
19,250,83995,6,0,P|118:200|226:177,1,220.999989883423,4|0,3:2|3:0,0:0:0:0:
244,193,84412,1,0,3:0:0:0:
256,217,84495,1,8,0:2:0:0:
471,365,84662,1,0,3:0:0:0:
242,311,84828,1,0,3:0:0:0:
453,202,84995,1,0,3:0:0:0:
466,175,85078,1,0,3:0:0:0:
469,142,85162,1,8,0:0:0:0:
315,21,85328,1,4,0:3:0:0:
362,192,85495,5,4,3:2:0:0:
362,192,85662,1,0,3:0:0:0:
221,345,85828,2,0,P|151:356|89:355,1,110.499994941712,8|0,0:0|0:0,0:0:0:0:
362,192,86162,5,0,3:0:0:0:
362,192,86329,1,0,3:0:0:0:
221,39,86495,2,0,P|151:28|89:29,1,110.499994941712,8|0,0:0|0:0,0:0:0:0:
312,306,86828,5,4,3:2:0:0:
318,89,86995,1,0,3:0:0:0:
318,89,87078,1,0,3:0:0:0:
318,89,87162,1,8,0:1:0:0:
320,325,87328,1,0,3:0:0:0:
192,58,87495,5,2,0:3:0:0:
385,247,87662,1,4,0:3:0:0:
385,247,87745,1,4,0:3:0:0:
385,247,87828,1,8,0:3:0:0:
207,70,87995,1,8,0:3:0:0:
446,95,88162,5,12,3:2:0:0:
80,177,88328,1,0,3:0:0:0:
501,185,88495,5,8,3:2:0:0:
150,271,88662,1,0,3:0:0:0:
347,6,88828,5,8,0:2:0:0:
354,32,88912,1,0,3:0:0:0:
362,60,88995,1,0,3:0:0:0:
454,384,89161,5,8,3:2:0:0:
152,215,89328,1,0,3:0:0:0:
456,26,89495,1,8,3:2:0:0:
181,21,90828,6,0,P|165:60|156:102,1,85,4|0,3:2|0:0,0:0:0:0:
160,284,91162,1,8,0:0:0:0:
5,154,91328,2,0,P|45:167|87:175,1,85,0|0,0:0|3:0,0:0:0:0:
268,275,91662,1,0,3:0:0:0:
181,180,91828,1,8,0:0:0:0:
293,373,91995,6,0,P|301:316|320:260,1,85,0|0,3:0|0:0,0:0:0:0:
447,175,92328,2,0,P|457:216|462:258,1,85,0|8,3:0|0:0,0:0:0:0:
384,362,92662,1,0,0:0:0:0:
384,362,92828,1,0,3:0:0:0:
197,259,92995,1,0,3:0:0:0:
360,169,93162,2,0,P|380:129|399:61,1,85,8|0,0:0|0:0,0:0:0:0:
178,143,93495,6,0,P|244:126|292:104,1,85,0|0,3:0|0:0,0:0:0:0:
66,130,93828,1,8,0:0:0:0:
259,231,93995,2,0,P|281:283|289:329,1,85,0|0,0:0|3:0,0:0:0:0:
116,359,94328,1,0,3:0:0:0:
116,359,94412,1,0,0:0:0:0:
116,359,94495,1,8,0:0:0:0:
200,229,94662,6,0,P|229:187|251:140,1,85,0|0,3:0|0:0,0:0:0:0:
23,102,94995,2,0,P|17:144|21:186,1,85,0|8,3:0|0:0,0:0:0:0:
236,360,95328,2,0,P|283:305|373:232,1,170,0|0,0:0|3:0,0:0:0:0:
375,247,95745,1,0,3:0:0:0:
392,260,95828,1,8,0:0:0:0:
366,367,95995,1,0,0:0:0:0:
249,176,96162,6,0,P|216:128|178:96,1,85,4|0,3:2|0:0,0:0:0:0:
147,214,96495,1,8,0:0:0:0:
385,282,96662,2,0,P|449:264|492:243,1,85,0|0,0:0|3:0,0:0:0:0:
239,336,96995,1,0,3:0:0:0:
239,336,97162,1,8,0:0:0:0:
363,132,97328,6,0,P|330:164|308:197,1,85,0|0,0:2|3:0,0:0:0:0:
169,88,97662,2,0,P|202:56|223:22,1,85,0|8,3:0|0:0,0:0:0:0:
196,258,97995,1,0,3:0:0:0:
176,239,98078,1,0,3:0:0:0:
142,231,98162,1,0,3:0:0:0:
131,350,98328,1,0,3:0:0:0:
38,209,98495,2,0,P|24:153|24:100,1,85,8|4,0:2|0:3,0:0:0:0:
283,126,98828,5,4,3:2:0:0:
283,126,98995,1,0,3:0:0:0:
96,21,99162,1,8,3:2:0:0:
214,251,99328,2,0,P|186:186|202:57,1,165.749992412568,4|0,0:1|0:0,0:0:0:0:
188,92,99662,1,2,0:3:0:0:
322,221,99828,1,4,0:3:0:0:
322,221,99995,1,8,0:3:0:0:
236,355,100162,5,4,3:2:0:0:
463,333,100329,1,0,3:0:0:0:
463,333,100412,1,0,3:0:0:0:
463,333,100495,1,8,3:2:0:0:
375,123,100662,2,0,P|350:173|339:227,1,110.499994941712,4|0,0:1|0:0,0:0:0:0:
359,366,100995,1,2,0:3:0:0:
359,366,101078,1,0,3:0:0:0:
359,366,101162,1,2,0:3:0:0:
440,239,101328,1,8,0:3:0:0:
260,348,101495,5,12,3:2:0:0:
151,129,101662,1,8,3:2:0:0:
151,129,101828,1,0,3:0:0:0:
334,302,101995,5,8,3:2:0:0:
36,199,102162,1,8,3:2:0:0:
36,199,102329,1,0,3:0:0:0:
346,199,102495,5,0,3:0:0:0:
18,377,102662,1,4,0:3:0:0:
181,287,102828,1,2,0:2:0:0:
357,60,104162,5,6,0:2:0:0:
300,19,113161,6,0,P|239:75|159:92,1,165.749992412568,0|2,3:0|0:0,0:0:0:0:
159,92,113495,5,4,0:2:0:0:
74,301,113662,1,0,3:0:0:0:
63,278,113745,1,0,3:0:0:0:
53,255,113828,1,8,0:0:0:0:
299,278,113995,1,4,0:3:0:0:
167,169,114162,1,8,0:3:0:0:
174,356,114328,1,8,3:2:0:0:
293,161,114495,1,0,3:0:0:0:
303,143,114578,1,0,3:0:0:0:
316,123,114662,1,8,0:0:0:0:
41,142,114828,6,0,P|110:133|222:52,1,165.749992412568,4|0,3:2|0:0,0:0:0:0:
192,85,115162,1,8,0:0:0:0:
69,42,115328,1,0,3:0:0:0:
357,247,115495,2,0,P|275:233|205:190,1,165.749992412568,4|0,3:2|0:0,0:0:0:0:
205,190,115828,1,0,3:0:0:0:
0,273,115995,6,0,P|77:274|67:366,1,165.749992412568,4|0,3:2|0:0,0:0:0:0:
85,349,116328,1,0,3:0:0:0:
305,342,116495,1,8,0:0:0:0:
156,208,116662,1,0,3:0:0:0:
193,384,116828,1,0,3:1:0:0:
193,384,116912,1,0,3:0:0:0:
193,384,116995,1,0,3:0:0:0:
276,230,117162,2,0,P|328:214|383:209,1,110.499994941712,8|0,0:1|3:0,0:0:0:0:
134,26,117495,6,0,P|202:66|289:170,1,165.749992412568,4|0,0:2|0:0,0:0:0:0:
262,127,117828,1,8,0:0:0:0:
128,192,117995,1,0,3:0:0:0:
379,316,118162,2,0,P|356:265|345:211,1,110.499994941712,4|0,0:2|3:0,0:0:0:0:
352,193,118412,1,0,3:0:0:0:
372,181,118495,1,0,3:0:0:0:
63,337,118662,6,0,P|132:352|188:375,1,110.499994941712,4|0,3:2|0:0,0:0:0:0:
229,186,118995,2,0,P|160:171|104:148,1,110.499994941712,0|8,3:0|0:0,0:0:0:0:
153,263,119328,1,0,3:0:0:0:
153,263,119412,1,0,3:0:0:0:
153,263,119495,1,8,0:0:0:0:
326,362,119662,1,0,3:0:0:0:
375,339,119745,1,0,3:0:0:0:
396,301,119828,1,8,0:0:0:0:
393,274,119912,1,0,3:0:0:0:
377,246,119995,1,4,0:3:0:0:
353,229,120078,1,4,0:3:0:0:
341,203,120162,6,0,P|343:147|366:85,1,85,4|0,3:2|0:0,0:0:0:0:
150,38,120495,2,0,P|206:33|232:121,1,127.5,8|0,0:0|0:0,0:0:0:0:
242,87,120828,1,0,3:0:0:0:
57,26,120995,1,0,3:0:0:0:
126,195,121162,2,0,P|105:142|93:88,1,85,8|0,0:0|0:0,0:0:0:0:
227,239,121495,1,0,3:0:0:0:
29,195,121662,1,0,3:0:0:0:
238,119,121828,1,8,0:0:0:0:
238,119,121995,1,0,0:0:0:0:
146,288,122162,1,0,3:0:0:0:
143,303,122245,1,0,3:0:0:0:
141,320,122328,1,0,3:0:0:0:
172,48,122495,5,4,0:3:0:0:
209,25,122578,1,4,0:3:0:0:
256,20,122662,1,8,3:3:0:0:
298,35,122745,1,8,0:3:0:0:
330,63,122828,1,4,3:2:0:0:
402,327,122995,1,0,3:0:0:0:
227,152,123162,1,8,0:0:0:0:
476,70,123328,1,0,3:0:0:0:
274,285,123495,5,8,0:0:0:0:
259,302,123578,1,8,0:0:0:0:
244,322,123662,1,0,3:0:0:0:
26,159,123828,1,8,0:0:0:0:
301,27,123995,1,4,0:3:0:0:
97,99,124162,5,4,3:2:0:0:
184,113,124328,1,8,0:0:0:0:
124,190,124495,1,0,3:0:0:0:
178,19,124662,1,4,0:3:0:0:
201,16,124745,1,4,0:3:0:0:
226,24,124828,1,0,3:0:0:0:
241,37,124912,1,0,3:0:0:0:
251,56,124995,2,0,L|234:135,1,59.4999981842042,12|0,3:2|0:0,0:0:0:0:
12,194,125162,2,0,L|0:135,1,59.4999981842042,12|0,3:2|0:0,0:0:0:0:
266,262,125328,1,0,3:0:0:0:
57,355,125495,6,0,P|28:315|45:269,1,102,4|0,3:2|0:0,0:0:0:0:
66,264,125828,2,0,P|153:304|299:313,1,216.750004134178,10|0,0:1|3:0,0:0:0:0:
272,316,126162,1,2,3:1:0:0:
494,149,126328,1,0,3:0:0:0:
246,71,126495,1,10,0:1:0:0:
390,292,126662,2,0,P|452:308|515:311,1,101.999996887207,0|2,3:0|0:1,0:0:0:0:
361,73,126995,1,0,3:0:0:0:
276,353,127162,1,10,0:1:0:0:
490,217,127328,1,0,3:0:0:0:
481,193,127412,1,0,3:0:0:0:
470,172,127495,2,0,P|389:157|341:158,1,101.999996887207,2|0,0:1|0:0,0:0:0:0:
296,93,127745,1,0,3:0:0:0:
296,93,127828,1,10,0:1:0:0:
220,177,127995,1,4,0:3:0:0:
22,81,128162,5,0,3:0:0:0:
22,81,128328,1,0,3:0:0:0:
269,254,128495,2,0,P|203:224|132:212,1,144.500002756119,12|0,0:2|0:0,0:0:0:0:
471,132,128828,5,0,3:0:0:0:
471,132,128995,1,0,3:0:0:0:
218,322,129162,2,0,P|283:292|354:280,1,144.500002756119,12|0,0:2|0:0,0:0:0:0:
438,327,129412,1,0,3:0:0:0:
438,327,129495,1,8,0:0:0:0:
220,153,129662,1,0,3:0:0:0:
343,364,129828,1,8,0:0:0:0:
468,147,129995,1,4,0:3:0:0:
480,130,130078,1,4,0:3:0:0:
491,114,130162,1,8,0:3:0:0:
326,18,130328,2,0,L|268:2,1,50.9999984436036,12|0,3:2|0:0,0:0:0:0:
394,262,130495,2,0,L|443:248,1,50.9999984436036,12|0,3:2|0:0,0:0:0:0:
257,104,130662,1,0,0:0:0:0:
56,144,130828,6,0,P|27:103|42:56,1,102,4|0,0:0|0:0,0:0:0:0:
130,84,131162,2,0,P|156:157|140:345,1,216.750004134178,10|0,0:1|3:0,0:0:0:0:
155,294,131495,1,2,3:1:0:0:
482,268,131662,1,0,0:0:0:0:
199,147,131828,1,10,0:1:0:0:
337,376,131995,2,0,P|331:314|337:232,1,101.999996887207,0|2,3:0|0:1,0:0:0:0:
439,31,132328,1,0,3:0:0:0:
488,217,132495,1,10,0:1:0:0:
209,122,132662,1,0,3:0:0:0:
195,98,132745,1,0,3:0:0:0:
184,70,132828,2,0,P|124:103|75:117,1,101.999996887207,2|0,0:1|3:0,0:0:0:0:
6,93,133078,1,0,3:0:0:0:
6,93,133162,1,10,0:1:0:0:
97,202,133328,1,4,0:3:0:0:
241,362,133495,5,0,3:0:0:0:
241,362,133662,1,0,3:0:0:0:
466,87,133828,2,0,P|475:172|452:270,1,144.500002756119,12|0,0:2|0:0,0:0:0:0:
271,22,134162,5,0,3:0:0:0:
271,22,134329,1,0,3:0:0:0:
46,297,134495,2,0,P|37:212|60:114,1,144.500002756119,12|0,0:2|0:0,0:0:0:0:
373,362,134828,5,0,3:0:0:0:
124,217,134995,1,0,3:0:0:0:
401,77,135162,1,8,0:0:0:0:
254,354,135328,1,0,3:0:0:0:
152,95,135495,1,8,0:0:0:0:
464,219,135662,1,0,3:0:0:0:
467,256,135745,1,0,3:0:0:0:
442,288,135828,1,8,0:0:0:0:
393,290,135912,1,8,0:0:0:0:
345,262,135995,1,8,3:2:0:0:
296,263,136078,1,0,3:0:0:0:
257,294,136162,6,0,P|173:326|21:329,1,191.250007295609,4|0,3:2|0:0,0:0:0:0:
72,335,136495,1,8,0:0:0:0:
43,113,136662,1,0,3:0:0:0:
67,139,136745,1,0,3:0:0:0:
104,150,136828,1,0,3:0:0:0:
343,72,136995,1,0,3:0:0:0:
334,296,137162,1,8,0:0:0:0:
206,132,137328,6,0,P|182:82|136:53,1,110.499994941712,0|0,3:0|0:0,0:0:0:0:
435,157,137662,2,0,P|387:183|332:178,1,110.499994941712,0|8,3:0|0:0,0:0:0:0:
195,364,137995,2,0,P|198:310|229:265,1,110.499994941712,0|0,3:0|3:0,0:0:0:0:
453,276,138328,1,0,3:0:0:0:
469,297,138412,1,0,3:0:0:0:
476,323,138495,1,8,0:0:0:0:
213,254,138662,1,0,0:0:0:0:
438,8,138828,6,0,P|397:81|365:157,1,165.749992412568,4|0,3:2|0:0,0:0:0:0:
331,270,139162,2,0,P|397:245|466:239,1,110.499994941712,8|0,0:0|0:0,0:0:0:0:
231,99,139495,1,0,3:0:0:0:
231,99,139662,1,0,3:0:0:0:
351,298,139828,1,8,0:0:0:0:
31,377,139995,6,0,P|111:301|180:215,1,220.999989883423,4|0,3:2|3:0,0:0:0:0:
275,209,140412,1,0,3:0:0:0:
275,209,140496,1,8,0:2:0:0:
55,54,140662,1,0,3:0:0:0:
39,83,140745,1,0,3:0:0:0:
35,122,140828,1,0,3:0:0:0:
235,304,140995,1,0,3:0:0:0:
415,46,141162,1,8,0:2:0:0:
379,20,141245,1,8,3:3:0:0:
333,14,141328,1,4,3:3:0:0:
292,23,141412,1,4,3:3:0:0:
259,46,141495,5,4,3:2:0:0:
259,46,141662,1,0,3:0:0:0:
367,363,141828,2,0,P|395:291|415:216,1,110.499994941712,8|0,0:0|0:0,0:0:0:0:
259,46,142162,5,0,3:0:0:0:
259,46,142329,1,0,3:0:0:0:
151,363,142495,2,0,P|123:291|103:216,1,110.499994941712,8|0,0:0|0:0,0:0:0:0:
381,150,142828,5,0,3:0:0:0:
125,122,142995,1,0,3:0:0:0:
113,120,143078,1,0,3:0:0:0:
104,117,143162,1,8,0:0:0:0:
403,155,143328,1,0,3:0:0:0:
233,363,143495,1,8,3:2:0:0:
208,320,143578,1,8,0:0:0:0:
210,269,143662,1,8,0:0:0:0:
234,225,143745,1,8,0:0:0:0:
269,190,143828,1,4,3:3:0:0:
297,148,143912,1,4,0:3:0:0:
295,98,143995,1,8,0:3:0:0:
273,53,144078,1,8,0:3:0:0:
228,30,144162,5,12,3:2:0:0:
0,227,144328,1,0,3:2:0:0:
354,104,144495,5,8,3:2:0:0:
97,341,144662,1,0,3:2:0:0:
106,35,144828,5,8,3:2:0:0:
383,228,144995,1,0,3:2:0:0:
16,117,145162,5,8,3:2:0:0:
301,337,145328,1,0,3:2:0:0:
340,18,145495,5,8,3:2:0:0:
62,209,145662,1,0,3:2:0:0:
391,312,145828,5,8,3:2:0:0:
233,25,145994,1,0,3:2:0:0:
191,332,146162,5,8,3:2:0:0:
448,163,146328,1,0,3:2:0:0:
472,150,146412,1,0,3:2:0:0:
493,140,146495,1,8,3:2:0:0:
142,92,146662,1,0,3:2:0:0:
409,358,146828,5,12,3:2:0:0:
512,174,146995,1,0,3:2:0:0:
317,317,147162,5,8,3:2:0:0:
330,52,147328,1,0,3:2:0:0:
209,339,147495,5,8,3:2:0:0:
119,62,147662,1,0,3:2:0:0:
114,50,147745,1,0,3:2:0:0:
107,38,147828,1,12,3:1:0:0:
25,324,147995,1,0,3:2:0:0:
308,232,148162,5,12,3:2:0:0:
0,117,148328,2,0,L|98:110,1,55.2499974708558,0|0,3:2|3:2,0:0:0:0:
486,101,148495,5,8,3:2:0:0:
93,222,148662,2,0,L|181:159,1,55.2499974708558,0|0,3:2|3:2,0:0:0:0:
324,0,148828,5,12,3:1:0:0:
289,329,148995,1,8,3:2:0:0:
287,357,149078,1,8,3:2:0:0:
285,384,149162,1,8,3:2:0:0:
30,66,149328,5,8,3:2:0:0:
41,78,149412,1,8,3:2:0:0:
51,91,149495,2,0,P|133:103|261:164,1,191.250007295609,4|0,0:2|0:2,0:0:0:0:
233,145,149828,1,0,3:0:0:0:
480,32,149995,2,0,P|336:81|391:223,1,331.499984825135,4|0,0:2|0:0,0:0:0:0:
64,356,150828,5,4,0:3:0:0:
307,285,151162,1,4,0:2:0:0:
171,156,151328,1,0,3:0:0:0:
173,177,151411,1,0,3:0:0:0:
175,196,151494,1,0,3:0:0:0:
28,193,151662,1,8,0:0:0:0:
0,145,151745,1,8,0:0:0:0:
3,94,151828,1,8,0:0:0:0:
44,114,151912,1,8,0:0:0:0:
93,112,151995,1,8,0:0:0:0:
137,88,152078,1,8,0:0:0:0:
172,60,152162,6,0,P|236:29|341:-1,1,165.749992412568,4|0,3:2|3:0,0:0:0:0:
326,1,152495,1,8,0:0:0:0:
471,189,152662,1,0,0:0:0:0:
260,148,152828,1,0,3:0:0:0:
260,148,152995,1,0,3:0:0:0:
502,34,153162,1,8,0:0:0:0:
401,238,153328,5,0,0:0:0:0:
299,35,153495,1,0,3:0:0:0:
431,249,153662,1,0,3:0:0:0:
173,169,153828,1,8,0:0:0:0:
382,78,153995,1,0,0:0:0:0:
372,370,154162,1,0,3:0:0:0:
182,273,154328,1,0,3:0:0:0:
434,183,154495,1,8,0:0:0:0:
238,34,154662,1,0,0:0:0:0:
231,362,154828,6,0,P|166:292|81:248,1,191.250007295609,0|0,3:0|3:0,0:0:0:0:
81,248,155162,1,8,0:0:0:0:
69,384,155328,1,0,0:0:0:0:
270,243,155495,1,0,3:0:0:0:
276,216,155578,1,0,3:0:0:0:
280,193,155662,1,0,3:0:0:0:
40,117,155828,1,8,0:0:0:0:
199,301,155995,1,0,0:0:0:0:
296,43,156162,5,0,3:0:0:0:
269,58,156245,1,0,3:0:0:0:
243,75,156328,1,0,3:0:0:0:
28,262,156495,2,0,P|78:204|111:145,1,127.500004863739,8|0,0:0|0:0,0:0:0:0:
328,352,156828,1,0,3:0:0:0:
190,257,156995,1,0,3:0:0:0:
287,110,157162,1,8,0:0:0:0:
427,201,157328,1,8,0:0:0:0:
182,363,157495,5,4,3:2:0:0:
418,293,157662,1,0,3:0:0:0:
455,292,157745,1,0,3:0:0:0:
485,321,157828,1,8,0:0:0:0:
201,126,157995,2,0,P|165:56|147:-36,1,127.500004863739,0|0,0:0|3:0,0:0:0:0:
72,70,158245,1,0,3:0:0:0:
72,70,158328,1,0,3:0:0:0:
388,134,158495,2,0,P|462:124|518:106,1,127.500004863739,8|0,0:0|0:0,0:0:0:0:
163,87,158828,5,2,3:2:0:0:
117,151,158940,1,2,0:2:0:0:
152,217,159051,1,2,0:2:0:0:
224,225,159162,5,10,3:2:0:0:
271,164,159274,1,2,0:2:0:0:
237,98,159385,1,2,0:2:0:0:
194,156,159495,6,0,P|246:253|258:354,1,191.250007295609,0|0,3:0|3:0,0:0:0:0:
258,332,159828,1,8,0:0:0:0:
17,246,159995,1,0,0:0:0:0:
403,25,160162,6,0,B|478:89|451:185|451:185|409:190|363:157,1,255.000009727478,0|8,3:0|0:0,0:0:0:0:
138,45,160661,2,0,P|78:67|56:68,1,63.7500024318696,0|0,3:0|0:0,0:0:0:0:
290,222,160828,1,0,3:0:0:0:
304,250,160912,1,0,3:0:0:0:
311,288,160995,1,0,3:0:0:0:
32,192,161162,1,8,0:0:0:0:
271,64,161328,1,0,0:0:0:0:
229,354,161495,5,12,3:2:0:0:
229,354,161662,1,0,3:0:0:0:
69,98,161828,1,8,0:0:0:0:
379,197,161995,1,0,3:0:0:0:
125,358,162162,1,8,3:2:0:0:
70,332,162245,1,8,0:0:0:0:
60,281,162328,1,8,0:0:0:0:
86,246,162412,1,8,0:0:0:0:
125,246,162495,1,4,3:3:0:0:
155,264,162578,1,4,0:3:0:0:
186,274,162662,2,0,P|222:273|274:244,1,63.7500024318696,8|8,0:3|0:3,0:0:0:0:
384,94,162828,5,4,3:2:0:0:
369,43,162912,1,0,0:0:0:0:
318,20,162995,1,0,0:0:0:0:
265,39,163078,1,0,3:0:0:0:
250,87,163162,1,8,3:2:0:0:
276,133,163245,1,0,0:0:0:0:
327,161,163328,1,0,3:0:0:0:
367,200,163412,1,0,0:0:0:0:
388,252,163495,5,0,3:0:0:0:
373,307,163578,1,0,0:0:0:0:
325,338,163661,1,0,3:0:0:0:
270,325,163745,1,0,3:0:0:0:
233,282,163828,1,8,0:0:0:0:
216,227,163911,1,0,0:0:0:0:
169,193,163995,1,0,3:0:0:0:
111,193,164078,1,0,0:0:0:0:
66,229,164161,5,2,3:1:0:0:
56,288,164245,1,0,3:0:0:0:
91,338,164328,1,0,0:0:0:0:
138,355,164412,1,0,3:0:0:0:
184,346,164495,1,10,0:1:0:0:
196,322,164578,1,0,0:0:0:0:
195,303,164661,1,0,3:0:0:0:
179,298,164745,1,0,3:0:0:0:
167,304,164828,5,2,3:1:0:0:
122,272,164912,1,0,0:0:0:0:
102,220,164995,1,0,3:0:0:0:
121,168,165078,1,0,3:0:0:0:
173,140,165162,1,10,0:1:0:0:
236,150,165245,1,8,0:0:0:0:
294,192,165328,1,8,0:0:0:0:
367,200,165412,1,8,0:0:0:0:
433,173,165495,6,0,P|488:92|494:43,1,127.500004863739,4|0,3:2|0:0,0:0:0:0:
166,26,165828,1,2,0:3:0:0:
124,60,165912,1,2,0:3:0:0:
110,104,165995,1,4,0:3:0:0:
121,154,166078,1,4,0:3:0:0:
147,197,166162,2,0,P|220:219|310:212,1,127.500004863739,4|0,0:1|0:0,0:0:0:0:
363,276,166412,1,0,3:0:0:0:
363,276,166495,1,8,0:2:0:0:
304,74,166662,1,4,0:3:0:0:
197,302,166828,6,0,P|130:306|55:351,1,127.500004863739,4|0,3:2|0:0,0:0:0:0:
11,294,167078,1,0,3:0:0:0:
11,294,167162,1,8,0:0:0:0:
308,366,167328,2,0,P|326:304|366:240,1,127.500004863739,0|0,3:0|3:0,0:0:0:0:
129,37,167662,2,0,B|231:48|248:144|248:144|239:194|134:199,1,255.000009727478,8|8,3:2|0:0,0:0:0:0:
494,29,168162,6,0,P|435:61|391:104,1,127.500004863739,4|0,3:2|3:0,0:0:0:0:
315,77,168412,1,0,3:0:0:0:
315,77,168495,1,8,0:0:0:0:
454,314,168662,1,0,0:0:0:0:
202,238,168828,1,0,3:0:0:0:
202,238,168912,1,0,3:0:0:0:
202,238,168995,1,0,3:0:0:0:
500,146,169162,1,8,0:0:0:0:
314,347,169328,6,0,B|398:292|376:193|376:193|340:166|260:195,1,255.000009727478,0|0,3:0|3:0,0:0:0:0:
26,248,169828,2,0,P|87:309|120:370,1,127.500004863739,8|0,0:0|0:0,0:0:0:0:
202,370,170078,1,0,3:0:0:0:
202,370,170162,1,2,0:1:0:0:
300,166,170328,1,0,3:0:0:0:
38,99,170495,2,0,P|134:69|208:30,1,127.500004863739,10|0,0:1|0:0,0:0:0:0:
319,338,170828,6,0,B|236:285|251:190|251:190|325:173|357:220,1,272,4|8,3:2|0:0,0:0:0:0:
115,332,171328,1,0,3:0:0:0:
115,332,171412,1,0,3:0:0:0:
115,332,171495,1,0,3:2:0:0:
200,146,171662,1,0,3:0:0:0:
348,303,171828,2,0,P|410:282|501:267,1,136,8|0,0:0|0:0,0:0:0:0:
396,70,172162,5,8,3:2:0:0:
251,353,172328,1,0,3:0:0:0:
195,56,172495,5,8,3:2:0:0:
507,155,172662,1,0,3:0:0:0:
193,282,172828,5,8,0:0:0:0:
115,257,172940,1,8,0:0:0:0:
107,178,173051,1,8,0:0:0:0:
155,117,173162,5,4,0:3:0:0:
180,159,173245,1,4,0:3:0:0:
174,211,173328,1,8,0:3:0:0:
142,246,173412,1,8,0:3:0:0:
96,251,173495,6,0,L|22:236,3,68,4|0|0|0,3:2|0:0|3:0|0:0,0:0:0:0:
204,366,173828,2,0,L|278:351,3,68,8|0|0|0,0:0|0:0|3:0|0:0,0:0:0:0:
371,273,174162,1,8,3:2:0:0:
421,250,174245,1,0,0:0:0:0:
432,197,174328,1,0,3:0:0:0:
406,148,174412,1,0,0:0:0:0:
352,138,174495,1,8,3:2:0:0:
302,159,174578,1,0,0:0:0:0:
274,206,174662,1,0,3:0:0:0:
226,232,174745,1,0,0:0:0:0:
171,232,174828,6,0,L|64:201,3,68,8|0|0|0,3:2|0:0|3:0|0:0,0:0:0:0:
240,91,175162,2,0,L|347:60,3,68,8|0|0|0,3:2|0:0|3:0|0:0,0:0:0:0:
422,129,175495,2,0,P|437:164|450:220,1,68,8|0,3:2|0:0,0:0:0:0:
354,384,175661,1,8,3:2:0:0:
320,355,175745,1,8,0:2:0:0:
306,308,175828,2,0,P|316:279|364:232,1,68,8|0,3:2|0:0,0:0:0:0:
211,129,175995,2,0,P|249:141|278:161,1,68,8|0,3:2|3:0,0:0:0:0:
208,295,176162,6,0,P|169:341|136:363,3,68,12|0|0|0,3:2|0:0|3:0|0:0,0:0:0:0:
27,238,176495,2,0,P|59:247|93:251,3,68,8|0|0|0,3:2|0:0|3:0|0:0,0:0:0:0:
289,245,176828,2,0,P|301:213|306:179,1,68,8|0,3:2|0:0,0:0:0:0:
130,74,176995,2,0,P|132:107|141:140,1,68,0|0,3:0|0:0,0:0:0:0:
395,121,177162,2,0,P|369:98|339:81,1,68,8|0,3:2|0:0,0:0:0:0:
138,235,177328,2,0,P|163:257|193:274,1,68,0|0,3:0|0:0,0:0:0:0:
390,226,177495,5,8,3:2:0:0:
416,171,177578,1,0,0:0:0:0:
409,109,177662,1,0,3:0:0:0:
363,68,177745,1,0,0:0:0:0:
304,68,177828,1,8,3:2:0:0:
254,107,177912,1,0,0:0:0:0:
222,159,177995,1,0,3:0:0:0:
167,187,178078,1,0,0:0:0:0:
105,188,178162,1,8,3:2:0:0:
52,157,178245,1,0,0:0:0:0:
34,98,178328,1,0,3:0:0:0:
60,42,178412,1,0,0:0:0:0:
117,22,178495,5,4,0:3:0:0:
136,49,178578,1,4,0:3:0:0:
145,82,178662,1,8,0:3:0:0:
144,115,178745,1,8,0:3:0:0:
135,147,178828,6,0,P|77:130|19:121,1,118.999996368408,4|0,3:2|3:0,0:0:0:0:
201,371,179162,1,8,0:0:0:0:
119,250,179328,1,2,0:3:0:0:
86,275,179412,1,0,3:0:0:0:
70,313,179495,1,4,0:3:0:0:
288,261,179661,1,0,3:0:0:0:
326,277,179745,1,0,3:0:0:0:
367,271,179828,1,8,0:0:0:0:
285,68,179995,5,0,3:0:0:0:
252,92,180079,1,0,3:0:0:0:
236,131,180161,2,0,P|174:106|99:92,1,118.999996368408,0|0,3:0|3:0,0:0:0:0:
306,356,180495,1,8,0:0:0:0:
152,192,180662,1,0,3:0:0:0:
397,149,180828,1,0,3:0:0:0:
428,124,180912,1,0,3:0:0:0:
437,85,180995,1,0,3:0:0:0:
217,80,181162,1,8,0:0:0:0:
393,280,181328,1,0,3:0:0:0:
340,73,181495,5,4,3:0:0:0:
340,73,181662,1,0,3:0:0:0:
175,214,181828,2,0,P|88:194|13:146,1,178.499994552612,12|0,0:1|3:0,0:0:0:0:
0,69,182162,1,0,3:0:0:0:
0,69,182328,1,0,3:0:0:0:
168,342,182495,2,0,P|199:250|271:143,1,178.499994552612,12|0,0:1|0:0,0:0:0:0:
240,180,182828,5,4,3:2:0:0:
512,126,182995,1,0,3:0:0:0:
499,319,183162,1,0,3:0:0:0:
341,115,183328,1,0,3:0:0:0:
317,304,183495,1,0,3:0:0:0:
512,143,183662,1,0,3:0:0:0:
259,6,183828,1,4,0:3:0:0:
201,11,183912,1,4,0:3:0:0:
161,38,183995,1,8,0:3:0:0:
139,83,184078,1,8,0:3:0:0:
137,136,184162,6,0,B|141:218|78:266|78:266|28:242|25:170,2,237.999992736817,4|0|0,3:2|0:0|0:0,0:0:0:0:
225,98,184995,5,0,0:0:0:0:
73,69,185162,1,0,0:0:0:0:
137,136,185328,2,0,B|98:208|135:278|135:278|190:278|224:214,1,237.999992736817,0|0,0:0|0:0,0:0:0:0:
512,83,185828,5,0,3:0:0:0:
195,11,185995,1,0,3:0:0:0:
420,295,186162,1,0,3:0:0:0:
330,25,186328,1,8,3:2:0:0:
281,44,186412,1,8,0:0:0:0:
262,92,186495,1,8,0:0:0:0:
276,141,186578,1,8,0:0:0:0:
308,183,186662,1,8,0:0:0:0:
327,231,186745,1,8,0:0:0:0:
317,279,186828,6,0,P|288:319|238:325,1,102,4|0,3:2|0:0,0:0:0:0:
29,230,187162,2,0,P|136:223|242:245,1,216.750004134178,10|0,0:1|3:0,0:0:0:0:
313,359,187495,1,2,3:1:0:0:
313,359,187662,1,0,3:0:0:0:
113,202,187828,1,10,0:1:0:0:
358,69,187995,6,0,P|405:51|455:41,1,101.999996887207,0|2,3:0|0:1,0:0:0:0:
102,234,188328,1,0,3:0:0:0:
473,161,188495,1,10,0:1:0:0:
216,49,188662,1,0,3:0:0:0:
189,29,188745,1,0,3:0:0:0:
157,18,188828,2,0,P|109:58|66:107,1,101.999996887207,2|0,0:1|0:0,0:0:0:0:
5,82,189078,1,0,3:0:0:0:
5,82,189162,1,10,0:1:0:0:
166,323,189328,1,4,0:3:0:0:
31,222,189495,5,0,3:0:0:0:
31,222,189662,1,0,3:0:0:0:
302,227,189828,2,0,P|292:299|266:366,1,144.500002756119,12|0,0:2|0:0,0:0:0:0:
454,195,190162,5,0,3:0:0:0:
454,195,190329,1,0,3:0:0:0:
141,119,190495,2,0,P|151:191|178:258,1,144.500002756119,12|0,0:2|0:0,0:0:0:0:
125,335,190745,1,0,3:0:0:0:
125,335,190828,1,8,0:0:0:0:
378,212,190995,1,0,3:0:0:0:
194,52,191162,1,8,0:0:0:0:
309,324,191328,1,4,0:3:0:0:
309,324,191412,1,4,0:3:0:0:
309,324,191495,1,8,0:3:0:0:
116,212,191662,2,0,L|66:201,1,50.9999984436036,12|0,3:2|0:0,0:0:0:0:
281,26,191828,2,0,L|330:15,1,50.9999984436036,12|0,3:2|0:0,0:0:0:0:
216,287,191995,1,0,0:0:0:0:
144,19,192162,6,0,P|149:88|197:98,1,102,4|0,0:0|0:0,0:0:0:0:
427,110,192495,2,0,P|323:53|212:31,1,216.750004134178,10|0,0:1|3:0,0:0:0:0:
227,32,192828,1,2,3:1:0:0:
314,361,192995,1,0,0:0:0:0:
510,200,193162,1,10,0:1:0:0:
276,138,193328,6,0,P|226:89|197:35,1,101.999996887207,0|2,3:0|0:1,0:0:0:0:
505,58,193662,1,0,3:0:0:0:
441,301,193828,1,10,0:1:0:0:
199,207,193995,1,0,3:0:0:0:
199,207,194078,1,0,3:0:0:0:
199,207,194162,2,0,P|142:190|84:179,1,101.999996887207,2|0,0:1|3:0,0:0:0:0:
54,115,194412,1,0,3:0:0:0:
54,115,194495,1,10,0:1:0:0:
220,337,194662,1,4,0:3:0:0:
183,72,194828,5,0,3:0:0:0:
183,72,194995,1,0,3:0:0:0:
498,90,195162,2,0,P|438:41|364:12,1,144.500002756119,12|0,0:2|0:0,0:0:0:0:
501,213,195495,5,0,3:0:0:0:
501,213,195662,1,0,3:0:0:0:
186,231,195829,2,0,P|246:182|320:153,1,144.500002756119,12|0,0:2|0:0,0:0:0:0:
478,369,196162,5,0,3:0:0:0:
284,237,196328,1,0,3:0:0:0:
265,206,196412,1,0,3:0:0:0:
265,167,196495,1,8,0:0:0:0:
451,24,196662,1,0,3:0:0:0:
470,60,196745,1,0,3:0:0:0:
472,99,196828,1,8,0:0:0:0:
220,4,196995,1,0,3:0:0:0:
159,11,197078,1,0,3:0:0:0:
125,43,197162,1,8,0:0:0:0:
170,67,197245,1,8,0:0:0:0:
196,109,197328,1,8,3:2:0:0:
199,161,197412,1,0,3:0:0:0:
187,207,197495,6,0,P|111:226|-6:244,1,191.250007295609,4|0,3:2|0:0,0:0:0:0:
0,244,197828,1,8,0:0:0:0:
322,356,197995,1,0,3:0:0:0:
226,102,198162,1,0,3:0:0:0:
148,332,198328,1,0,3:0:0:0:
148,332,198412,1,0,3:0:0:0:
148,332,198495,1,8,0:0:0:0:
386,199,198662,6,0,P|438:177|506:163,1,110.499994941712,0|0,3:0|0:0,0:0:0:0:
240,208,198995,2,0,P|233:264|211:329,1,110.499994941712,0|8,3:0|0:0,0:0:0:0:
317,79,199328,2,0,P|271:44|225:-6,1,110.499994941712,0|0,3:0|3:0,0:0:0:0:
3,139,199662,1,0,3:0:0:0:
0,171,199745,1,0,3:0:0:0:
16,198,199828,2,0,P|91:163|169:136,1,165.749992412568,8|0,0:0|0:0,0:0:0:0:
169,136,200162,5,4,3:2:0:0:
371,342,200328,1,0,0:0:0:0:
328,92,200495,2,0,P|279:159|246:234,1,165.749992412568,8|0,0:0|0:0,0:0:0:0:
290,314,200828,2,0,P|344:320|399:311,1,110.499994941712,0|0,3:0|3:0,0:0:0:0:
200,97,201162,1,8,0:0:0:0:
111,371,201328,6,0,P|90:263|103:154,1,220.999989883423,4|0,3:2|3:0,0:0:0:0:
38,90,201745,1,0,3:0:0:0:
38,90,201828,1,8,0:2:0:0:
262,262,201995,1,0,3:0:0:0:
26,327,202162,1,0,3:0:0:0:
270,102,202328,2,0,B|338:27|441:45|441:45|477:101|420:169,1,276.249987354279,0|0,3:2|0:0,0:0:0:0:
494,194,202828,5,4,3:2:0:0:
494,194,202995,1,0,3:0:0:0:
206,375,203162,2,0,P|175:313|168:225,1,110.499994941712,8|0,0:0|0:0,0:0:0:0:
494,190,203495,5,0,3:0:0:0:
494,190,203662,1,0,3:0:0:0:
206,9,203829,2,0,P|175:71|168:159,1,110.499994941712,8|0,0:0|0:0,0:0:0:0:
366,234,204162,5,0,3:1:0:0:
84,183,204328,1,0,3:0:0:0:
65,175,204412,1,0,3:0:0:0:
44,165,204495,1,8,0:1:0:0:
323,373,204662,1,0,3:0:0:0:
251,37,204828,5,2,0:3:0:0:
166,305,204995,1,4,0:3:0:0:
157,332,205078,1,4,0:3:0:0:
148,363,205162,1,8,0:3:0:0:
379,152,205328,1,8,0:3:0:0:
47,96,205495,5,12,3:2:0:0:
299,350,205662,1,0,3:0:0:0:
181,18,205828,5,8,3:2:0:0:
416,234,205995,1,0,3:0:0:0:
43,268,206162,5,8,3:2:0:0:
43,268,206245,1,0,3:0:0:0:
43,268,206328,1,0,3:0:0:0:
367,33,206495,5,8,3:2:0:0:
276,335,206661,1,0,3:0:0:0:
35,105,206828,1,8,3:2:0:0:
378,338,208162,6,0,P|399:298|410:259,1,85,4|0,3:2|0:0,0:0:0:0:
302,117,208495,1,8,0:0:0:0:
225,224,208662,2,0,P|266:237|308:243,1,85,0|0,0:0|3:0,0:0:0:0:
486,200,208995,1,0,3:0:0:0:
377,359,209162,1,8,0:0:0:0:
405,166,209328,6,0,P|391:125|383:84,1,85,0|0,0:0|3:0,0:0:0:0:
245,0,209662,2,0,P|237:41|223:81,1,85,0|8,0:0|0:0,0:0:0:0:
97,212,209995,1,0,3:0:0:0:
302,152,210162,1,0,0:0:0:0:
152,47,210328,1,0,3:0:0:0:
152,47,210412,1,0,3:0:0:0:
152,47,210495,1,8,0:0:0:0:
207,193,210662,1,0,3:0:0:0:
95,356,210828,6,0,P|68:293|60:244,1,85,0|0,3:0|0:0,0:0:0:0:
99,111,211162,1,8,0:0:0:0:
230,300,211328,2,0,P|286:286|329:265,1,85,0|0,0:0|3:0,0:0:0:0:
122,199,211662,1,0,3:0:0:0:
303,364,211828,1,8,0:0:0:0:
277,132,211995,6,0,P|249:164|223:206,1,85,0|0,0:2|3:0,0:0:0:0:
98,95,212328,2,0,P|125:62|152:21,1,85,0|8,0:0|0:0,0:0:0:0:
398,127,212662,2,0,P|316:103|245:57,1,170,0|0,3:0|3:0,0:0:0:0:
239,40,213078,1,0,3:0:0:0:
242,21,213162,1,8,0:0:0:0:
468,47,213328,1,0,3:0:0:0:
321,162,213495,6,0,P|306:206|299:280,1,85,4|0,3:1|0:0,0:0:0:0:
382,383,213828,1,8,0:0:0:0:
501,294,213995,2,0,P|459:287|419:272,1,85,0|0,0:0|3:0,0:0:0:0:
240,192,214328,1,0,3:0:0:0:
262,330,214495,1,8,0:0:0:0:
132,330,214662,6,0,P|74:284|35:266,1,85,0|0,0:2|3:0,0:0:0:0:
90,96,214995,2,0,P|148:142|187:160,1,85,0|8,0:0|0:0,0:0:0:0:
306,319,215328,1,0,3:0:0:0:
284,283,215412,1,0,3:0:0:0:
241,269,215495,1,4,3:1:0:0:
207,365,215662,1,0,3:0:0:0:
398,299,215828,1,8,0:0:0:0:
398,299,215995,1,0,0:0:0:0:
394,92,216162,6,0,P|335:132|358:199,1,152.999995330811,4|0,3:2|0:0,0:0:0:0:
308,272,216495,2,0,P|271:260|227:268,1,50.9999984436036,8|0,0:0|0:0,0:0:0:0:
228,339,216662,2,0,P|193:356|167:393,1,50.9999984436036,4|0,0:3|0:0,0:0:0:0:
0,292,216828,2,0,P|75:283|149:261,1,152.999995330811,4|0,3:1|3:0,0:0:0:0:
210,188,217162,2,0,P|226:145|231:74,1,101.999996887207,8|0,3:0|0:0,0:0:0:0:
122,40,217495,5,6,3:2:0:0:
322,154,217662,1,0,3:0:0:0:
356,144,217745,1,0,3:0:0:0:
382,115,217828,1,10,0:1:0:0:
127,139,217995,2,0,P|78:183|15:277,1,170,4|2,3:1|0:3,0:0:0:0:
23,287,218412,1,2,0:3:0:0:
42,302,218495,1,4,0:3:0:0:
204,359,218662,1,8,0:3:0:0:
159,204,218828,6,0,P|137:157|124:99,1,85,4|0,3:2|0:0,0:0:0:0:
171,16,219162,1,8,0:0:0:0:
321,165,219328,2,0,P|254:152|211:147,1,85,0|0,0:0|3:0,0:0:0:0:
50,176,219662,1,0,3:0:0:0:
216,275,219828,1,8,0:0:0:0:
270,71,219995,6,0,P|307:27|355:-5,1,85,0|0,3:0|0:0,0:0:0:0:
459,142,220328,2,0,P|432:175|400:202,1,85,0|8,3:0|0:0,0:0:0:0:
155,178,220662,1,0,0:0:0:0:
344,128,220828,1,0,3:0:0:0:
303,256,220995,1,0,3:0:0:0:
297,284,221078,1,0,3:0:0:0:
292,311,221162,1,8,0:0:0:0:
233,103,221328,1,0,0:0:0:0:
416,283,221495,6,0,P|481:266|522:243,1,85,0|0,3:0|0:0,0:0:0:0:
349,169,221828,1,8,0:0:0:0:
284,342,221995,2,0,P|292:300|312:263,1,85,0|0,0:0|3:0,0:0:0:0:
173,354,222328,1,0,3:0:0:0:
64,239,222495,1,8,0:0:0:0:
244,209,222662,6,0,P|205:227|171:253,1,85,0|0,3:0|0:0,0:0:0:0:
79,121,222995,2,0,P|117:103|151:77,1,85,0|8,3:0|0:0,0:0:0:0:
423,170,223328,2,0,P|342:147|273:99,1,170,0|0,0:0|3:0,0:0:0:0:
268,75,223745,1,0,3:0:0:0:
272,49,223828,1,8,0:0:0:0:
464,41,223995,1,0,0:0:0:0:
335,174,224162,6,0,P|318:213|307:255,1,85,4|0,3:2|0:0,0:0:0:0:
371,329,224495,1,8,0:0:0:0:
138,249,224662,2,0,P|172:225|213:211,1,85,0|0,0:0|3:0,0:0:0:0:
211,353,224995,1,0,3:0:0:0:
211,353,225078,1,0,3:0:0:0:
211,353,225162,1,8,0:0:0:0:
51,269,225328,6,0,P|30:233|21:182,1,85,0|0,0:2|3:0,0:0:0:0:
212,104,225662,2,0,P|233:140|241:182,1,85,0|8,3:0|0:0,0:0:0:0:
57,88,225995,1,0,3:0:0:0:
41,61,226078,1,0,3:0:0:0:
43,31,226162,1,0,3:0:0:0:
134,187,226328,1,0,3:0:0:0:
272,39,226495,1,8,0:2:0:0:
307,27,226578,1,8,0:0:0:0:
344,24,226662,1,4,0:3:0:0:
380,35,226745,1,4,0:3:0:0:
412,53,226828,5,4,3:2:0:0:
412,53,226995,1,0,3:0:0:0:
469,278,227162,1,8,3:2:0:0:
285,180,227328,2,0,P|339:175|391:156,1,110.499994941712,4|0,0:1|0:0,0:0:0:0:
438,87,227579,1,0,3:0:0:0:
438,87,227662,1,2,0:3:0:0:
339,292,227828,1,4,0:3:0:0:
201,152,227995,1,8,0:3:0:0:
352,127,228162,5,4,3:2:0:0:
243,332,228328,1,0,3:0:0:0:
243,332,228412,1,0,3:0:0:0:
243,332,228495,1,8,3:2:0:0:
161,67,228662,2,0,P|213:132|244:209,1,165.749992412568,4|0,0:1|0:0,0:0:0:0:
307,268,228995,2,0,P|332:254|357:244,1,55.2499974708558,2|0,0:3|0:0,0:0:0:0:
143,349,229162,1,2,0:3:0:0:
125,356,229245,1,2,0:3:0:0:
104,355,229328,1,8,0:3:0:0:
41,182,229495,5,8,3:2:0:0:
315,372,229662,1,8,3:2:0:0:
315,372,229828,1,0,3:0:0:0:
143,79,229995,5,8,3:2:0:0:
194,384,230162,1,8,3:2:0:0:
194,384,230328,1,0,3:0:0:0:
360,137,230495,5,0,3:0:0:0:
3,345,230662,1,4,0:3:0:0:
177,238,230828,1,2,0:2:0:0:
26,52,231495,5,2,0:1:0:0:
