osu file format v14

[General]
AudioFilename: audio.mp3
AudioLeadIn: 0
PreviewTime: 68601
Countdown: 0
SampleSet: Soft
StackLeniency: 0.7
Mode: 0
LetterboxInBreaks: 0
WidescreenStoryboard: 0

[Editor]
Bookmarks: 27731
DistanceSpacing: 0.8
BeatDivisor: 4
GridSize: 4
TimelineZoom: 1

[Metadata]
Title:DOA
TitleUnicode:DOA
Artist:AIMEE BLACKSCHLEGER
ArtistUnicode:AIMEE BLACKSCHLEGER
Creator:Janpai
Version:Hard
Source:進撃の巨人
Tags:Shingeki no Kyojin Attack on Titan Original Soundtrack OST Season 1 Episode 7 Insert Song BGM Background Music 澤野弘之 Sawano Hiroyuki mpi
BeatmapID:1211509
BeatmapSetID:571148

[Difficulty]
HPDrainRate:5
CircleSize:3.8
OverallDifficulty:6
ApproachRate:7
SliderMultiplier:1.5
SliderTickRate:1

[Events]
//Background and Video events
0,0,"BG.jpg",0,0
//Break Periods
2,98149,103788
//Storyboard Layer 0 (Background)
//Storyboard Layer 1 (Fail)
//Storyboard Layer 2 (Pass)
//Storyboard Layer 3 (Foreground)
//Storyboard Sound Samples

[TimingPoints]
558,434.782608695652,4,2,1,60,1,0
28384,-125,4,2,1,50,0,0
42297,-100,4,2,1,60,0,0
56210,-125,4,2,1,50,0,0
69253,-125,4,2,1,60,0,0
70123,-100,4,2,1,70,0,1
83384,-100,4,2,1,70,0,0
84036,-100,4,2,1,70,0,1
97949,-125,4,2,1,50,0,0
110992,-100,4,2,1,60,0,0
118818,-125,4,2,1,50,0,0

[Colours]
Combo1 : 186,158,145
Combo2 : 220,139,31
Combo3 : 175,78,61
Combo4 : 238,176,139

[HitObjects]
84,338,27514,5,2,0:0:0:0:
27,270,27731,1,8,0:0:0:0:
92,208,27949,2,0,L|86:141,2,37.5,8|8|4,0:0|0:0|0:3,0:0:0:0:
153,273,28384,6,0,L|288:258,1,120,6|2,0:0|0:0,0:0:0:0:
351,286,29036,1,0,0:0:0:0:
420,239,29253,2,0,P|433:208|422:164,1,60,2|0,0:0|0:0,0:0:0:0:
373,120,29688,2,0,L|297:113,1,60,2|0,0:0|0:0,0:0:0:0:
229,102,30123,6,0,P|234:62|222:25,1,60,2|0,0:0|0:0,0:0:0:0:
155,4,30557,1,2,0:0:0:0:
90,54,30775,2,0,L|102:180,1,120,0|0,0:0|0:0,0:0:0:0:
105,257,31427,2,0,L|27:251,1,60,2|0,0:0|0:0,0:0:0:0:
36,336,31862,6,0,L|178:348,1,120,2|2,0:0|0:0,0:0:0:0:
228,304,32514,1,0,0:0:0:0:
174,239,32731,1,2,0:0:0:0:
174,239,32949,2,0,P|157:199|156:162,1,60,0|2,0:0|0:0,0:0:0:0:
119,106,33384,6,0,B|181:84|181:124|247:102,1,120,0|0,0:0|0:0,0:0:0:0:
303,53,34036,2,0,P|338:44|386:57,1,60,2|0,0:0|0:0,0:0:0:0:
433,89,34471,2,0,L|423:199,1,90,2|0,0:0|0:0,0:0:0:0:
417,219,34905,2,0,P|384:212|347:217,1,60,2|0,0:0|0:0,0:0:0:0:
300,275,35340,6,0,P|259:301|173:281,1,120,6|2,0:0|0:0,0:0:0:0:
127,237,35992,1,2,0:3:0:0:
182,173,36210,2,0,L|189:125,2,30,2|0|2,0:0|0:0|0:3,0:0:0:0:
99,158,36644,2,0,L|92:110,2,30,2|0|2,0:0|0:0|0:3,0:0:0:0:
38,216,37079,6,0,P|20:248|39:339,1,120,2|2,0:0|0:0,0:0:0:0:
107,362,37731,1,2,0:3:0:0:
177,316,37949,2,0,P|229:294|302:316,1,120,2|2,0:0|0:0,0:0:0:0:
356,357,38601,1,2,0:3:0:0:
428,315,38818,6,0,B|448:270|448:270|428:187,1,120,2|2,0:0|0:0,0:0:0:0:
363,151,39471,1,2,0:3:0:0:
289,190,39688,2,0,L|261:207,2,30,2|0|2,0:0|0:0|0:3,0:0:0:0:
293,105,40123,2,0,L|265:88,2,30,2|0|2,0:0|0:0|0:3,0:0:0:0:
361,56,40557,6,0,L|480:43,1,120,2|2,0:0|0:0,0:0:0:0:
480,42,41210,1,2,0:3:0:0:
467,124,41427,1,2,0:0:0:0:
467,124,41644,1,4,0:3:0:0:
402,178,41862,2,0,P|373:189|318:177,1,60,8|2,0:0|0:3,0:0:0:0:
243,169,42297,6,0,L|143:165,1,75,6|2,0:0|0:3,0:0:0:0:
78,168,42731,2,0,P|60:135|59:97,1,75,8|2,0:0|0:3,0:0:0:0:
141,61,43166,2,0,P|109:19|42:8,2,112.5,2|0|2,0:0|0:0|0:3,0:0:0:0:
201,128,44036,6,0,P|241:136|289:123,1,75,2|2,0:0|0:3,0:0:0:0:
354,89,44471,2,0,P|394:81|442:94,1,75,8|2,0:0|0:3,0:0:0:0:
508,125,44905,2,0,P|501:70|481:-5,2,112.5,2|0|2,0:0|0:0|0:3,0:0:0:0:
486,212,45775,6,0,P|448:190|344:236,1,150,2|8,0:0|0:0,0:0:0:0:
304,296,46427,2,0,B|259:308|259:308|212:292|212:292|136:308,1,150,2|2,0:3|0:3,0:0:0:0:
75,336,47079,2,0,P|66:300|56:249,1,75,8|2,0:0|0:3,0:0:0:0:
75,174,47514,5,2,0:0:0:0:
158,207,47731,1,2,0:3:0:0:
225,147,47949,2,0,P|264:141|304:156,1,75,8|2,0:0|0:3,0:0:0:0:
366,210,48384,2,0,L|462:199,1,75,2|2,0:0|0:3,0:0:0:0:
455,112,48818,2,0,L|380:120,1,75,8|2,0:0|0:3,0:0:0:0:
297,151,49253,6,0,P|271:118|299:10,1,150,6|8,0:0|0:0,0:0:0:0:
356,78,49905,1,2,0:3:0:0:
373,166,50123,2,0,P|364:189|344:214,2,37.5,2|0|2,0:0|0:0|0:3,0:0:0:0:
454,127,50557,2,0,P|463:104|483:79,2,37.5,8|0|2,0:0|0:0|0:3,0:0:0:0:
481,213,50992,5,2,0:0:0:0:
439,293,51210,2,0,P|398:306|351:295,1,75,2|8,0:3|0:0,0:0:0:0:
285,264,51644,1,2,0:3:0:0:
213,208,51862,1,2,0:0:0:0:
213,208,52079,2,0,P|189:250|167:296,1,75,2|8,0:3|0:0,0:0:0:0:
206,359,52514,1,2,0:3:0:0:
299,360,52731,5,2,0:0:0:0:
366,301,52949,2,0,L|359:257,2,37.5,2|0|8,0:3|0:0|0:0,0:0:0:0:
437,356,53384,1,2,0:3:0:0:
504,296,53601,2,0,L|511:252,2,37.5,2|0|2,0:0|0:0|0:3,0:0:0:0:
436,235,54036,1,8,0:0:0:0:
496,168,54253,1,2,0:3:0:0:
428,108,54471,6,0,L|433:61,2,37.5,2|0|2,0:0|0:0|0:3,0:0:0:0:
352,156,54905,2,0,P|298:156|262:137,1,75,8|0,0:0|0:0,0:0:0:0:
212,87,55340,1,2,0:0:0:0:
212,87,55557,1,4,0:3:0:0:
129,123,55775,1,8,0:3:0:0:
129,123,55992,1,4,0:3:0:0:
39,110,56210,6,0,L|43:173,1,60,6|0,0:0|0:0,0:0:0:0:
15,255,56644,2,0,L|19:318,1,60,2|0,0:0|0:0,0:0:0:0:
94,360,57079,1,2,0:0:0:0:
161,310,57297,2,0,L|151:265,2,30,0|0|2,0:0|0:0|0:0,0:0:0:0:
230,356,57731,1,0,0:0:0:0:
300,310,57949,5,2,0:0:0:0:
269,231,58166,1,0,0:0:0:0:
269,231,58384,2,0,P|234:222|192:234,1,60,2|0,0:0|0:0,0:0:0:0:
133,258,58818,2,0,P|146:308|158:369,2,90,2|0|0,0:0|0:0|0:0,0:0:0:0:
57,221,59688,5,2,0:0:0:0:
13,149,59905,1,0,0:0:0:0:
13,149,60014,1,0,0:0:0:0:
13,149,60123,2,0,P|53:136|80:141,1,60,2|0,0:0|0:0,0:0:0:0:
151,118,60557,2,0,L|141:47,2,60,2|0|2,0:0|0:0|0:0,0:0:0:0:
224,160,61210,1,0,0:0:0:0:
271,91,61427,6,0,L|358:81,1,60,2|0,0:0|0:0,0:0:0:0:
372,157,61862,2,0,L|312:163,1,60,2|0,0:0|0:0,0:0:0:0:
260,229,62297,2,0,P|247:285|275:347,1,120,2|2,0:0|0:0,0:0:0:0:
359,376,62949,1,0,0:0:0:0:
359,376,63057,1,0,0:0:0:0:
359,376,63166,5,6,0:0:0:0:
427,319,63384,1,0,0:0:0:0:
427,319,63601,2,0,P|438:286|456:247,1,60,2|0,0:0|0:0,0:0:0:0:
459,179,64036,2,0,P|418:181|358:136,1,120,2|2,0:0|0:0,0:0:0:0:
322,58,64688,1,0,0:0:0:0:
322,58,64797,1,0,0:0:0:0:
322,58,64905,5,2,0:0:0:0:
247,97,65123,1,0,0:0:0:0:
247,97,65340,2,0,P|208:96|172:89,1,60,2|0,0:0|0:0,0:0:0:0:
123,37,65775,2,0,P|67:41|16:94,1,120,2|2,0:0|0:0,0:0:0:0:
12,172,66427,1,0,0:0:0:0:
12,172,66536,1,0,0:0:0:0:
12,172,66644,6,0,L|24:250,1,60,2|0,0:0|0:0,0:0:0:0:
63,303,67079,1,2,0:0:0:0:
137,252,67297,1,0,0:0:0:0:
137,252,67405,1,0,0:0:0:0:
137,252,67514,2,0,P|175:242|218:254,1,60,2|0,0:0|0:0,0:0:0:0:
234,259,67840,1,0,0:0:0:0:
234,259,67949,1,2,0:0:0:0:
306,217,68166,2,0,L|310:145,1,60,0|2,0:0|0:0,0:0:0:0:
317,73,68601,6,0,P|358:54|443:86,1,120,0|0,0:0|0:0,0:0:0:0:
494,122,69253,1,8,0:0:0:0:
475,204,69471,2,0,L|481:252,1,30,2|8,0:0|0:0,0:0:0:0:
394,240,69797,2,0,L|388:192,1,30,8|8,0:0|0:0,0:0:0:0:
340,135,70123,6,0,P|298:126|247:145,1,75,6|2,0:0|0:3,0:0:0:0:
192,182,70557,1,8,0:0:0:0:
242,257,70775,2,0,L|255:330,1,75,2|2,0:3|0:0,0:0:0:0:
343,357,71210,2,0,P|379:348|416:343,1,75,2|8,0:3|0:0,0:0:0:0:
498,305,71644,1,2,0:3:0:0:
509,215,71862,6,0,P|500:170|476:141,1,75,2|2,0:0|0:3,0:0:0:0:
399,113,72297,1,8,0:0:0:0:
333,174,72514,1,2,0:3:0:0:
261,119,72731,2,0,P|220:99|146:119,1,112.5,2|0,0:0|0:0,0:0:0:0:
117,133,73166,2,0,L|100:54,1,75,8|2,0:0|0:3,0:0:0:0:
25,108,73601,6,0,L|42:187,1,75,6|2,0:0|0:3,0:0:0:0:
40,271,74036,1,8,0:0:0:0:
127,291,74253,2,0,P|166:279|221:270,1,75,2|2,0:3|0:0,0:0:0:0:
270,219,74688,2,0,L|252:134,1,75,2|8,0:3|0:0,0:0:0:0:
188,84,75123,1,2,0:3:0:0:
259,29,75340,5,2,0:0:0:0:
334,78,75557,2,0,P|373:84|429:67,1,75,2|8,0:3|0:0,0:0:0:0:
496,59,75992,1,2,0:3:0:0:
499,149,76210,2,0,P|499:193|440:241,1,112.5,2|0,0:0|0:0,0:0:0:0:
409,231,76644,2,0,P|372:219|323:213,1,75,8|2,0:0|0:3,0:0:0:0:
254,252,77079,6,0,P|242:289|236:338,1,75,6|2,0:0|0:3,0:0:0:0:
156,365,77514,1,8,0:0:0:0:
67,348,77731,2,0,L|53:274,1,75,2|2,0:3|0:0,0:0:0:0:
100,198,78166,2,0,L|82:103,1,75,2|8,0:3|0:0,0:0:0:0:
31,52,78601,1,2,0:3:0:0:
116,23,78818,6,0,L|203:32,1,75,2|2,0:0|0:3,0:0:0:0:
253,95,79253,1,8,0:0:0:0:
327,44,79471,1,2,0:3:0:0:
391,106,79688,2,0,P|402:145|419:216,1,112.5,2|0,0:0|0:0,0:0:0:0:
429,258,80123,2,0,P|384:250|342:268,1,75,8|2,0:0|0:3,0:0:0:0:
282,308,80557,6,0,B|237:321|237:321|107:299,1,150,6|8,0:0|0:0,0:0:0:0:
54,263,81210,2,0,P|42:224|118:142,1,150,2|2,0:3|0:3,0:0:0:0:
189,119,81862,2,0,L|267:110,1,75,8|2,0:0|0:3,0:0:0:0:
343,69,82297,6,0,P|383:52|428:56,1,75,2|2,0:0|0:3,0:0:0:0:
484,107,82731,1,8,0:0:0:0:
484,107,82949,1,8,0:0:0:0:
448,189,83166,1,4,0:3:0:0:
361,162,83384,1,4,0:3:0:0:
361,162,83492,1,8,0:0:0:0:
361,162,83601,2,0,L|349:217,2,37.5,8|4|4,0:0|0:3|0:3,0:0:0:0:
331,76,84036,6,0,P|297:44|177:72,1,150,6|8,0:0|0:0,0:0:0:0:
151,127,84688,2,0,B|127:203|187:203|151:291,1,150,2|2,0:3|0:3,0:0:0:0:
108,349,85340,2,0,P|63:352|24:321,1,75,8|2,0:0|0:3,0:0:0:0:
2,254,85775,5,2,0:0:0:0:
68,193,85992,2,0,P|55:152|39:108,2,75,2|8|2,0:3|0:0|0:3,0:0:0:0:
142,243,86644,1,2,0:0:0:0:
201,174,86862,2,0,P|242:165|287:162,1,75,2|8,0:3|0:0,0:0:0:0:
347,215,87297,1,2,0:3:0:0:
313,298,87514,6,0,P|368:306|436:230,1,150,6|8,0:0|0:0,0:0:0:0:
445,156,88166,2,0,B|398:140|398:140|351:151|351:151|278:134,1,150,2|2,0:3|0:3,0:0:0:0:
233,78,88818,2,0,L|158:88,1,75,8|2,0:0|0:3,0:0:0:0:
80,44,89253,5,2,0:0:0:0:
22,113,89471,2,0,P|10:149|28:204,2,75,2|8|2,0:3|0:0|0:3,0:0:0:0:
102,152,90123,1,2,0:0:0:0:
80,239,90340,2,0,L|96:319,1,75,2|8,0:3|0:0,0:0:0:0:
172,357,90775,1,2,0:3:0:0:
245,305,90992,6,0,B|318:290|318:290|416:303,1,150,6|8,0:0|0:0,0:0:0:0:
476,333,91644,2,0,B|500:283|500:283|477:177,1,150,2|2,0:3|0:3,0:0:0:0:
435,111,92297,2,0,L|338:119,1,75,8|2,0:0|0:3,0:0:0:0:
290,60,92731,6,0,P|255:43|213:41,1,75,2|2,0:0|0:3,0:0:0:0:
135,72,93166,2,0,P|118:107|116:149,1,75,8|2,0:0|0:3,0:0:0:0:
161,219,93601,1,2,0:0:0:0:
243,183,93818,2,0,L|333:176,1,75,2|8,0:3|0:0,0:0:0:0:
383,115,94253,1,2,0:3:0:0:
383,115,94471,5,6,0:0:0:0:
456,167,94688,2,0,L|470:251,1,75,2|8,0:3|0:0,0:0:0:0:
423,319,95123,2,0,P|367:286|287:305,1,150,2|2,0:3|0:3,0:0:0:0:
211,353,95775,2,0,P|174:359|124:339,1,75,8|2,0:0|0:3,0:0:0:0:
59,304,96210,6,0,P|65:254|75:219,1,75,2|2,0:0|0:3,0:0:0:0:
137,169,96644,1,8,0:0:0:0:
205,227,96862,1,2,0:3:0:0:
205,227,96971,1,8,0:0:0:0:
205,227,97079,2,0,L|261:209,3,37.5,8|8|4|4,0:0|0:0|0:3|0:3,0:0:0:0:
285,220,97514,2,0,L|320:231,3,37.5,8|8|4|4,0:3|0:3|0:3|0:3,0:0:0:0:
353,245,97949,5,6,0:0:0:0:
362,325,104688,5,0,0:0:0:0:
362,325,104797,1,0,0:0:0:0:
362,325,104905,1,6,0:0:0:0:
421,265,105123,1,0,0:0:0:0:
352,216,105340,2,0,P|346:185|356:152,1,60,2|0,0:0|0:0,0:0:0:0:
374,76,105775,2,0,L|301:65,1,60,2|0,0:0|0:0,0:0:0:0:
239,28,106210,1,2,0:0:0:0:
167,82,106427,1,0,0:0:0:0:
167,82,106536,1,0,0:0:0:0:
167,82,106644,5,2,0:0:0:0:
91,32,106862,1,0,0:0:0:0:
38,96,107079,2,0,L|31:166,1,60,2|0,0:0|0:0,0:0:0:0:
87,218,107514,2,0,P|147:194|211:225,1,120,2|2,0:0|0:0,0:0:0:0:
264,271,108166,1,0,0:0:0:0:
264,271,108275,1,0,0:0:0:0:
264,271,108384,5,2,0:0:0:0:
194,318,108601,1,0,0:0:0:0:
267,360,108818,2,0,L|336:357,1,60,2|0,0:0|0:0,0:0:0:0:
369,355,109144,1,0,0:0:0:0:
369,355,109253,2,0,P|364:302|351:246,2,90,2|0|0,0:0|0:0|0:0,0:0:0:0:
452,348,110123,6,0,P|449:298|442:267,1,60,2|0,0:0|0:0,0:0:0:0:
427,207,110557,2,0,P|430:157|437:126,1,60,2|0,0:0|0:0,0:0:0:0:
389,67,110992,2,0,P|439:56|507:102,2,112.5,8|8|8,0:0|0:0|0:0,0:0:0:0:
324,129,111862,6,0,L|174:121,1,150,6|8,0:0|0:0,0:0:0:0:
90,154,112514,1,2,0:3:0:0:
21,95,112731,2,0,L|24:56,2,37.5,2|0|2,0:0|0:0|0:3,0:0:0:0:
5,183,113166,1,8,0:0:0:0:
42,265,113384,6,0,P|92:275|178:210,1,150,2|2,0:3|0:3,0:0:0:0:
216,146,114036,1,8,0:0:0:0:
288,198,114253,2,0,L|283:247,2,37.5,2|0|2,0:3|0:0|0:0,0:0:0:0:
354,137,114688,1,2,0:3:0:0:
434,176,114905,2,0,P|458:210|451:259,1,75,8|2,0:0|0:3,0:0:0:0:
420,324,115340,6,0,B|348:360|348:284|248:340,1,150,2|8,0:0|0:0,0:0:0:0:
192,366,115992,1,2,0:3:0:0:
113,321,116210,2,0,P|98:328|65:336,2,37.5,2|0|2,0:0|0:0|0:3,0:0:0:0:
175,256,116644,1,8,0:0:0:0:
96,212,116862,6,0,P|71:174|107:71,1,150,2|2,0:3|0:3,0:0:0:0:
171,29,117514,2,0,L|270:33,1,75,8|2,0:0|0:3,0:0:0:0:
330,63,117949,2,0,P|337:107|313:156,1,75,2|4,0:0|0:3,0:0:0:0:
264,212,118384,1,8,0:0:0:0:
264,212,118492,1,8,0:0:0:0:
264,212,118601,1,2,0:0:0:0:
177,145,118818,6,0,P|141:126|49:160,1,120,6|2,0:0|0:0,0:0:0:0:
66,310,119688,2,0,P|102:329|194:295,1,120,2|2,0:0|0:0,0:0:0:0:
306,206,120557,2,0,L|314:339,1,120,2|2,0:0|0:0,0:0:0:0:
195,208,121427,2,0,L|187:75,1,120,2|2,0:0|0:0,0:0:0:0:
346,31,122297,6,0,B|362:79|362:79|336:163,1,120,2|2,0:0|0:0,0:0:0:0:
226,268,123166,2,0,B|274:252|274:252|358:278,1,120,2|2,0:0|0:0,0:0:0:0:
256,192,124036,12,2,125775,0:0:0:0:
