osu file format v14

[General]
AudioFilename: audio.mp3
AudioLeadIn: 0
PreviewTime: 51863
Countdown: 0
SampleSet: Soft
StackLeniency: 0.7
Mode: 0
LetterboxInBreaks: 0
EpilepsyWarning: 1
WidescreenStoryboard: 1

[Editor]
Bookmarks: 33063,71863
DistanceSpacing: 1
BeatDivisor: 2
GridSize: 8
TimelineZoom: 3.899998

[Metadata]
Title:Tsuki no Mou Hanbun
TitleUnicode:月のもう半分
Artist:AIKI and AKINO from bless4
ArtistUnicode:AIKI and AKINO from bless4
Creator:Ultima Fox
Version:Normal
Source:魔法使いの嫁
Tags:The Ancient Magus Bride ending ed tv size
BeatmapID:1559680
BeatmapSetID:732906

[Difficulty]
HPDrainRate:3
CircleSize:3
OverallDifficulty:3
ApproachRate:4
SliderMultiplier:0.999999999999999
SliderTickRate:1

[Events]
//Background and Video events
0,0,"e44a990af30a903337e2bd04b0e01c57300d747c_s2_n1.png",0,0
//Break Periods
//Storyboard Layer 0 (Background)
//Storyboard Layer 1 (Fail)
//Storyboard Layer 2 (Pass)
//Storyboard Layer 3 (Foreground)
//Storyboard Sound Samples

[TimingPoints]
1463,400,4,2,1,30,1,0
20663,-100,4,2,2,47,0,0
39863,-100,4,2,1,47,0,0
46263,-100,4,2,2,47,0,0
52663,-100,4,2,3,47,0,0
52863,-100,4,2,2,47,0,0
82263,-100,4,2,1,47,0,0

[Colours]
Combo1 : 151,177,240
Combo2 : 209,230,241
Combo3 : 80,160,226
Combo4 : 149,244,206

[HitObjects]
210,53,1463,6,0,B|309:22|306:87|423:56,2,200,2|0|0,0:0|0:0|0:0,0:0:0:0:
86,138,3663,2,0,L|65:346,1,200,0|0,0:0|0:0,0:0:0:0:
99,373,4663,6,0,P|138:381|201:371,1,99.9999999999999,0|0,0:0|0:0,0:0:0:0:
246,285,5463,2,0,L|234:183,1,99.9999999999999,0|0,0:0|0:0,0:0:0:0:
261,89,6263,2,0,P|313:57|403:85,2,150,0|0|0,0:0|0:0|0:0,0:0:0:0:
210,175,7863,6,0,P|159:195|68:152,1,150,0|0,0:0|0:0,0:0:0:0:
51,115,8663,2,0,L|59:14,1,99.9999999999999,0|0,0:0|0:0,0:0:0:0:
158,5,9463,2,0,L|150:104,1,99.9999999999999,0|0,0:0|0:0,0:0:0:0:
178,145,10063,2,0,P|237:163|294:139,1,99.9999999999999,0|0,0:0|0:0,0:0:0:0:
348,88,10863,6,0,P|404:64|471:83,1,99.9999999999999,0|0,0:0|0:0,0:0:0:0:
488,85,11463,2,0,B|448:186|517:186|478:290,1,200,0|0,0:0|0:0,0:0:0:0:
427,365,12663,1,0,0:0:0:0:
299,213,13463,2,0,P|250:197|193:209,1,99.9999999999999,0|0,0:0|0:0,0:0:0:0:
172,243,14063,6,0,P|128:269|27:247,1,150,0|0,0:0|0:0,0:0:0:0:
0,159,15063,2,0,L|12:53,1,99.9999999999999,0|0,0:0|0:0,0:0:0:0:
99,11,15863,1,0,0:0:0:0:
175,75,16263,1,0,0:0:0:0:
261,24,16663,6,0,L|396:18,1,99.9999999999999,0|0,0:0|0:0,0:0:0:0:
407,38,17263,2,0,P|437:102|410:186,1,150,0|0,0:0|0:0,0:0:0:0:
318,164,18263,2,0,P|299:111|321:46,1,99.9999999999999,0|0,0:0|0:0,0:0:0:0:
394,20,19063,5,6,0:0:0:0:
508,163,20663,6,0,L|386:173,1,99.9999999999999,2|0,0:0|0:0,0:0:0:0:
364,195,21263,2,0,P|315:162|202:188,1,150,0|0,0:0|0:0,0:0:0:0:
148,230,22263,2,0,L|160:381,2,150,0|0|0,0:0|0:0|0:0,0:0:0:0:
108,199,23663,6,0,L|119:79,1,99.9999999999999,0|0,0:0|0:0,0:0:0:0:
158,72,24263,1,0,0:0:0:0:
230,141,24663,2,0,P|288:146|343:126,1,99.9999999999999,0|0,0:0|0:0,0:0:0:0:
395,60,25463,1,0,0:0:0:0:
457,137,25863,2,0,L|449:254,2,99.9999999999999,0|0|0,0:0|0:0|0:0,0:0:0:0:
395,60,27063,6,0,B|296:34|295:107|181:73,1,200,2|0,0:0|0:0,0:0:0:0:
119,18,28263,1,0,0:0:0:0:
67,103,28663,2,0,L|88:302,1,200,0|0,0:0|0:0,0:0:0:0:
157,373,29863,1,0,0:0:0:0:
228,303,30263,6,0,P|296:287|346:308,1,99.9999999999999,2|0,0:0|0:0,0:0:0:0:
354,334,30863,2,0,P|422:350|472:329,1,99.9999999999999,0|0,0:0|0:0,0:0:0:0:
486,308,31463,2,0,P|492:213|475:104,1,200,0|0,0:0|0:0,0:0:0:0:
393,52,32663,1,0,0:0:0:0:
325,125,33063,1,0,0:0:0:0:
241,69,33463,6,0,B|188:44|141:62|141:62|94:100|43:82,2,200,2|0|0,0:0|0:0|0:0,0:0:0:0:
325,125,35463,1,0,0:0:0:0:
242,181,35863,2,0,L|253:291,1,99.9999999999999,0|0,0:0|0:0,0:0:0:0:
180,350,36663,6,0,P|126:366|69:348,1,99.9999999999999,2|0,0:0|0:0,0:0:0:0:
50,319,37263,2,0,L|42:204,1,99.9999999999999,0|0,0:0|0:0,0:0:0:0:
74,180,37863,2,0,B|172:154|171:228|283:201,1,200,0|0,0:0|0:0,0:0:0:0:
355,155,39063,2,0,L|362:31,1,99.9999999999999,0|0,0:0|0:0,0:0:0:0:
267,15,39863,6,0,P|198:4|130:52,2,150,0|0|0,0:0|0:0|0:0,0:0:0:0:
217,105,41463,2,0,L|211:220,1,99.9999999999999,0|0,0:0|0:0,0:0:0:0:
294,261,42263,1,0,0:0:0:0:
461,151,43063,6,0,P|471:75|444:3,2,150,0|0|0,0:0|0:0|0:0,0:0:0:0:
380,210,44663,2,0,P|320:190|195:251,1,200,2|0,0:0|0:0,0:0:0:0:
146,326,45863,1,0,0:0:0:0:
63,269,46263,6,0,P|55:216|68:151,1,99.9999999999999,0|0,0:0|0:0,0:0:0:0:
107,151,46863,2,0,L|219:154,1,99.9999999999999,0|0,0:0|0:0,0:0:0:0:
244,187,47463,1,0,0:0:0:0:
319,121,47863,6,0,L|306:12,1,99.9999999999999,0|0,0:0|0:0,0:0:0:0:
406,34,48663,2,0,L|417:133,1,99.9999999999999,0|0,0:0|0:0,0:0:0:0:
355,211,49463,2,0,P|297:218|223:144,2,150,0|0|0,0:0|0:0|0:0,0:0:0:0:
132,232,51863,6,0,L|-2:229,1,99.9999999999999,0|0,0:0|0:0,0:0:0:0:
80,142,52663,6,0,L|203:136,1,99.9999999999999,6|0,0:0|0:0,0:0:0:0:
225,157,53263,2,0,P|248:210|236:277,1,99.9999999999999,0|0,0:0|0:0,0:0:0:0:
210,286,53863,1,0,0:0:0:0:
283,353,54263,6,0,L|399:356,1,99.9999999999999,0|0,0:0|0:0,0:0:0:0:
460,293,55063,1,0,0:0:0:0:
391,220,55463,1,0,0:0:0:0:
457,145,55863,6,0,L|460:45,1,99.9999999999999,2|0,0:0|0:0,0:0:0:0:
421,12,56463,1,0,0:0:0:0:
421,12,56663,2,0,P|370:0|316:19,1,99.9999999999999,0|0,0:0|0:0,0:0:0:0:
249,78,57463,6,0,P|196:87|140:69,2,99.9999999999999,0|0|0,0:0|0:0|0:0,0:0:0:0:
325,12,58663,1,0,0:0:0:0:
392,85,59063,6,0,L|387:226,1,99.9999999999999,2|0,0:0|0:0,0:0:0:0:
353,221,59663,2,0,P|281:244|206:201,1,150,0|0,0:0|0:0,0:0:0:0:
167,127,60663,2,0,L|173:19,1,99.9999999999999,0|0,0:0|0:0,0:0:0:0:
75,53,61463,6,0,L|69:152,1,99.9999999999999,0|0,0:0|0:0,0:0:0:0:
95,195,62063,2,0,P|143:223|221:203,1,99.9999999999999,4|0,0:0|0:0,0:0:0:0:
224,189,62663,1,4,0:0:0:0:
313,233,63063,6,0,L|307:409,2,150,2|2|0,0:0|0:0|0:0,0:0:0:0:
396,177,64663,2,0,L|384:60,1,99.9999999999999,0|0,0:0|0:0,0:0:0:0:
301,24,65463,6,0,P|248:12|180:39,1,99.9999999999999,4|0,0:0|0:0,0:0:0:0:
172,61,66063,2,0,L|166:174,1,99.9999999999999,0|0,0:0|0:0,0:0:0:0:
131,195,66663,1,0,0:0:0:0:
204,262,67063,6,0,P|254:278|309:265,1,99.9999999999999,0|0,0:0|0:0,0:0:0:0:
357,187,67863,1,0,0:0:0:0:
292,110,68263,1,0,0:0:0:0:
360,37,68663,6,0,L|475:33,1,99.9999999999999,2|0,0:0|0:0,0:0:0:0:
499,64,69263,1,0,0:0:0:0:
499,64,69463,2,0,P|511:113|495:180,1,99.9999999999999,0|0,0:0|0:0,0:0:0:0:
426,225,70263,6,0,L|326:213,1,99.9999999999999,0|0,0:0|0:0,0:0:0:0:
289,120,71063,2,0,L|189:132,1,99.9999999999999,0|0,0:0|0:0,0:0:0:0:
119,202,71863,6,0,P|109:259|124:316,2,99.9999999999999,0|0|0,0:0|0:0|0:0,0:0:0:0:
189,131,73063,1,0,0:0:0:0:
259,202,73463,2,0,P|309:227|430:162,1,200,0|0,0:0|0:0,0:0:0:0:
416,67,74663,1,0,0:0:0:0:
324,26,75063,6,0,L|212:37,1,99.9999999999999,0|0,0:0|0:0,0:0:0:0:
158,110,75863,2,0,L|46:99,2,99.9999999999999,0|0|0,0:0|0:0|0:0,0:0:0:0:
216,191,77063,1,0,0:0:0:0:
302,141,77463,6,0,L|410:132,1,99.9999999999999,0|0,0:0|0:0,0:0:0:0:
446,154,78063,2,0,P|469:207|438:306,1,150,0|0,0:0|0:0,0:0:0:0:
356,334,79063,1,0,0:0:0:0:
282,266,79463,1,0,0:0:0:0:
207,332,79863,6,0,B|109:305|108:374|-4:342,1,200,0|0,0:0|0:0,0:0:0:0:
52,254,81063,1,0,0:0:0:0:
2,166,81463,6,0,P|63:154|150:261,2,200,0|0|0,0:0|0:0|0:0,0:0:0:0:
