osu file format v14

[General]
AudioFilename: audio.mp3
AudioLeadIn: 0
PreviewTime: -1
Countdown: 1
SampleSet: None
StackLeniency: 0.7
Mode: 3
LetterboxInBreaks: 0
SpecialStyle: 0
WidescreenStoryboard: 0

[Editor]
DistanceSpacing: 1.8
BeatDivisor: 4
GridSize: 4
TimelineZoom: 1

[Metadata]
Title:Tsuki no Mou Hanbun
TitleUnicode:Tsuki no Mou Hanbun
Artist:AIKI and AKINO from bless4
ArtistUnicode:AIKI and AKINO from bless4
Creator:Tamamusa
Version:Mahou
Source:魔法使いの嫁
Tags:mahoutsukai no yome the ancient magus bride chise hatori elias aiki akino from bless4
BeatmapID:1555425
BeatmapSetID:737028

[Difficulty]
HPDrainRate:5
CircleSize:4
OverallDifficulty:5
ApproachRate:5
SliderMultiplier:1.4
SliderTickRate:1

[Events]
//Background and Video events
0,0,"Mahou.Tsukai.no.Yome.full.2184662.jpg",0,0
//Break Periods
2,235211,243011
//Storyboard Layer 0 (Background)
//Storyboard Layer 1 (Fail)
//Storyboard Layer 2 (Pass)
//Storyboard Layer 3 (Foreground)
//Storyboard Sound Samples

[TimingPoints]
1411,400,4,1,1,20,1,0

[HitObjects]
448,192,1411,5,0,0:0:0:0:
320,192,1611,1,0,0:0:0:0:
448,192,1811,1,0,0:0:0:0:
192,192,2011,1,0,0:0:0:0:
320,192,2211,1,0,0:0:0:0:
64,192,2411,1,0,0:0:0:0:
448,192,2611,1,0,0:0:0:0:
192,192,2811,1,0,0:0:0:0:
320,192,3011,1,0,0:0:0:0:
192,192,3211,1,0,0:0:0:0:
448,192,3411,1,0,0:0:0:0:
192,192,3611,1,0,0:0:0:0:
64,192,3811,1,0,0:0:0:0:
320,192,4011,1,0,0:0:0:0:
448,192,4211,1,0,0:0:0:0:
320,192,4411,1,0,0:0:0:0:
64,192,4611,1,0,0:0:0:0:
320,192,4811,1,0,0:0:0:0:
192,192,5011,1,0,0:0:0:0:
448,192,5211,1,0,0:0:0:0:
64,192,5411,1,0,0:0:0:0:
320,192,5611,1,0,0:0:0:0:
448,192,5811,1,0,0:0:0:0:
192,192,6011,1,0,0:0:0:0:
320,192,6211,1,0,0:0:0:0:
64,192,6411,1,0,0:0:0:0:
448,192,6611,1,0,0:0:0:0:
320,192,6811,1,0,0:0:0:0:
64,192,7011,1,0,0:0:0:0:
448,192,7011,128,0,7811:0:0:0:0:
192,192,7211,1,0,0:0:0:0:
64,192,7411,1,0,0:0:0:0:
320,192,7611,1,0,0:0:0:0:
64,192,7811,1,0,0:0:0:0:
320,192,8011,1,0,0:0:0:0:
192,192,8211,1,0,0:0:0:0:
448,192,8411,1,0,0:0:0:0:
192,192,8611,1,0,0:0:0:0:
64,192,8811,1,0,0:0:0:0:
448,192,9011,1,0,0:0:0:0:
192,192,9211,1,0,0:0:0:0:
448,192,9411,1,0,0:0:0:0:
320,192,9611,1,0,0:0:0:0:
448,192,9811,1,0,0:0:0:0:
64,192,10011,1,0,0:0:0:0:
192,192,10211,1,0,0:0:0:0:
448,192,10411,1,0,0:0:0:0:
192,192,10611,1,0,0:0:0:0:
320,192,10811,1,0,0:0:0:0:
64,192,11011,1,0,0:0:0:0:
320,192,11211,1,0,0:0:0:0:
192,192,11411,1,0,0:0:0:0:
448,192,11611,1,0,0:0:0:0:
64,192,11811,1,0,0:0:0:0:
192,192,12011,1,0,0:0:0:0:
448,192,12211,1,0,0:0:0:0:
320,192,12411,1,0,0:0:0:0:
64,192,12611,1,0,0:0:0:0:
320,192,12811,1,0,0:0:0:0:
192,192,13011,1,0,0:0:0:0:
448,192,13211,1,0,0:0:0:0:
192,192,13411,1,0,0:0:0:0:
448,192,13611,1,0,0:0:0:0:
320,192,13811,1,0,0:0:0:0:
64,192,14011,1,0,0:0:0:0:
192,192,14111,1,0,0:0:0:0:
320,192,14211,1,0,0:0:0:0:
448,192,14211,1,0,0:0:0:0:
192,192,14411,1,0,0:0:0:0:
64,192,14611,1,0,0:0:0:0:
320,192,14811,1,0,0:0:0:0:
448,192,14811,1,0,0:0:0:0:
192,192,15011,1,0,0:0:0:0:
64,192,15011,1,0,0:0:0:0:
320,192,15211,1,0,0:0:0:0:
192,192,15211,1,0,0:0:0:0:
448,192,15411,1,0,0:0:0:0:
320,192,15411,1,0,0:0:0:0:
192,192,15611,1,0,0:0:0:0:
320,192,15811,1,0,0:0:0:0:
64,192,15811,1,0,0:0:0:0:
448,192,16211,1,0,0:0:0:0:
192,192,16211,1,0,0:0:0:0:
448,192,16411,1,0,0:0:0:0:
320,192,16411,1,0,0:0:0:0:
192,192,16611,1,0,0:0:0:0:
448,192,16811,1,0,0:0:0:0:
192,192,17011,1,0,0:0:0:0:
64,192,17211,1,0,0:0:0:0:
320,192,17411,1,0,0:0:0:0:
192,192,17411,1,0,0:0:0:0:
192,192,17611,1,0,0:0:0:0:
320,192,17811,1,0,0:0:0:0:
192,192,18011,1,0,0:0:0:0:
320,192,18211,1,0,0:0:0:0:
64,192,18411,1,0,0:0:0:0:
320,192,18611,1,0,0:0:0:0:
448,192,18811,1,0,0:0:0:0:
320,192,19011,1,0,0:0:0:0:
64,192,19011,1,0,0:0:0:0:
320,192,20611,1,0,0:0:0:0:
448,192,20611,1,0,0:0:0:0:
64,192,20611,128,0,22211:0:0:0:0:
448,192,20811,1,0,0:0:0:0:
320,192,21011,1,0,0:0:0:0:
448,192,21211,1,0,0:0:0:0:
320,192,21411,1,0,0:0:0:0:
192,192,21611,1,0,0:0:0:0:
320,192,22011,1,0,0:0:0:0:
192,192,22211,1,0,0:0:0:0:
448,192,22211,128,0,23411:0:0:0:0:
320,192,22411,1,0,0:0:0:0:
64,192,22611,1,0,0:0:0:0:
192,192,22811,1,0,0:0:0:0:
64,192,23011,1,0,0:0:0:0:
320,192,23211,1,0,0:0:0:0:
320,192,23411,128,0,23611:0:0:0:0:
192,192,23611,1,0,0:0:0:0:
64,192,23611,128,0,24011:0:0:0:0:
448,192,23811,1,0,0:0:0:0:
320,192,24011,128,0,24211:0:0:0:0:
192,192,24011,1,0,0:0:0:0:
448,192,24211,128,0,25411:0:0:0:0:
64,192,24211,1,0,0:0:0:0:
320,192,24411,1,0,0:0:0:0:
192,192,24611,1,0,0:0:0:0:
64,192,24811,1,0,0:0:0:0:
320,192,25211,1,0,0:0:0:0:
64,192,25411,1,0,0:0:0:0:
192,192,25611,1,0,0:0:0:0:
320,192,25811,128,0,26211:0:0:0:0:
448,192,25811,1,0,0:0:0:0:
192,192,26011,1,0,0:0:0:0:
192,192,26211,128,0,26611:0:0:0:0:
448,192,26211,1,0,0:0:0:0:
320,192,26411,1,0,0:0:0:0:
64,192,26611,128,0,27011:0:0:0:0:
192,192,26811,1,0,0:0:0:0:
320,192,27011,128,0,27811:0:0:0:0:
448,192,27011,1,0,0:0:0:0:
192,192,27211,1,0,0:0:0:0:
448,192,27411,1,0,0:0:0:0:
64,192,27611,1,0,0:0:0:0:
448,192,27811,128,0,28611:0:0:0:0:
192,192,27811,1,0,0:0:0:0:
64,192,28011,1,0,0:0:0:0:
320,192,28211,1,0,0:0:0:0:
64,192,28411,1,0,0:0:0:0:
192,192,28611,128,0,29411:0:0:0:0:
64,192,28611,1,0,0:0:0:0:
320,192,28811,1,0,0:0:0:0:
448,192,29011,1,0,0:0:0:0:
320,192,29211,1,0,0:0:0:0:
64,192,29411,128,0,29611:0:0:0:0:
320,192,29411,1,0,0:0:0:0:
448,192,29611,1,0,0:0:0:0:
320,192,29711,1,0,0:0:0:0:
192,192,29811,1,0,0:0:0:0:
320,192,29911,1,0,0:0:0:0:
192,192,30011,1,0,0:0:0:0:
64,192,30111,1,0,0:0:0:0:
192,192,30211,1,0,0:0:0:0:
320,192,30211,1,0,0:0:0:0:
320,192,30411,1,0,0:0:0:0:
192,192,30611,1,0,0:0:0:0:
320,192,30811,1,0,0:0:0:0:
448,192,31011,128,0,31411:0:0:0:0:
64,192,31011,1,0,0:0:0:0:
320,192,31211,1,0,0:0:0:0:
320,192,31411,128,0,32211:0:0:0:0:
192,192,31411,1,0,0:0:0:0:
64,192,31611,1,0,0:0:0:0:
448,192,31811,1,0,0:0:0:0:
192,192,32011,1,0,0:0:0:0:
64,192,32211,128,0,32611:0:0:0:0:
448,192,32211,1,0,0:0:0:0:
320,192,32411,1,0,0:0:0:0:
192,192,32611,128,0,33011:0:0:0:0:
448,192,32611,1,0,0:0:0:0:
64,192,32811,1,0,0:0:0:0:
320,192,33011,128,0,33411:0:0:0:0:
192,192,33211,1,0,0:0:0:0:
448,192,33411,128,0,34211:0:0:0:0:
64,192,33411,1,0,0:0:0:0:
320,192,33611,1,0,0:0:0:0:
192,192,33811,1,0,0:0:0:0:
320,192,34011,1,0,0:0:0:0:
320,192,34211,128,0,35011:0:0:0:0:
192,192,34411,1,0,0:0:0:0:
448,192,34611,1,0,0:0:0:0:
64,192,34811,1,0,0:0:0:0:
64,192,35011,128,0,35811:0:0:0:0:
448,192,35211,1,0,0:0:0:0:
320,192,35411,1,0,0:0:0:0:
192,192,35611,1,0,0:0:0:0:
192,192,35811,128,0,36611:0:0:0:0:
448,192,36011,1,0,0:0:0:0:
64,192,36211,1,0,0:0:0:0:
320,192,36411,1,0,0:0:0:0:
448,192,36611,128,0,37811:0:0:0:0:
64,192,36811,1,0,0:0:0:0:
320,192,37011,1,0,0:0:0:0:
192,192,37211,1,0,0:0:0:0:
320,192,37411,1,0,0:0:0:0:
192,192,37611,1,0,0:0:0:0:
320,192,37811,128,0,39011:0:0:0:0:
192,192,38011,1,0,0:0:0:0:
448,192,38211,1,0,0:0:0:0:
64,192,38411,1,0,0:0:0:0:
192,192,38611,1,0,0:0:0:0:
448,192,38811,1,0,0:0:0:0:
192,192,38911,1,0,0:0:0:0:
64,192,39011,1,0,0:0:0:0:
448,192,39011,1,0,0:0:0:0:
320,192,39211,1,0,0:0:0:0:
64,192,39411,1,0,0:0:0:0:
192,192,39811,1,0,0:0:0:0:
320,192,40211,1,0,0:0:0:0:
64,192,40411,1,0,0:0:0:0:
192,192,40611,1,0,0:0:0:0:
448,192,40811,1,0,0:0:0:0:
320,192,41011,1,0,0:0:0:0:
192,192,41211,1,0,0:0:0:0:
192,192,41411,1,0,0:0:0:0:
448,192,41611,1,0,0:0:0:0:
320,192,41811,1,0,0:0:0:0:
192,192,42011,1,0,0:0:0:0:
64,192,42211,1,0,0:0:0:0:
320,192,42411,1,0,0:0:0:0:
192,192,42611,1,0,0:0:0:0:
64,192,42811,1,0,0:0:0:0:
192,192,43011,1,0,0:0:0:0:
448,192,43011,1,0,0:0:0:0:
320,192,43211,1,0,0:0:0:0:
448,192,43411,1,0,0:0:0:0:
320,192,43611,1,0,0:0:0:0:
192,192,43811,1,0,0:0:0:0:
64,192,44011,1,0,0:0:0:0:
448,192,44211,1,0,0:0:0:0:
320,192,44411,1,0,0:0:0:0:
192,192,44611,1,0,0:0:0:0:
448,192,45011,128,0,46211:0:0:0:0:
64,192,45411,1,0,0:0:0:0:
192,192,45611,1,0,0:0:0:0:
320,192,45811,1,0,0:0:0:0:
320,192,46011,1,0,0:0:0:0:
192,192,46211,1,0,0:0:0:0:
320,192,46411,1,0,0:0:0:0:
192,192,46611,1,0,0:0:0:0:
448,192,46611,1,0,0:0:0:0:
192,192,46811,1,0,0:0:0:0:
320,192,47011,1,0,0:0:0:0:
64,192,47011,1,0,0:0:0:0:
448,192,47211,1,0,0:0:0:0:
320,192,47411,1,0,0:0:0:0:
192,192,47411,1,0,0:0:0:0:
192,192,47611,1,0,0:0:0:0:
64,192,47811,1,0,0:0:0:0:
448,192,47811,1,0,0:0:0:0:
320,192,48011,1,0,0:0:0:0:
192,192,48211,1,0,0:0:0:0:
64,192,48211,1,0,0:0:0:0:
192,192,48411,1,0,0:0:0:0:
320,192,48611,1,0,0:0:0:0:
64,192,48611,1,0,0:0:0:0:
448,192,48811,1,0,0:0:0:0:
320,192,49011,1,0,0:0:0:0:
192,192,49011,1,0,0:0:0:0:
320,192,49211,1,0,0:0:0:0:
448,192,49411,128,0,50011:0:0:0:0:
320,192,49811,1,0,0:0:0:0:
320,192,50011,128,0,50511:0:0:0:0:
192,192,50011,1,0,0:0:0:0:
448,192,50311,1,0,0:0:0:0:
192,192,50511,128,0,51011:0:0:0:0:
64,192,50511,1,0,0:0:0:0:
448,192,51811,1,0,0:0:0:0:
320,192,52211,1,0,0:0:0:0:
192,192,52611,1,0,0:0:0:0:
64,192,52611,1,0,0:0:0:0:
448,192,52611,128,0,54211:0:0:0:0:
320,192,52811,1,0,0:0:0:0:
320,192,53011,1,0,0:0:0:0:
64,192,53011,1,0,0:0:0:0:
192,192,53211,1,0,0:0:0:0:
320,192,53411,1,0,0:0:0:0:
192,192,53411,1,0,0:0:0:0:
320,192,53611,1,0,0:0:0:0:
192,192,53811,1,0,0:0:0:0:
64,192,53811,1,0,0:0:0:0:
320,192,54011,1,0,0:0:0:0:
64,192,54211,128,0,55811:0:0:0:0:
192,192,54211,1,0,0:0:0:0:
320,192,54411,1,0,0:0:0:0:
448,192,54611,1,0,0:0:0:0:
192,192,54611,1,0,0:0:0:0:
320,192,54811,1,0,0:0:0:0:
320,192,55011,1,0,0:0:0:0:
192,192,55011,1,0,0:0:0:0:
448,192,55211,1,0,0:0:0:0:
320,192,55411,1,0,0:0:0:0:
192,192,55411,1,0,0:0:0:0:
320,192,55611,1,0,0:0:0:0:
448,192,55811,1,0,0:0:0:0:
320,192,55811,128,0,56411:0:0:0:0:
192,192,56011,1,0,0:0:0:0:
64,192,56211,1,0,0:0:0:0:
448,192,56211,1,0,0:0:0:0:
64,192,56411,1,0,0:0:0:0:
192,192,56511,1,0,0:0:0:0:
320,192,56611,1,0,0:0:0:0:
448,192,56611,128,0,57411:0:0:0:0:
192,192,56811,1,0,0:0:0:0:
64,192,56811,1,0,0:0:0:0:
320,192,57011,1,0,0:0:0:0:
320,192,57211,1,0,0:0:0:0:
64,192,57211,1,0,0:0:0:0:
192,192,57411,1,0,0:0:0:0:
320,192,57611,1,0,0:0:0:0:
64,192,57611,1,0,0:0:0:0:
320,192,57811,128,0,58211:0:0:0:0:
448,192,57811,1,0,0:0:0:0:
192,192,58011,1,0,0:0:0:0:
448,192,58011,1,0,0:0:0:0:
192,192,58211,128,0,58611:0:0:0:0:
64,192,58411,1,0,0:0:0:0:
320,192,58411,1,0,0:0:0:0:
64,192,58611,128,0,59011:0:0:0:0:
448,192,58611,1,0,0:0:0:0:
320,192,58811,1,0,0:0:0:0:
192,192,58811,1,0,0:0:0:0:
448,192,59011,128,0,60611:0:0:0:0:
320,192,59011,1,0,0:0:0:0:
320,192,59211,1,0,0:0:0:0:
64,192,59211,1,0,0:0:0:0:
192,192,59411,1,0,0:0:0:0:
320,192,59611,1,0,0:0:0:0:
192,192,59611,1,0,0:0:0:0:
320,192,59811,1,0,0:0:0:0:
192,192,60011,1,0,0:0:0:0:
64,192,60011,1,0,0:0:0:0:
192,192,60211,1,0,0:0:0:0:
320,192,60411,1,0,0:0:0:0:
64,192,60411,1,0,0:0:0:0:
64,192,60611,128,0,61011:0:0:0:0:
320,192,60611,1,0,0:0:0:0:
448,192,60811,1,0,0:0:0:0:
192,192,60811,1,0,0:0:0:0:
320,192,61011,1,0,0:0:0:0:
192,192,61211,1,0,0:0:0:0:
320,192,61211,1,0,0:0:0:0:
192,192,61411,1,0,0:0:0:0:
64,192,61611,1,0,0:0:0:0:
320,192,61811,1,0,0:0:0:0:
448,192,61811,1,0,0:0:0:0:
320,192,62011,1,0,0:0:0:0:
448,192,62011,1,0,0:0:0:0:
192,192,62411,1,0,0:0:0:0:
64,192,62411,1,0,0:0:0:0:
192,192,62611,1,0,0:0:0:0:
64,192,62611,1,0,0:0:0:0:
320,192,62811,1,0,0:0:0:0:
448,192,63011,1,0,0:0:0:0:
64,192,63211,1,0,0:0:0:0:
192,192,63411,1,0,0:0:0:0:
320,192,63611,1,0,0:0:0:0:
320,192,63811,1,0,0:0:0:0:
448,192,64011,1,0,0:0:0:0:
320,192,64211,1,0,0:0:0:0:
64,192,64411,1,0,0:0:0:0:
448,192,64611,128,0,65011:0:0:0:0:
192,192,65011,128,0,65411:0:0:0:0:
320,192,65411,1,0,0:0:0:0:
448,192,65411,128,0,67011:0:0:0:0:
64,192,65611,1,0,0:0:0:0:
192,192,65611,1,0,0:0:0:0:
320,192,65811,1,0,0:0:0:0:
320,192,66011,1,0,0:0:0:0:
64,192,66011,1,0,0:0:0:0:
192,192,66211,1,0,0:0:0:0:
320,192,66411,1,0,0:0:0:0:
64,192,66411,1,0,0:0:0:0:
192,192,66611,1,0,0:0:0:0:
64,192,66811,1,0,0:0:0:0:
192,192,66811,1,0,0:0:0:0:
192,192,67011,128,0,68611:0:0:0:0:
320,192,67011,1,0,0:0:0:0:
320,192,67211,1,0,0:0:0:0:
448,192,67211,1,0,0:0:0:0:
448,192,67411,1,0,0:0:0:0:
64,192,67611,1,0,0:0:0:0:
448,192,67611,1,0,0:0:0:0:
320,192,67811,1,0,0:0:0:0:
448,192,68011,1,0,0:0:0:0:
320,192,68011,1,0,0:0:0:0:
64,192,68211,1,0,0:0:0:0:
320,192,68411,1,0,0:0:0:0:
448,192,68411,1,0,0:0:0:0:
320,192,68611,128,0,69211:0:0:0:0:
192,192,68811,1,0,0:0:0:0:
64,192,68811,1,0,0:0:0:0:
192,192,69011,1,0,0:0:0:0:
448,192,69211,1,0,0:0:0:0:
320,192,69311,1,0,0:0:0:0:
192,192,69411,1,0,0:0:0:0:
64,192,69511,128,0,70211:0:0:0:0:
320,192,69611,1,0,0:0:0:0:
448,192,69611,1,0,0:0:0:0:
192,192,69811,1,0,0:0:0:0:
448,192,70011,1,0,0:0:0:0:
192,192,70011,1,0,0:0:0:0:
320,192,70211,1,0,0:0:0:0:
448,192,70411,1,0,0:0:0:0:
192,192,70411,1,0,0:0:0:0:
448,192,70611,128,0,71011:0:0:0:0:
192,192,70611,1,0,0:0:0:0:
320,192,70811,1,0,0:0:0:0:
64,192,70811,1,0,0:0:0:0:
320,192,71011,128,0,71411:0:0:0:0:
448,192,71211,1,0,0:0:0:0:
192,192,71211,1,0,0:0:0:0:
192,192,71411,128,0,71811:0:0:0:0:
320,192,71611,1,0,0:0:0:0:
64,192,71611,1,0,0:0:0:0:
64,192,71811,1,0,0:0:0:0:
320,192,71811,128,0,72211:0:0:0:0:
448,192,72011,1,0,0:0:0:0:
64,192,72211,128,0,72611:0:0:0:0:
192,192,72211,1,0,0:0:0:0:
448,192,72411,1,0,0:0:0:0:
192,192,72611,128,0,73011:0:0:0:0:
320,192,72611,1,0,0:0:0:0:
448,192,72811,1,0,0:0:0:0:
448,192,73011,128,0,73411:0:0:0:0:
64,192,73011,1,0,0:0:0:0:
192,192,73211,1,0,0:0:0:0:
320,192,73411,128,0,74211:0:0:0:0:
448,192,73611,1,0,0:0:0:0:
192,192,73811,1,0,0:0:0:0:
64,192,74011,1,0,0:0:0:0:
192,192,74211,1,0,0:0:0:0:
64,192,74277,1,0,0:0:0:0:
192,192,74344,1,0,0:0:0:0:
64,192,74411,1,0,0:0:0:0:
192,192,74477,1,0,0:0:0:0:
320,192,74544,1,0,0:0:0:0:
448,192,74611,128,0,74811:0:0:0:0:
192,192,74711,1,0,0:0:0:0:
320,192,74811,128,0,75011:0:0:0:0:
192,192,75011,128,0,75411:0:0:0:0:
448,192,75011,1,0,0:0:0:0:
320,192,75211,1,0,0:0:0:0:
64,192,75411,128,0,75811:0:0:0:0:
448,192,75411,1,0,0:0:0:0:
192,192,75611,1,0,0:0:0:0:
192,192,75811,128,0,76211:0:0:0:0:
320,192,75811,1,0,0:0:0:0:
64,192,76011,1,0,0:0:0:0:
448,192,76211,128,0,76611:0:0:0:0:
320,192,76211,1,0,0:0:0:0:
192,192,76411,1,0,0:0:0:0:
320,192,76611,128,0,77011:0:0:0:0:
64,192,76611,1,0,0:0:0:0:
448,192,76811,1,0,0:0:0:0:
192,192,77011,1,0,0:0:0:0:
320,192,77211,1,0,0:0:0:0:
64,192,77411,1,0,0:0:0:0:
192,192,77611,1,0,0:0:0:0:
320,192,77811,1,0,0:0:0:0:
448,192,78011,1,0,0:0:0:0:
320,192,78211,1,0,0:0:0:0:
64,192,78211,1,0,0:0:0:0:
192,192,78611,1,0,0:0:0:0:
320,192,78711,1,0,0:0:0:0:
448,192,78811,1,0,0:0:0:0:
320,192,78911,1,0,0:0:0:0:
192,192,79011,1,0,0:0:0:0:
64,192,79111,1,0,0:0:0:0:
320,192,79211,1,0,0:0:0:0:
448,192,79311,1,0,0:0:0:0:
192,192,79411,1,0,0:0:0:0:
320,192,79511,1,0,0:0:0:0:
448,192,79611,1,0,0:0:0:0:
320,192,79711,1,0,0:0:0:0:
192,192,79811,1,0,0:0:0:0:
64,192,79811,128,0,81411:0:0:0:0:
320,192,80011,1,0,0:0:0:0:
192,192,80211,1,0,0:0:0:0:
448,192,80211,1,0,0:0:0:0:
320,192,80411,1,0,0:0:0:0:
448,192,80544,1,0,0:0:0:0:
320,192,80611,1,0,0:0:0:0:
192,192,80677,1,0,0:0:0:0:
192,192,80944,1,0,0:0:0:0:
320,192,81011,1,0,0:0:0:0:
448,192,81077,1,0,0:0:0:0:
320,192,81411,128,0,82211:0:0:0:0:
448,192,82211,128,0,83011:0:0:0:0:
192,192,83011,128,0,84611:0:0:0:0:
64,192,83811,1,0,0:0:0:0:
448,192,84011,1,0,0:0:0:0:
448,192,84211,1,0,0:0:0:0:
320,192,84411,1,0,0:0:0:0:
64,192,84611,1,0,0:0:0:0:
192,192,84811,1,0,0:0:0:0:
320,192,85011,1,0,0:0:0:0:
192,192,85211,1,0,0:0:0:0:
320,192,85411,1,0,0:0:0:0:
448,192,85611,1,0,0:0:0:0:
320,192,85811,1,0,0:0:0:0:
192,192,86011,1,0,0:0:0:0:
64,192,86211,1,0,0:0:0:0:
448,192,86211,1,0,0:0:0:0:
448,192,86411,1,0,0:0:0:0:
320,192,86611,1,0,0:0:0:0:
192,192,86811,1,0,0:0:0:0:
448,192,87011,1,0,0:0:0:0:
320,192,87211,1,0,0:0:0:0:
192,192,87411,1,0,0:0:0:0:
64,192,87611,1,0,0:0:0:0:
64,192,87811,1,0,0:0:0:0:
320,192,87811,1,0,0:0:0:0:
448,192,88411,1,0,0:0:0:0:
192,192,88511,1,0,0:0:0:0:
448,192,88611,1,0,0:0:0:0:
448,192,88811,1,0,0:0:0:0:
320,192,89011,1,0,0:0:0:0:
192,192,89211,1,0,0:0:0:0:
64,192,89411,1,0,0:0:0:0:
320,192,89411,1,0,0:0:0:0:
192,192,89411,128,0,91011:0:0:0:0:
448,192,90211,1,0,0:0:0:0:
320,192,90411,1,0,0:0:0:0:
64,192,90611,1,0,0:0:0:0:
64,192,90811,1,0,0:0:0:0:
64,192,91011,128,0,91411:0:0:0:0:
320,192,91411,128,0,91811:0:0:0:0:
192,192,91411,1,0,0:0:0:0:
448,192,91811,128,0,92611:0:0:0:0:
192,192,91811,1,0,0:0:0:0:
64,192,92211,1,0,0:0:0:0:
320,192,92611,128,0,93811:0:0:0:0:
192,192,92611,1,0,0:0:0:0:
448,192,93211,1,0,0:0:0:0:
448,192,93411,1,0,0:0:0:0:
192,192,93611,1,0,0:0:0:0:
192,192,93811,128,0,94011:0:0:0:0:
64,192,93811,1,0,0:0:0:0:
64,192,94011,128,0,94611:0:0:0:0:
192,192,94611,128,0,95011:0:0:0:0:
320,192,95011,128,0,95411:0:0:0:0:
448,192,95411,128,0,95811:0:0:0:0:
320,192,95811,128,0,96611:0:0:0:0:
192,192,96011,1,0,0:0:0:0:
448,192,96211,1,0,0:0:0:0:
192,192,96411,1,0,0:0:0:0:
192,192,96611,128,0,97411:0:0:0:0:
320,192,96811,1,0,0:0:0:0:
448,192,97011,1,0,0:0:0:0:
64,192,97211,1,0,0:0:0:0:
64,192,97411,128,0,97811:0:0:0:0:
448,192,97811,128,0,98211:0:0:0:0:
320,192,98211,128,0,98611:0:0:0:0:
192,192,98611,128,0,99011:0:0:0:0:
64,192,99011,128,0,99411:0:0:0:0:
448,192,99011,1,0,0:0:0:0:
448,192,99411,128,0,100611:0:0:0:0:
320,192,99411,1,0,0:0:0:0:
64,192,99611,1,0,0:0:0:0:
192,192,99811,1,0,0:0:0:0:
320,192,100011,1,0,0:0:0:0:
320,192,100211,1,0,0:0:0:0:
192,192,100411,1,0,0:0:0:0:
320,192,100611,128,0,101411:0:0:0:0:
64,192,100611,1,0,0:0:0:0:
448,192,100811,1,0,0:0:0:0:
192,192,101011,1,0,0:0:0:0:
64,192,101211,1,0,0:0:0:0:
64,192,101411,128,0,102211:0:0:0:0:
192,192,101411,1,0,0:0:0:0:
192,192,101611,1,0,0:0:0:0:
320,192,101811,1,0,0:0:0:0:
448,192,102011,1,0,0:0:0:0:
448,192,102211,128,0,104211:0:0:0:0:
320,192,102211,1,0,0:0:0:0:
192,192,102611,1,0,0:0:0:0:
192,192,103011,1,0,0:0:0:0:
64,192,103211,1,0,0:0:0:0:
192,192,103411,1,0,0:0:0:0:
320,192,103611,1,0,0:0:0:0:
320,192,103811,1,0,0:0:0:0:
192,192,104011,1,0,0:0:0:0:
64,192,104211,128,0,104711:0:0:0:0:
320,192,104211,1,0,0:0:0:0:
448,192,104411,1,0,0:0:0:0:
320,192,104611,1,0,0:0:0:0:
192,192,104711,128,0,104911:0:0:0:0:
448,192,104811,1,0,0:0:0:0:
320,192,104911,128,0,105111:0:0:0:0:
448,192,105111,128,0,105411:0:0:0:0:
192,192,105411,1,0,0:0:0:0:
192,192,107011,1,0,0:0:0:0:
448,192,107011,1,0,0:0:0:0:
320,192,107811,1,0,0:0:0:0:
192,192,107811,1,0,0:0:0:0:
320,192,108611,1,0,0:0:0:0:
448,192,108611,1,0,0:0:0:0:
64,192,108611,1,0,0:0:0:0:
448,192,109011,1,0,0:0:0:0:
320,192,109211,1,0,0:0:0:0:
64,192,109411,1,0,0:0:0:0:
320,192,109811,1,0,0:0:0:0:
192,192,110211,1,0,0:0:0:0:
448,192,110211,1,0,0:0:0:0:
320,192,110411,1,0,0:0:0:0:
192,192,110811,1,0,0:0:0:0:
320,192,111011,1,0,0:0:0:0:
448,192,111411,1,0,0:0:0:0:
320,192,111811,1,0,0:0:0:0:
64,192,111811,1,0,0:0:0:0:
192,192,112211,1,0,0:0:0:0:
448,192,112611,1,0,0:0:0:0:
320,192,112811,1,0,0:0:0:0:
64,192,113011,1,0,0:0:0:0:
448,192,113211,1,0,0:0:0:0:
320,192,113411,1,0,0:0:0:0:
64,192,113411,1,0,0:0:0:0:
192,192,113611,1,0,0:0:0:0:
320,192,113811,1,0,0:0:0:0:
192,192,114011,1,0,0:0:0:0:
448,192,114211,1,0,0:0:0:0:
320,192,114411,1,0,0:0:0:0:
192,192,114611,1,0,0:0:0:0:
320,192,115011,1,0,0:0:0:0:
448,192,115011,1,0,0:0:0:0:
320,192,115411,1,0,0:0:0:0:
192,192,115611,1,0,0:0:0:0:
320,192,115811,1,0,0:0:0:0:
192,192,116011,1,0,0:0:0:0:
64,192,116211,1,0,0:0:0:0:
192,192,116611,1,0,0:0:0:0:
448,192,116611,1,0,0:0:0:0:
320,192,116611,128,0,117011:0:0:0:0:
64,192,117011,128,0,117411:0:0:0:0:
192,192,117011,1,0,0:0:0:0:
192,192,117411,128,0,117811:0:0:0:0:
448,192,117411,1,0,0:0:0:0:
448,192,117811,128,0,118211:0:0:0:0:
64,192,117811,1,0,0:0:0:0:
64,192,118211,1,0,0:0:0:0:
192,192,118311,1,0,0:0:0:0:
320,192,118411,1,0,0:0:0:0:
448,192,118611,1,0,0:0:0:0:
192,192,118811,1,0,0:0:0:0:
320,192,119011,1,0,0:0:0:0:
192,192,119011,1,0,0:0:0:0:
320,192,119411,1,0,0:0:0:0:
64,192,119611,1,0,0:0:0:0:
192,192,119711,1,0,0:0:0:0:
320,192,119811,1,0,0:0:0:0:
448,192,119811,1,0,0:0:0:0:
320,192,120411,1,0,0:0:0:0:
192,192,120611,1,0,0:0:0:0:
320,192,121011,1,0,0:0:0:0:
448,192,121411,1,0,0:0:0:0:
320,192,121411,128,0,122211:0:0:0:0:
192,192,122211,128,0,123011:0:0:0:0:
448,192,123011,1,0,0:0:0:0:
320,192,123211,1,0,0:0:0:0:
192,192,123411,1,0,0:0:0:0:
64,192,123611,1,0,0:0:0:0:
320,192,123811,1,0,0:0:0:0:
192,192,124011,1,0,0:0:0:0:
64,192,124211,1,0,0:0:0:0:
64,192,124411,1,0,0:0:0:0:
192,192,124611,1,0,0:0:0:0:
448,192,124611,1,0,0:0:0:0:
320,192,125211,1,0,0:0:0:0:
192,192,125411,1,0,0:0:0:0:
320,192,125811,1,0,0:0:0:0:
64,192,126211,1,0,0:0:0:0:
192,192,126411,1,0,0:0:0:0:
448,192,126611,1,0,0:0:0:0:
320,192,126811,1,0,0:0:0:0:
192,192,127011,1,0,0:0:0:0:
64,192,127211,1,0,0:0:0:0:
320,192,127411,1,0,0:0:0:0:
192,192,127611,1,0,0:0:0:0:
64,192,127811,1,0,0:0:0:0:
448,192,127811,1,0,0:0:0:0:
320,192,128011,1,0,0:0:0:0:
64,192,128211,1,0,0:0:0:0:
192,192,128411,1,0,0:0:0:0:
448,192,128611,1,0,0:0:0:0:
320,192,128811,1,0,0:0:0:0:
64,192,129011,1,0,0:0:0:0:
192,192,129011,1,0,0:0:0:0:
192,192,129211,1,0,0:0:0:0:
320,192,129211,1,0,0:0:0:0:
320,192,129411,1,0,0:0:0:0:
448,192,129411,1,0,0:0:0:0:
320,192,131011,1,0,0:0:0:0:
64,192,131011,1,0,0:0:0:0:
448,192,131011,128,0,132211:0:0:0:0:
320,192,131411,1,0,0:0:0:0:
192,192,131811,1,0,0:0:0:0:
320,192,132211,128,0,132411:0:0:0:0:
64,192,132211,1,0,0:0:0:0:
192,192,132411,128,0,132611:0:0:0:0:
64,192,132611,128,0,133811:0:0:0:0:
448,192,132611,1,0,0:0:0:0:
320,192,133011,1,0,0:0:0:0:
192,192,133411,1,0,0:0:0:0:
192,192,133811,128,0,134011:0:0:0:0:
448,192,133811,1,0,0:0:0:0:
320,192,134011,128,0,134411:0:0:0:0:
192,192,134211,1,0,0:0:0:0:
448,192,134411,128,0,134611:0:0:0:0:
192,192,134611,128,0,135811:0:0:0:0:
64,192,134611,1,0,0:0:0:0:
448,192,135411,1,0,0:0:0:0:
64,192,135811,1,0,0:0:0:0:
320,192,136211,128,0,136411:0:0:0:0:
448,192,136411,128,0,136611:0:0:0:0:
192,192,136611,128,0,136811:0:0:0:0:
448,192,136811,128,0,137011:0:0:0:0:
320,192,137011,128,0,137211:0:0:0:0:
192,192,137211,128,0,137411:0:0:0:0:
64,192,137411,128,0,138211:0:0:0:0:
448,192,137811,1,0,0:0:0:0:
320,192,138011,1,0,0:0:0:0:
192,192,138211,128,0,139011:0:0:0:0:
448,192,138211,1,0,0:0:0:0:
64,192,138611,1,0,0:0:0:0:
320,192,139011,128,0,139811:0:0:0:0:
448,192,139411,1,0,0:0:0:0:
192,192,139611,1,0,0:0:0:0:
192,192,139811,128,0,140011:0:0:0:0:
448,192,139811,1,0,0:0:0:0:
64,192,140011,1,0,0:0:0:0:
192,192,140111,1,0,0:0:0:0:
320,192,140211,1,0,0:0:0:0:
192,192,140311,1,0,0:0:0:0:
320,192,140411,1,0,0:0:0:0:
448,192,140511,1,0,0:0:0:0:
192,192,140611,1,0,0:0:0:0:
64,192,140611,1,0,0:0:0:0:
320,192,141111,1,0,0:0:0:0:
192,192,141311,5,0,0:0:0:0:
448,192,141411,128,0,141811:0:0:0:0:
320,192,141511,5,0,0:0:0:0:
320,192,141811,128,0,142211:0:0:0:0:
64,192,142211,128,0,143811:0:0:0:0:
448,192,142511,5,0,0:0:0:0:
320,192,142611,1,0,0:0:0:0:
192,192,142711,1,0,0:0:0:0:
320,192,142811,1,0,0:0:0:0:
448,192,142911,1,0,0:0:0:0:
192,192,143011,1,0,0:0:0:0:
320,192,143111,1,0,0:0:0:0:
192,192,143211,1,0,0:0:0:0:
320,192,143311,1,0,0:0:0:0:
448,192,143411,1,0,0:0:0:0:
320,192,143511,1,0,0:0:0:0:
192,192,143611,1,0,0:0:0:0:
448,192,143711,1,0,0:0:0:0:
192,192,143811,1,0,0:0:0:0:
320,192,143811,128,0,144611:0:0:0:0:
192,192,144211,1,0,0:0:0:0:
64,192,144411,1,0,0:0:0:0:
192,192,144611,128,0,145411:0:0:0:0:
448,192,144611,1,0,0:0:0:0:
320,192,145011,1,0,0:0:0:0:
448,192,145411,128,0,146211:0:0:0:0:
320,192,145811,1,0,0:0:0:0:
192,192,145911,1,0,0:0:0:0:
64,192,146011,1,0,0:0:0:0:
192,192,146111,1,0,0:0:0:0:
320,192,146211,1,0,0:0:0:0:
64,192,146211,128,0,147011:0:0:0:0:
192,192,146311,1,0,0:0:0:0:
448,192,146411,1,0,0:0:0:0:
320,192,146511,1,0,0:0:0:0:
192,192,146611,1,0,0:0:0:0:
320,192,146711,1,0,0:0:0:0:
448,192,146811,1,0,0:0:0:0:
320,192,146911,1,0,0:0:0:0:
192,192,147011,1,0,0:0:0:0:
448,192,147011,128,0,148211:0:0:0:0:
320,192,148077,1,0,0:0:0:0:
64,192,148144,1,0,0:0:0:0:
192,192,148211,128,0,149811:0:0:0:0:
320,192,148211,1,0,0:0:0:0:
448,192,149011,1,0,0:0:0:0:
320,192,149211,1,0,0:0:0:0:
64,192,149411,1,0,0:0:0:0:
448,192,149411,1,0,0:0:0:0:
320,192,149811,1,0,0:0:0:0:
448,192,150211,1,0,0:0:0:0:
64,192,150211,1,0,0:0:0:0:
320,192,150411,1,0,0:0:0:0:
192,192,150611,1,0,0:0:0:0:
64,192,150811,1,0,0:0:0:0:
192,192,151011,1,0,0:0:0:0:
448,192,151211,1,0,0:0:0:0:
320,192,151411,1,0,0:0:0:0:
192,192,151611,1,0,0:0:0:0:
192,192,151811,1,0,0:0:0:0:
448,192,152011,1,0,0:0:0:0:
320,192,152211,1,0,0:0:0:0:
192,192,152411,1,0,0:0:0:0:
64,192,152611,1,0,0:0:0:0:
192,192,152811,1,0,0:0:0:0:
320,192,153011,1,0,0:0:0:0:
192,192,153211,1,0,0:0:0:0:
448,192,153411,1,0,0:0:0:0:
320,192,153411,1,0,0:0:0:0:
448,192,153611,1,0,0:0:0:0:
320,192,153811,1,0,0:0:0:0:
192,192,154011,1,0,0:0:0:0:
192,192,154211,1,0,0:0:0:0:
320,192,154411,1,0,0:0:0:0:
448,192,154611,1,0,0:0:0:0:
192,192,154911,1,0,0:0:0:0:
320,192,155011,1,0,0:0:0:0:
64,192,155011,1,0,0:0:0:0:
64,192,155611,128,0,156611:0:0:0:0:
192,192,155811,1,0,0:0:0:0:
192,192,156011,1,0,0:0:0:0:
320,192,156211,1,0,0:0:0:0:
448,192,156411,1,0,0:0:0:0:
192,192,156611,1,0,0:0:0:0:
320,192,156611,1,0,0:0:0:0:
320,192,156811,1,0,0:0:0:0:
192,192,157011,1,0,0:0:0:0:
448,192,157011,1,0,0:0:0:0:
320,192,157211,1,0,0:0:0:0:
192,192,157411,1,0,0:0:0:0:
64,192,157411,1,0,0:0:0:0:
192,192,157611,1,0,0:0:0:0:
64,192,157811,1,0,0:0:0:0:
448,192,157811,1,0,0:0:0:0:
320,192,158011,1,0,0:0:0:0:
64,192,158211,1,0,0:0:0:0:
448,192,158211,1,0,0:0:0:0:
320,192,158411,1,0,0:0:0:0:
192,192,158611,1,0,0:0:0:0:
64,192,158611,1,0,0:0:0:0:
192,192,158811,1,0,0:0:0:0:
64,192,159011,1,0,0:0:0:0:
448,192,159011,1,0,0:0:0:0:
320,192,159211,1,0,0:0:0:0:
192,192,159411,1,0,0:0:0:0:
320,192,159411,1,0,0:0:0:0:
192,192,159611,1,0,0:0:0:0:
320,192,159811,1,0,0:0:0:0:
64,192,159811,1,0,0:0:0:0:
192,192,160211,1,0,0:0:0:0:
448,192,160211,1,0,0:0:0:0:
64,192,160411,1,0,0:0:0:0:
320,192,160411,1,0,0:0:0:0:
320,192,160811,1,0,0:0:0:0:
64,192,160811,1,0,0:0:0:0:
448,192,161011,1,0,0:0:0:0:
192,192,161011,1,0,0:0:0:0:
448,192,162211,1,0,0:0:0:0:
320,192,162277,1,0,0:0:0:0:
192,192,162344,1,0,0:0:0:0:
448,192,162411,1,0,0:0:0:0:
320,192,162477,1,0,0:0:0:0:
64,192,162544,1,0,0:0:0:0:
192,192,162611,1,0,0:0:0:0:
64,192,162744,1,0,0:0:0:0:
192,192,162811,1,0,0:0:0:0:
320,192,162877,1,0,0:0:0:0:
448,192,162944,1,0,0:0:0:0:
192,192,163011,1,0,0:0:0:0:
64,192,163011,128,0,164611:0:0:0:0:
320,192,163011,1,0,0:0:0:0:
448,192,163211,1,0,0:0:0:0:
320,192,163411,1,0,0:0:0:0:
192,192,163411,1,0,0:0:0:0:
320,192,163611,1,0,0:0:0:0:
192,192,163811,1,0,0:0:0:0:
448,192,163811,1,0,0:0:0:0:
192,192,164011,1,0,0:0:0:0:
320,192,164211,1,0,0:0:0:0:
448,192,164211,1,0,0:0:0:0:
192,192,164411,1,0,0:0:0:0:
320,192,164611,128,0,166211:0:0:0:0:
448,192,164611,1,0,0:0:0:0:
192,192,164811,1,0,0:0:0:0:
64,192,165011,1,0,0:0:0:0:
448,192,165011,1,0,0:0:0:0:
448,192,165211,1,0,0:0:0:0:
192,192,165411,1,0,0:0:0:0:
64,192,165411,1,0,0:0:0:0:
64,192,165611,1,0,0:0:0:0:
192,192,165811,1,0,0:0:0:0:
448,192,165811,1,0,0:0:0:0:
64,192,166011,1,0,0:0:0:0:
192,192,166211,128,0,167011:0:0:0:0:
320,192,166411,1,0,0:0:0:0:
64,192,166611,1,0,0:0:0:0:
448,192,166611,1,0,0:0:0:0:
448,192,166811,1,0,0:0:0:0:
320,192,166911,1,0,0:0:0:0:
64,192,167011,1,0,0:0:0:0:
448,192,167011,128,0,167811:0:0:0:0:
320,192,167211,1,0,0:0:0:0:
192,192,167411,1,0,0:0:0:0:
64,192,167411,1,0,0:0:0:0:
192,192,167611,1,0,0:0:0:0:
64,192,167811,1,0,0:0:0:0:
320,192,167811,1,0,0:0:0:0:
192,192,168011,1,0,0:0:0:0:
320,192,168211,128,0,168611:0:0:0:0:
64,192,168211,1,0,0:0:0:0:
448,192,168211,1,0,0:0:0:0:
448,192,168411,1,0,0:0:0:0:
192,192,168611,128,0,169011:0:0:0:0:
64,192,168611,1,0,0:0:0:0:
320,192,168811,1,0,0:0:0:0:
64,192,169011,128,0,169411:0:0:0:0:
448,192,169011,1,0,0:0:0:0:
320,192,169211,1,0,0:0:0:0:
320,192,169411,128,0,171011:0:0:0:0:
192,192,169411,1,0,0:0:0:0:
192,192,169611,1,0,0:0:0:0:
64,192,169811,1,0,0:0:0:0:
448,192,169811,1,0,0:0:0:0:
448,192,170011,1,0,0:0:0:0:
192,192,170211,1,0,0:0:0:0:
64,192,170211,1,0,0:0:0:0:
192,192,170411,1,0,0:0:0:0:
64,192,170611,1,0,0:0:0:0:
448,192,170611,1,0,0:0:0:0:
192,192,170811,1,0,0:0:0:0:
192,192,171011,128,0,171411:0:0:0:0:
320,192,171211,1,0,0:0:0:0:
448,192,171411,1,0,0:0:0:0:
64,192,171411,1,0,0:0:0:0:
320,192,171611,1,0,0:0:0:0:
192,192,171811,1,0,0:0:0:0:
64,192,171811,1,0,0:0:0:0:
192,192,172211,1,0,0:0:0:0:
320,192,172211,1,0,0:0:0:0:
64,192,172411,1,0,0:0:0:0:
448,192,172411,1,0,0:0:0:0:
448,192,172811,1,0,0:0:0:0:
64,192,172811,1,0,0:0:0:0:
320,192,173011,1,0,0:0:0:0:
192,192,173011,1,0,0:0:0:0:
192,192,173611,1,0,0:0:0:0:
320,192,173811,1,0,0:0:0:0:
192,192,174011,1,0,0:0:0:0:
64,192,174211,1,0,0:0:0:0:
192,192,174411,1,0,0:0:0:0:
320,192,174611,1,0,0:0:0:0:
448,192,174811,1,0,0:0:0:0:
320,192,175011,128,0,175411:0:0:0:0:
192,192,175411,128,0,175811:0:0:0:0:
448,192,175811,128,0,177411:0:0:0:0:
64,192,175811,1,0,0:0:0:0:
320,192,176011,1,0,0:0:0:0:
192,192,176211,1,0,0:0:0:0:
64,192,176211,1,0,0:0:0:0:
192,192,176411,1,0,0:0:0:0:
320,192,176611,1,0,0:0:0:0:
64,192,176611,1,0,0:0:0:0:
192,192,176811,1,0,0:0:0:0:
320,192,177011,1,0,0:0:0:0:
192,192,177011,1,0,0:0:0:0:
64,192,177211,1,0,0:0:0:0:
192,192,177411,128,0,179011:0:0:0:0:
320,192,177411,1,0,0:0:0:0:
320,192,177611,1,0,0:0:0:0:
64,192,177811,1,0,0:0:0:0:
320,192,177811,1,0,0:0:0:0:
448,192,178011,1,0,0:0:0:0:
448,192,178211,1,0,0:0:0:0:
64,192,178211,1,0,0:0:0:0:
320,192,178411,1,0,0:0:0:0:
64,192,178611,1,0,0:0:0:0:
320,192,178611,1,0,0:0:0:0:
448,192,178811,1,0,0:0:0:0:
320,192,179011,128,0,179811:0:0:0:0:
64,192,179011,1,0,0:0:0:0:
192,192,179211,1,0,0:0:0:0:
448,192,179411,1,0,0:0:0:0:
192,192,179411,1,0,0:0:0:0:
64,192,179611,1,0,0:0:0:0:
192,192,179711,1,0,0:0:0:0:
448,192,179811,128,0,181411:0:0:0:0:
64,192,179811,1,0,0:0:0:0:
64,192,180411,1,0,0:0:0:0:
192,192,180511,1,0,0:0:0:0:
320,192,180611,1,0,0:0:0:0:
64,192,180711,1,0,0:0:0:0:
320,192,180811,1,0,0:0:0:0:
192,192,180911,1,0,0:0:0:0:
320,192,181011,1,0,0:0:0:0:
64,192,181111,1,0,0:0:0:0:
192,192,181211,1,0,0:0:0:0:
64,192,181311,1,0,0:0:0:0:
192,192,181411,128,0,181811:0:0:0:0:
320,192,181411,1,0,0:0:0:0:
320,192,181811,128,0,182211:0:0:0:0:
448,192,182077,1,0,0:0:0:0:
192,192,182144,1,0,0:0:0:0:
448,192,182211,128,0,183011:0:0:0:0:
64,192,182211,1,0,0:0:0:0:
320,192,182411,1,0,0:0:0:0:
64,192,182611,1,0,0:0:0:0:
192,192,182811,1,0,0:0:0:0:
320,192,183011,128,0,183811:0:0:0:0:
64,192,183011,1,0,0:0:0:0:
64,192,183211,1,0,0:0:0:0:
192,192,183411,1,0,0:0:0:0:
448,192,183611,1,0,0:0:0:0:
192,192,183811,128,0,185411:0:0:0:0:
64,192,183811,1,0,0:0:0:0:
320,192,184011,1,0,0:0:0:0:
448,192,184211,1,0,0:0:0:0:
64,192,184411,1,0,0:0:0:0:
320,192,184611,1,0,0:0:0:0:
448,192,184811,1,0,0:0:0:0:
320,192,185011,1,0,0:0:0:0:
448,192,185211,1,0,0:0:0:0:
64,192,185411,128,0,186211:0:0:0:0:
320,192,185411,1,0,0:0:0:0:
320,192,185611,1,0,0:0:0:0:
192,192,185811,1,0,0:0:0:0:
448,192,186011,1,0,0:0:0:0:
320,192,186211,128,0,187011:0:0:0:0:
192,192,186211,1,0,0:0:0:0:
64,192,186411,1,0,0:0:0:0:
448,192,186611,1,0,0:0:0:0:
64,192,186811,1,0,0:0:0:0:
448,192,187011,128,0,187811:0:0:0:0:
192,192,187011,1,0,0:0:0:0:
320,192,187211,1,0,0:0:0:0:
64,192,187411,1,0,0:0:0:0:
320,192,187611,1,0,0:0:0:0:
320,192,187811,128,0,188611:0:0:0:0:
64,192,187811,1,0,0:0:0:0:
192,192,188011,1,0,0:0:0:0:
192,192,188211,1,0,0:0:0:0:
448,192,188411,1,0,0:0:0:0:
64,192,188544,1,0,0:0:0:0:
192,192,188611,128,0,190211:0:0:0:0:
448,192,188611,1,0,0:0:0:0:
448,192,189011,1,0,0:0:0:0:
320,192,189061,1,0,0:0:0:0:
64,192,189111,1,0,0:0:0:0:
64,192,189411,1,0,0:0:0:0:
320,192,189461,1,0,0:0:0:0:
448,192,189511,1,0,0:0:0:0:
320,192,189811,1,0,0:0:0:0:
448,192,189861,1,0,0:0:0:0:
64,192,189911,1,0,0:0:0:0:
320,192,190211,128,0,191811:0:0:0:0:
448,192,190211,1,0,0:0:0:0:
448,192,191011,1,0,0:0:0:0:
448,192,191211,1,0,0:0:0:0:
192,192,191411,1,0,0:0:0:0:
64,192,191611,1,0,0:0:0:0:
448,192,191811,128,0,193411:0:0:0:0:
192,192,191811,1,0,0:0:0:0:
320,192,192611,1,0,0:0:0:0:
320,192,193411,128,0,194211:0:0:0:0:
192,192,193411,1,0,0:0:0:0:
64,192,193411,1,0,0:0:0:0:
192,192,193611,1,0,0:0:0:0:
64,192,193811,1,0,0:0:0:0:
448,192,193811,1,0,0:0:0:0:
192,192,194011,1,0,0:0:0:0:
192,192,194211,128,0,195011:0:0:0:0:
448,192,194211,1,0,0:0:0:0:
64,192,194211,1,0,0:0:0:0:
320,192,194411,1,0,0:0:0:0:
448,192,194611,1,0,0:0:0:0:
64,192,194611,1,0,0:0:0:0:
320,192,194811,1,0,0:0:0:0:
64,192,195011,128,0,195811:0:0:0:0:
320,192,195011,1,0,0:0:0:0:
448,192,195011,1,0,0:0:0:0:
320,192,195211,1,0,0:0:0:0:
192,192,195411,1,0,0:0:0:0:
320,192,195411,1,0,0:0:0:0:
448,192,195611,1,0,0:0:0:0:
320,192,195711,1,0,0:0:0:0:
448,192,195811,128,0,196211:0:0:0:0:
192,192,195811,1,0,0:0:0:0:
192,192,196011,1,0,0:0:0:0:
64,192,196211,128,0,196611:0:0:0:0:
320,192,196211,1,0,0:0:0:0:
448,192,196411,1,0,0:0:0:0:
192,192,196611,128,0,197011:0:0:0:0:
448,192,196611,1,0,0:0:0:0:
320,192,196811,1,0,0:0:0:0:
320,192,197011,128,0,197211:0:0:0:0:
448,192,197211,128,0,197411:0:0:0:0:
64,192,197211,1,0,0:0:0:0:
192,192,197411,1,0,0:0:0:0:
448,192,197611,128,0,197811:0:0:0:0:
320,192,197811,128,0,199011:0:0:0:0:
192,192,197811,1,0,0:0:0:0:
64,192,198011,1,0,0:0:0:0:
192,192,198211,1,0,0:0:0:0:
448,192,198211,1,0,0:0:0:0:
192,192,198411,1,0,0:0:0:0:
64,192,198611,1,0,0:0:0:0:
448,192,198611,1,0,0:0:0:0:
192,192,198811,1,0,0:0:0:0:
192,192,199011,128,0,199811:0:0:0:0:
448,192,199011,1,0,0:0:0:0:
320,192,199211,1,0,0:0:0:0:
448,192,199411,1,0,0:0:0:0:
64,192,199411,1,0,0:0:0:0:
320,192,199611,1,0,0:0:0:0:
64,192,199811,128,0,203011:0:0:0:0:
448,192,199811,1,0,0:0:0:0:
192,192,200011,1,0,0:0:0:0:
448,192,200211,1,0,0:0:0:0:
192,192,200411,1,0,0:0:0:0:
448,192,200611,1,0,0:0:0:0:
192,192,200811,1,0,0:0:0:0:
448,192,201011,1,0,0:0:0:0:
192,192,201211,1,0,0:0:0:0:
448,192,201411,1,0,0:0:0:0:
192,192,201611,1,0,0:0:0:0:
448,192,201811,1,0,0:0:0:0:
192,192,202011,1,0,0:0:0:0:
448,192,202211,1,0,0:0:0:0:
192,192,202411,1,0,0:0:0:0:
448,192,202611,1,0,0:0:0:0:
192,192,202811,1,0,0:0:0:0:
448,192,203011,1,0,0:0:0:0:
320,192,203011,128,0,204611:0:0:0:0:
192,192,203211,1,0,0:0:0:0:
64,192,203411,1,0,0:0:0:0:
448,192,203411,1,0,0:0:0:0:
448,192,203611,1,0,0:0:0:0:
192,192,203811,1,0,0:0:0:0:
64,192,203811,1,0,0:0:0:0:
192,192,204011,1,0,0:0:0:0:
192,192,204211,1,0,0:0:0:0:
64,192,204211,1,0,0:0:0:0:
448,192,204411,1,0,0:0:0:0:
448,192,204611,128,0,205011:0:0:0:0:
192,192,204611,1,0,0:0:0:0:
320,192,204811,1,0,0:0:0:0:
320,192,205011,128,0,205411:0:0:0:0:
192,192,205011,1,0,0:0:0:0:
64,192,205211,1,0,0:0:0:0:
192,192,205411,128,0,206211:0:0:0:0:
448,192,205411,1,0,0:0:0:0:
320,192,205611,1,0,0:0:0:0:
448,192,205811,1,0,0:0:0:0:
64,192,205811,1,0,0:0:0:0:
320,192,206011,1,0,0:0:0:0:
64,192,206211,128,0,208611:0:0:0:0:
448,192,206211,1,0,0:0:0:0:
320,192,206411,1,0,0:0:0:0:
192,192,206611,1,0,0:0:0:0:
448,192,206611,1,0,0:0:0:0:
320,192,206811,1,0,0:0:0:0:
448,192,207011,1,0,0:0:0:0:
320,192,207011,1,0,0:0:0:0:
192,192,207211,1,0,0:0:0:0:
448,192,207411,1,0,0:0:0:0:
192,192,207411,1,0,0:0:0:0:
320,192,207611,1,0,0:0:0:0:
448,192,207811,1,0,0:0:0:0:
320,192,207811,1,0,0:0:0:0:
448,192,208011,1,0,0:0:0:0:
320,192,208211,1,0,0:0:0:0:
192,192,208211,1,0,0:0:0:0:
320,192,208411,1,0,0:0:0:0:
192,192,208611,128,0,209011:0:0:0:0:
448,192,208611,1,0,0:0:0:0:
320,192,208811,1,0,0:0:0:0:
320,192,209011,128,0,209411:0:0:0:0:
64,192,209011,1,0,0:0:0:0:
192,192,209211,1,0,0:0:0:0:
448,192,209411,128,0,211011:0:0:0:0:
64,192,209411,1,0,0:0:0:0:
320,192,209611,1,0,0:0:0:0:
192,192,209811,1,0,0:0:0:0:
64,192,209811,1,0,0:0:0:0:
192,192,210011,1,0,0:0:0:0:
320,192,210211,1,0,0:0:0:0:
64,192,210211,1,0,0:0:0:0:
192,192,210411,1,0,0:0:0:0:
320,192,210611,1,0,0:0:0:0:
192,192,210611,1,0,0:0:0:0:
320,192,210811,1,0,0:0:0:0:
64,192,211011,128,0,213411:0:0:0:0:
320,192,211011,1,0,0:0:0:0:
192,192,211211,1,0,0:0:0:0:
320,192,211411,1,0,0:0:0:0:
448,192,211411,1,0,0:0:0:0:
320,192,211611,1,0,0:0:0:0:
192,192,211811,1,0,0:0:0:0:
448,192,211811,1,0,0:0:0:0:
448,192,212011,1,0,0:0:0:0:
320,192,212211,1,0,0:0:0:0:
192,192,212211,1,0,0:0:0:0:
320,192,212411,1,0,0:0:0:0:
448,192,212611,1,0,0:0:0:0:
192,192,212611,1,0,0:0:0:0:
320,192,212811,1,0,0:0:0:0:
448,192,213011,1,0,0:0:0:0:
320,192,213011,1,0,0:0:0:0:
320,192,213211,1,0,0:0:0:0:
192,192,213411,128,0,214211:0:0:0:0:
448,192,213411,1,0,0:0:0:0:
320,192,213611,1,0,0:0:0:0:
448,192,213811,1,0,0:0:0:0:
64,192,213811,1,0,0:0:0:0:
320,192,214011,1,0,0:0:0:0:
320,192,214211,128,0,215011:0:0:0:0:
64,192,214211,1,0,0:0:0:0:
192,192,214411,1,0,0:0:0:0:
64,192,214611,1,0,0:0:0:0:
448,192,214611,1,0,0:0:0:0:
64,192,214811,1,0,0:0:0:0:
192,192,215011,128,0,215811:0:0:0:0:
448,192,215011,1,0,0:0:0:0:
320,192,215211,1,0,0:0:0:0:
448,192,215411,1,0,0:0:0:0:
64,192,215411,1,0,0:0:0:0:
320,192,215611,1,0,0:0:0:0:
64,192,215811,128,0,216611:0:0:0:0:
448,192,215811,1,0,0:0:0:0:
320,192,216011,1,0,0:0:0:0:
192,192,216211,1,0,0:0:0:0:
448,192,216211,1,0,0:0:0:0:
320,192,216411,1,0,0:0:0:0:
448,192,216611,1,0,0:0:0:0:
192,192,216711,1,0,0:0:0:0:
320,192,216811,1,0,0:0:0:0:
192,192,216911,1,0,0:0:0:0:
64,192,217011,1,0,0:0:0:0:
192,192,217111,1,0,0:0:0:0:
448,192,217211,1,0,0:0:0:0:
320,192,217311,1,0,0:0:0:0:
64,192,217411,1,0,0:0:0:0:
192,192,217411,128,0,219011:0:0:0:0:
320,192,217611,1,0,0:0:0:0:
448,192,217811,1,0,0:0:0:0:
64,192,217811,1,0,0:0:0:0:
64,192,218011,1,0,0:0:0:0:
320,192,218211,1,0,0:0:0:0:
448,192,218211,1,0,0:0:0:0:
320,192,218411,1,0,0:0:0:0:
320,192,218611,1,0,0:0:0:0:
64,192,218611,1,0,0:0:0:0:
448,192,218811,1,0,0:0:0:0:
320,192,219011,128,0,220611:0:0:0:0:
192,192,219211,1,0,0:0:0:0:
64,192,219411,1,0,0:0:0:0:
448,192,219411,1,0,0:0:0:0:
448,192,219611,1,0,0:0:0:0:
192,192,219811,1,0,0:0:0:0:
64,192,219811,1,0,0:0:0:0:
64,192,220011,1,0,0:0:0:0:
64,192,220211,1,0,0:0:0:0:
448,192,220211,1,0,0:0:0:0:
192,192,220411,1,0,0:0:0:0:
448,192,220611,128,0,221811:0:0:0:0:
64,192,220611,1,0,0:0:0:0:
192,192,220811,1,0,0:0:0:0:
320,192,221011,1,0,0:0:0:0:
64,192,221011,1,0,0:0:0:0:
192,192,221211,1,0,0:0:0:0:
320,192,221411,1,0,0:0:0:0:
192,192,221411,1,0,0:0:0:0:
64,192,221611,1,0,0:0:0:0:
320,192,221811,1,0,0:0:0:0:
192,192,222011,1,0,0:0:0:0:
320,192,222211,1,0,0:0:0:0:
192,192,222211,128,0,223411:0:0:0:0:
320,192,222411,1,0,0:0:0:0:
448,192,222611,1,0,0:0:0:0:
64,192,222611,1,0,0:0:0:0:
448,192,222811,1,0,0:0:0:0:
320,192,223011,1,0,0:0:0:0:
64,192,223011,1,0,0:0:0:0:
448,192,223211,1,0,0:0:0:0:
64,192,223411,128,0,223611:0:0:0:0:
320,192,223411,1,0,0:0:0:0:
192,192,223611,128,0,223811:0:0:0:0:
448,192,223611,1,0,0:0:0:0:
320,192,223811,128,0,224611:0:0:0:0:
64,192,224011,1,0,0:0:0:0:
448,192,224211,1,0,0:0:0:0:
192,192,224211,1,0,0:0:0:0:
64,192,224411,1,0,0:0:0:0:
448,192,224611,128,0,225011:0:0:0:0:
192,192,224611,1,0,0:0:0:0:
320,192,224811,1,0,0:0:0:0:
192,192,225011,128,0,225411:0:0:0:0:
64,192,225411,128,0,226011:0:0:0:0:
448,192,225411,1,0,0:0:0:0:
192,192,225811,1,0,0:0:0:0:
320,192,226011,1,0,0:0:0:0:
448,192,226011,1,0,0:0:0:0:
448,192,226411,128,0,226611:0:0:0:0:
192,192,226411,1,0,0:0:0:0:
64,192,226411,1,0,0:0:0:0:
320,192,226611,128,0,228611:0:0:0:0:
192,192,226611,1,0,0:0:0:0:
64,192,226611,1,0,0:0:0:0:
192,192,227411,1,0,0:0:0:0:
448,192,227411,1,0,0:0:0:0:
192,192,227611,1,0,0:0:0:0:
64,192,227811,1,0,0:0:0:0:
192,192,227811,1,0,0:0:0:0:
448,192,228011,1,0,0:0:0:0:
448,192,228211,1,0,0:0:0:0:
192,192,228211,1,0,0:0:0:0:
64,192,228411,1,0,0:0:0:0:
192,192,228611,128,0,229211:0:0:0:0:
448,192,228611,1,0,0:0:0:0:
448,192,229011,1,0,0:0:0:0:
320,192,229211,1,0,0:0:0:0:
64,192,229211,1,0,0:0:0:0:
448,192,229611,128,0,229811:0:0:0:0:
320,192,229611,1,0,0:0:0:0:
192,192,229611,1,0,0:0:0:0:
320,192,229811,128,0,231811:0:0:0:0:
192,192,229811,1,0,0:0:0:0:
64,192,229811,1,0,0:0:0:0:
192,192,231011,1,0,0:0:0:0:
448,192,231011,1,0,0:0:0:0:
64,192,231211,1,0,0:0:0:0:
192,192,231411,1,0,0:0:0:0:
448,192,231411,1,0,0:0:0:0:
448,192,231611,1,0,0:0:0:0:
64,192,231811,1,0,0:0:0:0:
448,192,231811,1,0,0:0:0:0:
192,192,232611,1,0,0:0:0:0:
64,192,232611,1,0,0:0:0:0:
192,192,233411,1,0,0:0:0:0:
320,192,233411,1,0,0:0:0:0:
320,192,234211,1,0,0:0:0:0:
448,192,234211,1,0,0:0:0:0:
320,192,235011,1,0,0:0:0:0:
64,192,235011,1,0,0:0:0:0:
448,192,235011,1,0,0:0:0:0:
320,192,244211,5,0,0:0:0:0:
192,192,244311,1,0,0:0:0:0:
320,192,244411,1,0,0:0:0:0:
448,192,244611,1,0,0:0:0:0:
320,192,244677,1,0,0:0:0:0:
192,192,244744,1,0,0:0:0:0:
64,192,244811,1,0,0:0:0:0:
192,192,244911,1,0,0:0:0:0:
320,192,245011,1,0,0:0:0:0:
64,192,245411,1,0,0:0:0:0:
192,192,245744,1,0,0:0:0:0:
320,192,246011,1,0,0:0:0:0:
448,192,246211,1,0,0:0:0:0:
320,192,246477,1,0,0:0:0:0:
192,192,246744,1,0,0:0:0:0:
64,192,247011,128,0,247411:0:0:0:0:
192,192,247411,128,0,247811:0:0:0:0:
320,192,247811,128,0,249411:0:0:0:0:
448,192,248411,1,0,0:0:0:0:
64,192,248511,1,0,0:0:0:0:
192,192,248611,1,0,0:0:0:0:
448,192,248711,1,0,0:0:0:0:
192,192,248811,1,0,0:0:0:0:
64,192,248911,1,0,0:0:0:0:
448,192,249411,1,0,0:0:0:0:
192,192,249411,128,0,251011:0:0:0:0:
448,192,250811,1,0,0:0:0:0:
320,192,250911,1,0,0:0:0:0:
64,192,251011,1,0,0:0:0:0:
448,192,251011,1,0,0:0:0:0:
320,192,251011,128,0,251811:0:0:0:0:
64,192,251611,1,0,0:0:0:0:
192,192,251711,1,0,0:0:0:0:
448,192,251811,1,0,0:0:0:0:
192,192,251811,128,0,252611:0:0:0:0:
320,192,253011,128,0,253411:0:0:0:0:
192,192,253011,1,0,0:0:0:0:
192,192,253211,1,0,0:0:0:0:
448,192,253411,128,0,253811:0:0:0:0:
64,192,253411,1,0,0:0:0:0:
192,192,253611,1,0,0:0:0:0:
320,192,253811,128,0,254211:0:0:0:0:
64,192,253811,1,0,0:0:0:0:
192,192,254011,1,0,0:0:0:0:
192,192,254211,128,0,255011:0:0:0:0:
448,192,254211,1,0,0:0:0:0:
320,192,254411,1,0,0:0:0:0:
64,192,254611,1,0,0:0:0:0:
448,192,254811,1,0,0:0:0:0:
320,192,255011,128,0,255811:0:0:0:0:
64,192,255011,1,0,0:0:0:0:
192,192,255211,1,0,0:0:0:0:
448,192,255411,1,0,0:0:0:0:
64,192,255611,1,0,0:0:0:0:
448,192,255811,128,0,256611:0:0:0:0:
192,192,255811,1,0,0:0:0:0:
192,192,256011,1,0,0:0:0:0:
64,192,256211,1,0,0:0:0:0:
192,192,256411,1,0,0:0:0:0:
64,192,256611,1,0,0:0:0:0:
320,192,256811,1,0,0:0:0:0:
192,192,257011,1,0,0:0:0:0:
64,192,257211,1,0,0:0:0:0:
192,192,257411,128,0,258211:0:0:0:0:
448,192,257411,1,0,0:0:0:0:
320,192,257611,1,0,0:0:0:0:
448,192,257811,1,0,0:0:0:0:
64,192,258011,1,0,0:0:0:0:
448,192,258211,128,0,259011:0:0:0:0:
320,192,258211,1,0,0:0:0:0:
192,192,258411,1,0,0:0:0:0:
320,192,258611,1,0,0:0:0:0:
192,192,258811,1,0,0:0:0:0:
320,192,259011,128,0,259811:0:0:0:0:
64,192,259011,1,0,0:0:0:0:
448,192,259211,1,0,0:0:0:0:
192,192,259411,1,0,0:0:0:0:
448,192,259611,1,0,0:0:0:0:
192,192,259811,128,0,260611:0:0:0:0:
64,192,259811,1,0,0:0:0:0:
320,192,260011,1,0,0:0:0:0:
64,192,260211,1,0,0:0:0:0:
448,192,260411,1,0,0:0:0:0:
64,192,260611,128,0,262211:0:0:0:0:
448,192,260611,1,0,0:0:0:0:
448,192,260811,1,0,0:0:0:0:
320,192,261011,1,0,0:0:0:0:
192,192,261211,1,0,0:0:0:0:
320,192,261411,1,0,0:0:0:0:
448,192,261611,1,0,0:0:0:0:
320,192,261811,1,0,0:0:0:0:
448,192,262011,1,0,0:0:0:0:
192,192,262211,128,0,263811:0:0:0:0:
320,192,262211,1,0,0:0:0:0:
448,192,262411,1,0,0:0:0:0:
320,192,262611,1,0,0:0:0:0:
448,192,262811,1,0,0:0:0:0:
320,192,263011,1,0,0:0:0:0:
64,192,263211,1,0,0:0:0:0:
320,192,263411,1,0,0:0:0:0:
448,192,263611,1,0,0:0:0:0:
64,192,263811,1,0,0:0:0:0:
320,192,263811,128,0,264611:0:0:0:0:
448,192,263811,1,0,0:0:0:0:
448,192,264611,128,0,265411:0:0:0:0:
192,192,264611,1,0,0:0:0:0:
64,192,264611,1,0,0:0:0:0:
192,192,265411,128,0,267011:0:0:0:0:
320,192,265411,1,0,0:0:0:0:
448,192,265611,1,0,0:0:0:0:
64,192,265811,1,0,0:0:0:0:
448,192,266011,1,0,0:0:0:0:
320,192,266211,1,0,0:0:0:0:
64,192,266411,1,0,0:0:0:0:
320,192,266611,1,0,0:0:0:0:
448,192,266611,1,0,0:0:0:0:
320,192,266811,1,0,0:0:0:0:
448,192,267011,1,0,0:0:0:0:
64,192,267011,1,0,0:0:0:0:
320,192,267211,1,0,0:0:0:0:
448,192,267411,1,0,0:0:0:0:
192,192,267611,1,0,0:0:0:0:
320,192,267811,1,0,0:0:0:0:
192,192,267811,1,0,0:0:0:0:
64,192,268011,1,0,0:0:0:0:
448,192,268211,1,0,0:0:0:0:
192,192,268411,1,0,0:0:0:0:
448,192,268611,1,0,0:0:0:0:
320,192,268611,1,0,0:0:0:0:
64,192,268811,1,0,0:0:0:0:
320,192,269011,1,0,0:0:0:0:
448,192,269211,1,0,0:0:0:0:
320,192,269411,1,0,0:0:0:0:
192,192,269411,1,0,0:0:0:0:
64,192,269611,1,0,0:0:0:0:
448,192,269811,1,0,0:0:0:0:
64,192,269811,1,0,0:0:0:0:
320,192,270011,1,0,0:0:0:0:
192,192,270211,1,0,0:0:0:0:
64,192,270211,1,0,0:0:0:0:
320,192,271011,1,0,0:0:0:0:
320,192,272544,1,0,0:0:0:0:
192,192,272611,1,0,0:0:0:0:
