osu file format v14

[General]
AudioFilename: audio.mp3
AudioLeadIn: 0
PreviewTime: 64149
Countdown: 0
SampleSet: Soft
StackLeniency: 0.3
Mode: 0
LetterboxInBreaks: 0
WidescreenStoryboard: 0

[Editor]
Bookmarks: 2150,18150,34150,50150,66150,74150,82150,90150,98150,114150,130149,145650,178150,194150,214150,242150,274150
DistanceSpacing: 0.8
BeatDivisor: 12
GridSize: 8
TimelineZoom: 1

[Metadata]
Title:Wildflower (feat. juu)
TitleUnicode:Wildflower (feat. juu)
Artist:AIKA
ArtistUnicode:AIKA
Creator:Azuelle
Version:Blossoms
Source:
Tags:electronic future bass house California English AIKA Wildflower juu Kuse KuBsNia_ZhoYL_ Muziyami lp_blue
BeatmapID:2222991
BeatmapSetID:1061565

[Difficulty]
HPDrainRate:6
CircleSize:3.6
OverallDifficulty:8
ApproachRate:9
SliderMultiplier:2
SliderTickRate:1

[Events]
//Background and Video events
0,0,"flowers-upscale.jpg",0,0
//Break Periods
2,132350,136550
//Storyboard Layer 0 (Background)
//Storyboard Layer 1 (Fail)
//Storyboard Layer 2 (Pass)
//Storyboard Layer 3 (Foreground)
//Storyboard Layer 4 (Overlay)
//Storyboard Sound Samples

[TimingPoints]
150,500,4,1,10,100,1,0
2150,-133.333333333333,4,2,10,20,0,0
9066,-66.6666666666667,4,2,10,20,0,0
9150,-133.333333333333,4,2,10,20,0,0
16650,-133.333333333333,4,1,10,20,0,0
17150,-133.333333333333,4,1,10,30,0,0
17650,-133.333333333333,4,1,10,40,0,0
18150,-100,4,1,12,50,0,0
26150,-100,4,1,12,50,0,0
30150,-100,4,1,12,50,0,0
32149,-133.333333333333,4,1,10,50,0,0
33147,-100,4,1,10,50,0,0
34150,-200,4,2,10,30,0,0
39483,-200,4,2,10,5,0,0
39650,-200,4,2,10,30,0,0
39983,-200,4,2,10,5,0,0
40150,-200,4,2,10,30,0,0
41150,-200,4,2,10,30,0,0
42150,-200,4,2,10,30,0,0
44150,-200,4,2,10,30,0,0
44483,-200,4,2,10,5,0,0
44650,-200,4,2,10,30,0,0
46150,-200,4,2,10,30,0,0
46483,-200,4,2,10,5,0,0
46650,-200,4,2,10,30,0,0
47150,-200,4,2,10,30,0,0
47483,-200,4,2,10,5,0,0
47650,-200,4,2,10,30,0,0
47983,-200,4,2,10,5,0,0
48150,-200,4,2,10,30,0,0
49480,-200,4,1,10,20,0,0
49650,-200,4,1,10,25,0,0
49816,-200,4,1,10,30,0,0
49983,-200,4,1,10,35,0,0
50150,-100,4,1,12,40,0,0
62150,-100,4,1,11,60,0,0
62316,-100,4,1,10,40,0,0
64149,-400,4,1,10,30,0,0
64649,-200,4,1,10,30,0,0
65149,-100,4,1,10,30,0,0
65650,-100,4,1,11,80,0,0
66150,-83.3333333333333,4,1,11,100,0,0
67150,-400,4,1,11,100,0,0
68150,-83.3333333333333,4,1,11,100,0,0
69150,-400,4,1,11,100,0,0
70150,-83.3333333333333,4,1,11,100,0,0
71150,-400,4,1,11,100,0,0
72150,-83.3333333333333,4,1,11,100,0,0
74150,-83.3333333333333,4,1,11,100,0,0
75150,-200,4,1,11,100,0,0
76150,-83.3333333333333,4,1,11,100,0,0
77150,-200,4,1,11,100,0,0
78150,-83.3333333333333,4,1,11,100,0,0
79150,-50,4,1,11,100,0,0
79650,-133.333333333333,4,1,11,100,0,0
80150,-83.3333333333333,4,1,11,100,0,0
80650,-133.333333333333,4,1,11,50,0,0
81650,-1000,4,1,11,100,0,0
82150,-83.3333333333333,4,1,11,100,0,1
83150,-333.333333333333,4,1,11,100,0,1
84150,-83.3333333333333,4,1,11,100,0,1
85150,-333.333333333333,4,1,11,100,0,1
86150,-83.3333333333333,4,1,11,100,0,1
87150,-333.333333333333,4,1,11,100,0,1
88150,-83.3333333333333,4,1,11,100,0,1
95150,-333.333333333333,4,1,11,100,0,1
96150,-100,4,1,11,100,0,0
96650,-200,4,1,11,100,0,0
97650,-1000,4,1,11,100,0,0
98150,-66.6666666666667,4,1,11,100,0,1
112150,-66.6666666666667,4,1,11,100,0,1
112650,-133.333333333333,4,1,11,100,0,1
113150,-66.6666666666667,4,1,11,100,0,1
113650,-33.3333333333333,4,1,11,100,0,1
114150,-66.6666666666667,4,1,11,100,0,1
115150,-133.333333333333,4,1,11,100,0,1
115650,-66.6666666666667,4,1,11,100,0,1
117150,-133.333333333333,4,1,11,100,0,1
117650,-66.6666666666667,4,1,11,100,0,1
119150,-133.333333333333,4,1,11,100,0,1
119650,-66.6666666666667,4,1,11,100,0,1
121150,-133.333333333333,4,1,11,100,0,1
121650,-66.6666666666667,4,1,11,100,0,1
121816,-400,4,1,11,100,0,1
122150,-66.6666666666667,4,1,11,100,0,1
123150,-133.333333333333,4,1,11,100,0,1
123650,-66.6666666666667,4,1,11,100,0,1
125150,-133.333333333333,4,1,11,100,0,1
125650,-66.6666666666667,4,1,11,100,0,1
127150,-133.333333333333,4,1,11,100,0,1
127650,-66.6666666666667,4,1,11,100,0,1
130149,-66.6666666666667,4,1,11,100,0,1
130316,-133.333333333333,4,2,10,5,0,0
137150,-133.333333333333,4,2,10,15,0,0
137650,-100,4,2,10,20,0,0
138150,-133.333333333333,4,2,10,25,0,0
138816,-80,4,2,10,25,0,0
139150,-100,4,2,10,25,0,0
139650,-133.333333333333,4,2,10,25,0,0
142816,-80,4,2,10,25,0,0
143150,-133.333333333333,4,2,10,25,0,0
145066,-66.6666666666667,4,2,10,25,0,0
145650,-200,4,2,10,30,0,0
145983,-200,4,2,10,5,0,0
146150,-133.333333333333,4,2,10,30,0,0
147150,-250,4,2,10,30,0,0
149150,-133.333333333333,4,2,10,30,0,0
150150,-100,4,2,10,30,0,0
151150,-400,4,2,10,30,0,0
152650,-100,4,2,10,50,0,0
153150,-200,4,2,10,50,0,0
154150,-200,4,2,10,30,0,0
155150,-133.333333333333,4,2,10,30,0,0
157150,-100,4,2,10,30,0,0
157650,-66.6666666666667,4,2,10,30,0,0
158150,-133.333333333333,4,2,10,30,0,0
159150,-200,4,2,10,30,0,0
160150,-400,4,2,10,30,0,0
162150,-200,4,2,10,30,0,0
163483,-200,4,2,10,5,0,0
163650,-200,4,2,10,30,0,0
165983,-200,4,2,10,5,0,0
166150,-200,4,2,10,20,0,0
167483,-200,4,2,10,5,0,0
167650,-200,4,2,10,20,0,0
168483,-200,4,2,10,5,0,0
168650,-133.333333333333,4,2,10,30,0,0
168983,-133.333333333333,4,2,10,5,0,0
169150,-133.333333333333,4,2,10,30,0,0
169316,-133.333333333333,4,2,10,5,0,0
169483,-133.333333333333,4,2,10,30,0,0
169983,-133.333333333333,4,2,10,5,0,0
170150,-200,4,2,10,50,0,0
171650,-100,4,2,10,30,0,0
172650,-133.333333333333,4,2,10,30,0,0
174150,-200,4,2,10,30,0,0
178150,-100,4,2,11,40,0,0
178316,-100,4,2,12,40,0,0
179150,-133.333333333333,4,2,12,40,0,0
182150,-100,4,2,12,40,0,0
183150,-133.333333333333,4,2,12,40,0,0
185150,-66.6666666666667,4,2,12,40,0,0
186150,-100,4,2,12,40,0,0
187150,-133.333333333333,4,2,12,40,0,0
190150,-100,4,2,12,40,0,0
191150,-133.333333333333,4,2,12,40,0,0
192150,-133.333333333333,4,2,10,40,0,0
192983,-100,4,2,10,25,0,0
193150,-133.333333333333,4,2,10,40,0,0
194150,-100,4,1,11,40,0,0
194650,-100,4,1,12,40,0,0
194983,-100,4,1,12,40,0,0
201650,-100,4,1,12,50,0,0
202150,-100,4,1,12,60,0,0
204650,-100,4,1,12,70,0,0
206150,-400,4,1,12,80,0,0
208150,-100,4,1,12,90,0,0
209150,-50,4,1,12,100,0,0
209650,-1000,4,1,12,100,0,0
209983,-1000,4,1,12,5,0,0
210150,-83.3333333333333,4,1,11,100,0,0
213150,-500,4,1,10,100,0,0
213650,-83.3333333333333,4,1,11,100,0,0
214150,-100,4,1,11,100,0,1
225650,-142.857142857143,4,1,11,80,0,1
226150,-100,4,1,11,100,0,1
240150,-200,4,1,11,60,0,0
241650,-1000,4,1,10,60,0,0
242150,-83.3333333333333,4,1,11,100,0,1
256649,-83.3333333333333,4,1,10,100,0,1
257149,-83.3333333333333,4,1,11,100,0,1
257649,-33.3333333333333,4,1,10,100,0,1
258149,-83.3333333333333,4,1,11,100,0,1
259149,-133.333333333333,4,1,11,100,0,1
259649,-83.3333333333333,4,1,11,100,0,1
263150,-133.333333333333,4,1,11,100,0,1
263650,-83.3333333333333,4,1,11,100,0,1
267150,-133.333333333333,4,1,11,100,0,1
267650,-83.3333333333333,4,1,11,100,0,1
271150,-133.333333333333,4,1,11,100,0,1
271650,-83.3333333333333,4,1,11,100,0,1
274150,-133.333333333333,4,2,10,20,0,0
281066,-66.6666666666667,4,2,10,20,0,0
281150,-133.333333333333,4,2,10,20,0,0
289066,-66.6666666666667,4,2,10,20,0,0
289150,-133.333333333333,4,2,10,20,0,0
292150,-133.333333333333,4,2,10,5,0,0

[Colours]
Combo1 : 115,91,196
Combo2 : 237,184,194
Combo3 : 190,216,219
Combo4 : 247,175,157
Combo5 : 156,150,178
Combo6 : 237,94,120
Combo7 : 78,205,219
Combo8 : 248,112,78
SliderTrackOverride : 39,49,56

[HitObjects]
330,110,2150,6,0,P|338:186|391:237,1,150.000005722046,4|0,0:0|0:0,0:0:0:0:
388,235,3650,1,0,0:0:0:0:
388,235,4150,1,0,0:0:0:0:
301,325,4483,2,0,P|278:337|241:347,1,50.0000019073487
157,324,6150,6,0,P|221:334|265:348,2,100.000003814697,0|0|0,0:0|0:0|0:0,0:0:0:0:
255,345,7150,1,0,0:0:0:0:
119,316,7650,1,0,0:0:0:0:
77,183,8150,1,0,0:0:0:0:
245,39,9066,38,2,L|250:75,2,25.0000009536744,0|0|0,0:0|0:0|0:0,0:0:0:0:
353,74,9650,85,0,0:0:0:0:
86,156,10150,6,0,P|159:152|210:205,1,150.000005722046
209,203,11650,1,0,0:0:0:0:
209,203,12150,1,0,0:0:0:0:
282,272,12483,1,0,0:0:0:0:
308,256,12650,1,0,0:0:0:0:
308,256,14150,70,0,P|357:273|408:280,2,100.000003814697,0|0|0,0:0|0:0|0:0,0:0:0:0:
404,280,15150,1,0,0:0:0:0:
291,182,15650,1,0,0:0:0:0:
320,35,16150,2,0,P|319:83|356:124,1,100.000003814697
249,151,16650,53,0,0:0:0:0:
188,222,16816,1,4,0:0:0:0:
282,240,16983,1,4,0:0:0:0:
218,143,17150,5,0,0:0:0:0:
197,253,17316,1,4,0:0:0:0:
306,215,17483,1,4,0:0:0:0:
183,159,17650,5,0,0:0:0:0:
227,286,17816,1,4,0:0:0:0:
317,182,17983,1,4,0:0:0:0:
130,315,18150,86,0,B|219:301|243:371|341:340,1,200,4|4,0:0|0:0,0:0:0:0:
445,284,18983,1,0,0:0:0:0:
484,222,19150,2,0,P|473:150|451:83,1,133.333333333333,4|0,0:0|0:0,0:0:0:0:
381,20,19650,1,6,0:0:0:0:
301,111,19816,1,0,0:0:0:0:
188,92,19983,1,0,0:0:0:0:
97,250,20150,6,0,B|130:285|154:334|154:334|212:343|257:306,1,200,4|4,0:0|0:0,0:0:0:0:
40,105,20983,1,0,0:0:0:0:
80,43,21150,2,0,P|152:33|219:39,1,133.333333333333,4|0,0:0|0:0,0:0:0:0:
233,132,21650,2,0,P|188:62|267:45,1,133.333333333333,6|0,0:0|0:0,0:0:0:0:
303,74,22150,6,0,B|336:114|321:161|321:161|375:182|425:164,1,200,4|4,0:0|0:0,0:0:0:0:
485,60,22983,1,0,0:0:0:0:
416,32,23150,2,0,P|338:33|279:42,1,133.333333333333,4|0,0:0|0:0,0:0:0:0:
189,160,23650,1,4,0:0:0:0:
138,281,23816,1,0,0:0:0:0:
269,265,23983,1,0,0:0:0:0:
341,140,24150,6,0,B|389:126|432:148|432:148|463:196|440:252,1,200,4|4,0:0|0:0,0:0:0:0:
361,322,24983,1,0,0:0:0:0:
161,323,25150,1,4,0:0:0:0:
144,351,25483,69,0,0:0:0:0:
369,354,25650,2,0,P|306:332|239:333,1,133.333333333333,4|0,0:0|0:0,0:0:0:0:
48,205,26150,54,0,P|110:83|181:200,1,333.333333333333,4|0,0:0|0:0,0:0:0:0:
114,161,27150,6,0,B|335:153|216:242|456:223,1,333.333333333333,4|0,0:0|0:0,0:0:0:0:
461,97,28150,6,0,B|478:192|448:321|448:321|432:259|392:215,1,333.333333333333,4|0,0:0|0:0,0:0:0:0:
269,231,29150,21,4,0:0:0:0:
320,304,29316,1,0,0:0:0:0:
231,311,29483,1,0,0:0:0:0:
323,246,29650,5,4,0:0:0:0:
278,343,29816,1,0,0:0:0:0:
217,255,29983,1,0,0:0:0:0:
395,337,30150,6,0,B|434:303|483:297|483:297|462:240|414:214,1,200,4|4,0:0|0:0,0:0:0:0:
216,124,30983,1,0,0:0:0:0:
149,154,31150,2,0,P|115:216|92:289,1,133.333333333333,4|0,0:0|0:0,0:0:0:0:
311,193,31650,2,0,P|368:227|395:294,1,133.333333333333,4|0,0:0|0:0,0:0:0:0:
286,299,32150,69,6,0:0:0:0:
211,187,32649,2,0,B|269:177|269:177|310:192,1,100.000003814697,0|0,0:0|0:0,0:0:0:0:
211,187,33150,2,0,P|243:243|199:284,1,133.333333333333,4|0,2:0|2:0,2:0:0:0:
73,170,33650,1,0,0:0:0:0:
387,240,34150,69,6,0:0:0:0:
239,179,34650,2,0,L|205:182,2,33.3333333333333,0|0|0,0:0|0:0|0:0,0:0:0:0:
319,173,35150,2,0,P|304:226|258:257,1,100,0|0,0:0|0:0,0:0:0:0:
193,263,36150,5,2,0:0:0:0:
432,282,36650,2,0,L|461:263,2,33.3333333333333,0|0|0,0:0|0:0|0:0,0:0:0:0:
361,328,37150,2,0,P|349:264|364:231,1,100,0|0,0:0|0:0,0:0:0:0:
454,130,38150,5,2,0:0:0:0:
263,46,38650,1,0,0:0:0:0:
227,66,38816,1,0,0:0:0:0:
262,86,38983,1,0,0:0:0:0:
71,62,39150,2,0,P|52:89|46:122,1,66.6666666666667,0|0,0:0|0:0,0:0:0:0:
121,120,39650,2,0,P|140:93|147:61,1,66.6666666666667,0|0,0:0|0:0,0:0:0:0:
84,186,40150,5,2,0:0:0:0:
101,301,40650,1,0,0:0:0:0:
82,266,40816,1,0,0:0:0:0:
62,301,40983,1,0,0:0:0:0:
257,227,41150,2,0,P|266:214|274:199,1,33.3333333333333,2|0,0:0|0:0,0:0:0:0:
197,155,41483,2,0,P|180:153|163:153,1,33.3333333333333,2|0,0:0|0:0,0:0:0:0:
166,241,41816,2,0,P|171:256|180:270,1,33.3333333333333,2|0,0:0|0:0,0:0:0:0:
309,345,42150,69,2,0:0:0:0:
474,214,42650,2,0,L|497:263,2,33.3333333333333,0|0|0,0:0|0:0|0:0,0:0:0:0:
442,144,43150,2,0,P|401:190|399:230,1,100,4|0,0:0|0:0,0:0:0:0:
411,76,44150,6,0,P|381:40|362:31,1,66.6666666666667,2|0,0:0|0:0,0:0:0:0:
303,101,44650,2,0,L|338:107,2,33.3333333333333,0|0|0,0:0|0:0|0:0,0:0:0:0:
221,87,45150,2,0,P|226:133|271:178,1,100,4|0,0:0|0:0,0:0:0:0:
141,31,46150,6,0,P|127:99|112:112,1,66.6666666666667,2|0,0:0|0:0,0:0:0:0:
61,146,46650,1,0,0:0:0:0:
21,149,46816,1,0,0:0:0:0:
38,112,46983,1,0,0:0:0:0:
134,238,47150,2,0,P|125:276|98:305,1,66.6666666666667,4|0,0:0|0:0,0:0:0:0:
33,299,47650,2,0,P|42:261|69:232,1,66.6666666666667,0|0,0:0|0:0,0:0:0:0:
72,366,48150,5,2,0:0:0:0:
168,224,48650,2,0,P|141:229|122:244,1,33.3333333333333,2|0,0:0|0:0,0:0:0:0:
118,251,48983,1,0,0:0:0:0:
120,277,49150,1,0,0:0:0:0:
280,312,49483,6,0,L|276:329,1,16.6666666666667,8|0,0:0|0:0,0:0:0:0:
356,218,49650,6,0,L|352:235,1,16.6666666666667,8|0,0:0|0:0,0:0:0:0:
273,86,49816,6,0,L|269:103,1,16.6666666666667,8|0,0:0|0:0,0:0:0:0:
110,129,49983,6,0,L|106:146,1,16.6666666666667,8|0,0:0|0:0,0:0:0:0:
90,336,50150,70,0,B|205:213|205:213|254:220,1,200,4|0,0:0|0:0,0:0:0:0:
385,239,50983,1,0,0:0:0:0:
477,253,51150,2,0,B|395:359|395:359|363:291,1,200,4|0,0:0|0:0,0:0:0:0:
273,101,51983,5,0,0:0:0:0:
241,33,52150,2,0,B|125:72|125:72|165:162,1,200,4|0,0:0|0:0,0:0:0:0:
218,283,52983,1,0,0:0:0:0:
251,355,53150,2,0,B|320:342|320:342|353:265,1,133.333333333333,4|0,0:0|0:0,0:0:0:0:
425,97,53650,53,8,0:0:0:0:
267,221,53816,1,0,0:0:0:0:
454,296,53983,1,0,0:0:0:0:
408,229,54150,70,4,B|317:95|317:95|369:79,1,200,0|0,0:0|0:0,0:0:0:0:
457,54,54983,1,0,0:0:0:0:
452,232,55150,1,8,0:0:0:0:
451,265,55483,1,0,0:0:0:0:
392,72,55650,1,8,0:0:0:0:
424,63,55983,1,0,0:0:0:0:
132,202,56150,6,0,P|173:138|233:132,1,133.333333333333,4|0,0:0|0:0,0:0:0:0:
167,273,56650,2,0,P|91:269|55:220,1,133.333333333333,4|0,0:0|0:0,0:0:0:0:
210,207,57150,2,0,P|244:274|220:329,1,133.333333333333,4|0,0:0|0:0,0:0:0:0:
169,227,57650,53,0,0:0:0:0:
169,227,57816,1,0,0:0:0:0:
169,227,57983,1,0,0:0:0:0:
170,140,58150,5,6,0:0:0:0:
186,111,58316,1,0,0:0:0:0:
202,82,58483,1,0,0:0:0:0:
282,81,58650,53,6,0:0:0:0:
322,80,58816,1,0,0:0:0:0:
362,80,58983,1,0,0:0:0:0:
295,195,59150,69,6,0:0:0:0:
261,251,59316,1,0,0:0:0:0:
228,310,59483,1,0,0:0:0:0:
383,356,59650,53,6,0:0:0:0:
339,275,59816,1,0,0:0:0:0:
295,195,59983,1,0,0:0:0:0:
260,83,60150,69,6,0:0:0:0:
295,195,60316,1,0,0:0:0:0:
183,232,60483,1,0,0:0:0:0:
146,119,60650,53,6,0:0:0:0:
295,195,60816,1,0,0:0:0:0:
219,344,60983,1,0,0:0:0:0:
211,115,61150,70,0,L|195:152,1,33.3333333333333,6|0,0:0|0:0,0:0:0:0:
238,299,61316,2,0,L|199:252,1,33.3333333333333,0|0,0:0|0:0,0:0:0:0:
64,231,61483,2,0,L|121:222,1,33.3333333333333,0|0,0:0|0:0,0:0:0:0:
295,195,61650,54,0,L|243:203,1,33.3333333333333,6|0,0:0|0:0,0:0:0:0:
124,330,61816,2,0,L|145:278,1,33.3333333333333,0|0,0:0|0:0,0:0:0:0:
92,116,61983,2,0,L|126:160,1,33.3333333333333,0|0,0:0|0:0,0:0:0:0:
256,192,62150,5,4,0:2:0:0:
256,192,62316,12,0,63983,0:0:0:0:
126,190,64149,54,0,L|110:195,2,16.6666666666667
228,283,64649,6,0,L|194:252,2,33.3333333333333
427,220,65149,6,0,L|360:241,2,66.6666666666667
397,360,65650,37,4,0:0:0:0:
427,220,65816,1,4,0:0:0:0:
321,123,65983,1,4,0:0:0:0:
123,104,66150,102,0,P|117:204|198:251,1,159.999995117188,4|0,0:0|0:0,0:0:0:0:
256,248,66650,1,4,0:0:0:0:
256,64,66816,1,0,0:0:0:0:
256,64,66983,1,0,0:0:0:0:
116,285,67150,54,0,B|116:309|116:309|120:320,1,33.3333333333333,6|0,0:0|0:0,0:0:0:0:
392,317,67650,2,0,B|396:309|396:309|396:285,1,33.3333333333333,4|0,0:0|0:0,0:0:0:0:
259,71,68150,70,0,P|159:65|112:146,1,159.999995117188,4|0,0:0|0:0,0:0:0:0:
104,192,68650,1,4,0:0:0:0:
408,192,68816,1,0,0:0:0:0:
408,192,68983,1,0,0:0:0:0:
259,71,69150,54,0,B|254:87|254:87|260:102|260:102,1,33.3333333333333,6|0,0:0|0:0,0:0:0:0:
253,325,69650,2,0,B|258:308|258:308|252:293|252:293,1,33.3333333333333,4|0,0:0|0:0,0:0:0:0:
377,136,70150,70,0,P|424:196|409:272,1,159.999995117188,4|0,0:0|0:0,0:0:0:0:
253,325,70650,1,4,0:0:0:0:
200,143,70816,1,0,0:0:0:0:
200,143,70983,1,0,0:0:0:0:
426,175,71150,54,0,L|387:186,1,33.3333333333333,6|0,0:0|0:0,0:0:0:0:
226,235,71650,1,4,0:0:0:0:
226,235,71816,1,0,0:0:0:0:
173,53,71983,1,0,0:0:0:0:
426,175,72150,70,0,P|436:250|385:308,1,159.999995117188,4|0,0:0|0:0,0:0:0:0:
135,260,72650,1,4,0:0:0:0:
200,142,72816,1,0,0:0:0:0:
317,207,72983,1,0,0:0:0:0:
99,269,73150,54,0,L|26:236,1,79.9999975585938,6|0,0:0|0:0,0:0:0:0:
163,135,73483,1,4,0:0:0:0:
181,304,73649,1,4,0:0:0:0:
26,236,73816,2,0,B|91:187,1,79.9999975585938,4|0,0:0|0:0,0:0:0:0:
337,118,74150,6,0,P|253:58|190:64,1,159.999995117188,4|0,0:0|0:0,0:0:0:0:
165,192,74650,1,4,0:0:0:0:
193,299,74816,1,0,0:0:0:0:
300,271,74983,1,0,0:0:0:0:
360,141,75150,54,0,L|326:107,2,33.3333333333333,6|0|0,0:0|0:0|0:0,0:0:0:0:
141,168,75650,2,0,L|175:202,2,33.3333333333333,4|0|0,0:0|0:0|0:0,0:0:0:0:
225,49,76150,70,0,P|131:80|83:154,1,159.999995117188,0|0,0:0|0:0,0:0:0:0:
193,299,76650,1,4,0:0:0:0:
300,271,76816,1,0,0:0:0:0:
272,164,76983,1,0,0:0:0:0:
162,297,77150,54,0,L|149:330,2,33.3333333333333,0|0|0,0:0|0:0|0:0,0:0:0:0:
303,164,77650,2,0,L|316:131,2,33.3333333333333,0|0|0,0:0|0:0|0:0,0:0:0:0:
162,297,78150,70,0,P|231:354|298:335,1,159.999995117188,0|0,0:0|0:0,0:0:0:0:
394,212,78650,1,4,0:0:0:0:
384,101,78816,1,0,0:0:0:0:
274,110,78983,1,0,0:0:0:0:
124,212,79150,54,0,B|133:267|133:267|129:271|129:271|135:301|135:301|140:303|140:303|147:339,1,133.333333333333,6|0,0:0|0:0,0:0:0:0:
208,243,79483,1,0,0:0:0:0:
267,162,79650,22,0,B|258:118|258:118|252:116|252:116|255:111|255:111|246:66,1,100.000003814697,4|0,0:0|0:0,0:0:0:0:
338,52,80150,102,0,P|389:51|463:131,1,159.999995117188,4|0,0:0|0:0,0:0:0:0:
365,147,80650,2,0,L|239:166,1,100.000003814697,4|0,0:0|0:0,0:0:0:0:
167,176,81150,2,0,L|293:157,1,100.000003814697,4|0,0:0|0:0,0:0:0:0:
332,241,81650,54,0,B|328:255,1,13.3333333333333,6|0,0:0|0:0,0:0:0:0:
96,87,82150,70,0,P|117:151|212:174,1,159.999995117188,4|0,0:0|0:0,0:0:0:0:
402,57,82650,1,12,0:0:0:0:
424,285,82816,1,0,0:0:0:0:
424,285,82983,1,0,0:0:0:0:
169,53,83150,54,0,B|155:67|155:67|150:93,1,39.9999987792969,6|0,0:0|0:0,0:0:0:0:
343,343,83650,2,0,B|356:328|356:328|361:302,1,39.9999987792969,12|0,0:0|0:0,0:0:0:0:
444,78,84150,70,0,P|466:150|410:202,1,159.999995117188,4|0,0:0|0:0,0:0:0:0:
198,75,84650,1,12,0:0:0:0:
207,322,84816,1,0,0:0:0:0:
207,322,84983,1,0,0:0:0:0:
353,82,85150,54,0,B|396:87,1,39.9999987792969,6|0,0:0|0:0,0:0:0:0:
158,314,85650,2,0,B|115:308,1,39.9999987792969,12|0,0:0|0:0,0:0:0:0:
372,286,86150,70,0,P|421:230|389:162,1,159.999995117188,4|0,0:0|0:0,0:0:0:0:
147,130,86650,1,12,0:0:0:0:
354,222,86816,1,0,0:0:0:0:
354,222,86983,1,0,0:0:0:0:
81,325,87150,54,0,B|102:330|102:330|124:328,1,39.9999987792969,6|0,0:0|0:0,0:0:0:0:
298,294,87650,1,12,0:0:0:0:
241,232,87816,1,0,0:0:0:0:
216,313,87983,1,0,0:0:0:0:
356,209,88150,70,0,P|400:277|384:349,1,159.999995117188,4|0,0:0|0:0,0:0:0:0:
104,263,88650,1,12,0:0:0:0:
146,129,88816,1,0,0:0:0:0:
241,232,88983,1,0,0:0:0:0:
85,255,89150,53,6,0:0:0:0:
222,225,89316,1,0,0:0:0:0:
129,118,89483,85,4,0:0:0:0:
259,239,89650,1,8,0:0:0:0:
318,53,89816,101,4,0:0:0:0:
280,248,89983,1,0,0:0:0:0:
205,84,90150,54,0,P|155:143|170:219,1,159.999995117188,4|0,0:0|0:0,0:0:0:0:
307,331,90650,1,12,0:0:0:0:
415,214,90816,1,0,0:0:0:0:
260,179,90983,1,0,0:3:0:0:
152,295,91150,53,6,0:0:0:0:
229,313,91316,1,0,0:0:0:0:
307,331,91483,1,0,0:0:0:0:
415,214,91650,1,12,0:0:0:0:
338,197,91817,1,0,0:0:0:0:
260,179,91983,1,0,0:0:0:0:
100,90,92150,70,0,P|176:34|242:56,1,159.999995117188,4|0,0:0|0:0,0:0:0:0:
397,148,92650,1,12,0:0:0:0:
286,239,92816,1,0,0:0:0:0:
262,97,92983,1,0,0:0:0:0:
437,297,93150,53,6,0:0:0:0:
360,269,93316,1,0,0:0:0:0:
286,239,93483,1,0,0:0:0:0:
262,97,93650,1,12,0:0:0:0:
336,127,93816,1,0,0:0:0:0:
413,155,93983,1,0,0:0:0:0:
233,189,94150,70,0,P|217:112|150:75,1,159.999995117188,4|0,0:0|0:0,0:0:0:0:
25,267,94650,1,12,0:0:0:0:
169,321,94816,1,0,0:0:0:0:
144,167,94983,1,0,0:0:0:0:
37,198,95150,54,0,B|49:213|49:213|72:220,1,39.9999987792969,6|0,0:0|0:0,0:0:0:0:
247,138,95650,2,0,B|235:123|235:123|212:116,1,39.9999987792969,12|0,0:0|0:0,0:0:0:0:
206,294,96150,70,0,P|231:348|305:364,1,133.333333333333,4|0,0:0|0:0,0:0:0:0:
314,285,96650,2,0,L|269:294,2,33.3333333333333,0|0|0,0:0|0:0|0:0,0:0:0:0:
388,270,97150,54,0,P|406:218|397:187,1,66.6666666666667,2|0,0:0|0:0,0:0:0:0:
462,296,97650,70,0,B|476:302,1,13.3333333333333
241,174,98150,54,0,B|210:170|210:170|226:249,1,100.000003814697,4|0,0:0|0:0,0:0:0:0:
327,186,98483,1,0,0:0:0:0:
352,43,98650,2,0,B|321:39|321:39|337:118,1,100.000003814697,8|0,0:0|0:0,0:0:0:0:
438,55,98983,1,0,0:0:0:0:
189,49,99150,53,6,0:0:0:0:
119,72,99316,1,0,0:0:0:0:
50,95,99483,1,0,0:0:0:0:
144,264,99650,1,10,0:0:0:0:
158,191,99816,1,0,0:0:0:0:
173,119,99983,1,0,0:0:0:0:
292,223,100150,70,0,B|346:270|346:270|317:280,1,100.000003814697,4|0,0:0|0:0,0:0:0:0:
271,206,100483,1,0,0:0:0:0:
411,228,100650,2,0,B|465:275|465:275|436:285,1,100.000003814697,8|0,0:0|0:0,0:0:0:0:
390,211,100983,1,0,0:0:0:0:
308,349,101150,53,6,0:0:0:0:
248,308,101316,1,0,0:0:0:0:
189,267,101483,1,0,0:0:0:0:
183,339,101650,1,10,0:0:0:0:
201,123,101816,1,0,0:0:0:0:
195,195,101983,1,0,0:0:0:0:
266,96,102150,70,0,B|266:167|266:167|292:152,1,100.000003814697,4|0,0:0|0:0,0:0:0:0:
474,62,102483,1,0,0:0:0:0:
474,160,102650,2,0,B|473:88|473:88|447:103,1,100.000003814697,8|0,0:0|0:0,0:0:0:0:
265,194,102983,1,0,0:0:0:0:
316,361,103150,53,6,0:0:0:0:
400,333,103316,1,0,0:0:0:0:
482,305,103483,1,0,0:0:0:0:
370,102,103650,1,10,0:0:0:0:
353,190,103816,1,0,0:0:0:0:
335,277,103983,1,0,0:0:0:0:
262,242,104150,70,0,B|243:233|243:233|319:196,1,100.000003814697,4|0,0:0|0:0,0:0:0:0:
481,114,104483,1,0,0:0:0:0:
479,186,104650,2,0,B|480:205|480:205|410:158,1,100.000003814697,8|0,0:0|0:0,0:0:0:0:
268,60,104983,1,0,0:0:0:0:
202,110,105150,53,6,0:0:0:0:
278,142,105316,1,0,0:0:0:0:
212,192,105483,1,0,0:0:0:0:
344,94,105650,69,10,0:0:0:0:
146,242,105816,1,4,0:0:0:0:
223,275,105983,1,0,0:0:0:0:
87,319,106150,54,0,B|64:337|64:337|132:364,1,100.000003814697,4|0,0:0|0:0,0:0:0:0:
189,235,106483,1,0,0:0:0:0:
112,202,106650,2,0,B|89:220|89:220|157:247,1,100.000003814697,8|0,0:0|0:0,0:0:0:0:
214,118,106983,1,0,0:0:0:0:
39,33,107150,53,4,0:0:0:0:
38,77,107317,1,0,0:0:0:0:
37,121,107483,1,0,0:0:0:0:
175,53,107650,1,10,0:0:0:0:
113,18,107816,1,0,0:0:0:0:
112,92,107983,1,0,0:0:0:0:
237,88,108150,70,0,B|314:86|314:86|296:112,1,100.000003814697,4|0,0:0|0:0,0:0:0:0:
214,228,108483,1,0,0:0:0:0:
153,228,108650,2,0,B|112:162|112:162|144:164,1,100.000003814697,8|0,0:0|0:0,0:0:0:0:
317,175,108983,1,0,0:0:0:0:
232,333,109150,53,6,0:0:0:0:
220,306,109316,1,0,0:0:0:0:
250,309,109482,1,0,0:0:0:0:
155,349,109650,1,10,0:0:0:0:
242,230,109816,1,0,0:0:0:0:
304,367,109982,1,0,0:0:0:0:
97,146,110150,70,0,B|74:164|74:164|142:191,1,100.000003814697,4|0,0:0|0:0,0:0:0:0:
242,230,110483,1,0,0:0:0:0:
71,28,110650,2,0,B|42:32|42:32|87:89,1,100.000003814697,8|0,0:0|0:0,0:0:0:0:
153,173,110983,1,0,0:0:0:0:
241,47,111150,53,6,0:0:0:0:
178,89,111316,1,0,0:0:0:0:
113,133,111483,1,0,0:0:0:0:
247,124,111650,1,10,0:0:0:0:
171,13,111816,1,0,0:0:0:0:
107,56,111983,1,0,0:0:0:0:
259,280,112150,69,4,0:0:0:0:
247,124,112316,1,0,0:0:0:0:
317,228,112483,1,0,0:0:0:0:
139,186,112650,54,0,P|164:172|189:166,1,50.0000019073487,10|0,0:0|0:0,0:0:0:0:
213,194,112983,1,0,0:0:0:0:
214,270,113150,53,4,0:0:0:0:
402,239,113316,1,0,0:0:0:0:
344,291,113483,1,0,0:0:0:0:
338,73,113650,54,0,B|416:101|416:101|392:168|328:178,1,200.000007629395,10|0,0:0|0:0,0:0:0:0:
300,59,113983,1,0,0:0:0:0:
384,200,114150,5,4,0:0:0:0:
262,259,114316,1,0,0:0:0:0:
270,124,114483,1,0,0:0:0:0:
419,222,114650,5,8,0:0:0:0:
297,281,114816,1,0,0:0:0:0:
183,206,114983,1,0,0:0:0:0:
73,79,115150,38,0,P|54:95|38:115,2,50.0000019073487,6|0|0,0:0|0:0|0:0,0:0:0:0:
121,60,115650,5,10,0:0:0:0:
183,206,115816,1,0,0:0:0:0:
87,332,115983,1,0,0:0:0:0:
273,226,116150,70,0,P|320:239|358:271,1,100.000003814697,4|0,0:0|0:0,0:0:0:0:
265,341,116483,1,0,0:0:0:0:
422,175,116650,6,0,P|456:210|473:257,1,100.000003814697,8|0,0:0|0:0,0:0:0:0:
359,271,116983,1,0,0:0:0:0:
218,133,117150,38,0,P|242:125|267:123,2,50.0000019073487,6|0|0,0:0|0:0|0:0,0:0:0:0:
316,132,117650,5,10,0:0:0:0:
288,206,117816,1,0,0:0:0:0:
367,194,117983,1,0,0:0:0:0:
370,67,118150,5,4,0:0:0:0:
258,170,118316,1,0,0:0:0:0:
403,213,118483,1,0,0:0:0:0:
190,53,118650,5,8,0:0:0:0:
225,199,118816,1,0,0:0:0:0:
370,242,118983,1,0,0:0:0:0:
227,361,119150,38,0,P|202:358|178:350,2,50.0000019073487,6|0|0,0:0|0:0|0:0,0:0:0:0:
276,351,119650,5,10,0:0:0:0:
225,199,119816,1,0,0:0:0:0:
67,167,119983,1,0,0:0:0:0:
32,348,120150,70,0,P|75:343|122:314,1,100.000003814697,4|0,0:0|0:0,0:0:0:0:
41,235,120483,1,0,0:0:0:0:
236,323,120650,6,0,P|231:280|202:233,1,100.000003814697,8|0,0:0|0:0,0:0:0:0:
122,313,120983,1,0,0:0:0:0:
316,325,121150,38,0,P|335:308|350:289,2,50.0000019073487,6|0|0,0:0|0:0|0:0,0:0:0:0:
365,241,121650,5,14,0:0:0:0:
117,153,121816,2,0,L|134:149,1,16.6666666666667,4|0,0:0|0:0,0:0:0:0:
333,102,122150,5,4,0:0:0:0:
264,234,122316,1,0,0:0:0:0:
184,108,122483,1,0,0:0:0:0:
395,264,122650,5,8,0:0:0:0:
246,270,122816,1,0,0:0:0:0:
166,144,122983,1,0,0:0:0:0:
78,326,123150,38,0,P|53:320|30:311,2,50.0000019073487,6|0|0,0:0|0:0|0:0,0:0:0:0:
128,322,123650,5,10,0:0:0:0:
226,196,123816,1,0,0:0:0:0:
166,49,123983,1,0,0:0:0:0:
85,136,124150,70,0,P|86:186|106:232,1,100.000003814697,4|0,0:0|0:0,0:0:0:0:
215,158,124483,1,0,0:0:0:0:
22,335,124650,6,0,P|65:358|114:364,1,100.000003814697,8|0,0:0|0:0,0:0:0:0:
106,232,124983,1,0,0:0:0:0:
10,53,125150,38,0,P|15:77|24:100,2,50.0000019073487,6|0|0,0:0|0:0|0:0,0:0:0:0:
53,141,125650,5,10,0:0:0:0:
149,117,125816,1,0,0:0:0:0:
121,212,125983,1,0,0:0:0:0:
177,22,126150,5,4,0:0:0:0:
259,151,126316,1,0,0:0:0:0:
107,157,126483,1,0,0:0:0:0:
367,27,126650,5,8,0:0:0:0:
297,162,126816,1,0,0:0:0:0:
145,168,126983,1,0,0:0:0:0:
275,336,127150,38,0,P|298:343|322:347,2,50.0000019073487,6|0|0,0:0|2:0|0:0,2:0:0:0:
233,308,127650,5,10,0:0:0:0:
297,162,127816,1,0,0:0:0:0:
455,144,127983,1,0,0:0:0:0:
379,285,128149,70,0,P|320:273|272:247,1,100.000003814697,4|0,0:0|0:0,0:0:0:0:
388,91,128483,1,0,0:0:0:0:
112,345,128649,6,0,P|92:287|91:233,1,100.000003814697,8|0,0:0|0:0,0:0:0:0:
284,255,128983,1,0,0:0:0:0:
70,83,129149,37,14,0:0:0:0:
253,49,129316,1,4,0:0:0:0:
191,223,129483,1,4,0:0:0:0:
161,61,129649,5,14,0:0:0:0:
191,223,129816,1,12,0:0:0:0:
155,29,129983,1,12,0:0:0:0:
256,192,130149,5,4,0:2:0:0:
256,192,130316,12,4,132150,0:0:0:0:
217,166,137150,54,0,P|204:169|189:175,5,25.0000009536744,2|0|0|0|0|0,0:0|0:0|0:0|0:0|0:0|0:0,0:0:0:0:
290,147,137650,6,0,P|276:162|265:176,5,33.3333333333333
340,164,138150,102,0,P|391:152|401:153,1,50.0000019073487,2|0,0:0|0:0,0:0:0:0:
426,161,138483,2,0,P|410:211|405:219,1,50.0000019073487,0|0,0:0|0:0,0:0:0:0:
384,237,138816,2,0,L|410:317,1,83.3333333333333,0|8,0:0|0:0,0:0:0:0:
309,331,139150,6,0,P|255:345|185:309,1,133.333333333333,2|0,0:0|0:0,0:0:0:0:
259,251,139650,2,0,P|269:202|251:154,1,100.000003814697,8|0,0:0|0:0,0:0:0:0:
179,207,140150,2,0,P|121:229|86:308,1,150.000005722046,6|4,0:0|0:0,0:0:0:0:
87,201,140983,2,0,P|59:193|19:197,5,50.0000019073487,8|0|0|0|8|0,0:0|0:0|0:0|0:0|0:0|0:0,0:0:0:0:
136,224,141900,6,0,P|151:217|164:213,2,25.0000009536744
210,221,142150,2,0,P|225:170|230:162,1,50.0000019073487,2|0,0:0|0:0,0:0:0:0:
250,145,142483,2,0,P|285:183|290:192,1,50.0000019073487,0|0,0:0|0:0,0:0:0:0:
312,241,142816,2,0,L|347:162,1,83.3333333333333,0|8,0:0|0:0,0:0:0:0:
296,70,143150,6,0,P|259:28|216:15,1,100.000003814697,2|0,0:0|0:0,0:0:0:0:
157,65,143650,2,0,P|88:84|55:69,1,100.000003814697
49,153,144150,2,0,P|30:222|45:255,1,100.000003814697,4|0,0:0|0:0,0:0:0:0:
116,263,144650,2,0,P|135:332|120:365,1,100,4|8,0:0|0:0,0:0:0:0:
107,350,145066,6,2,L|79:341,2,25.0000009536744,0|0|0,0:0|0:0|0:0,0:0:0:0:
276,213,145650,54,0,P|234:214|209:223,1,66.6666666666667,8|0,0:0|0:0,0:0:0:0:
257,319,146150,54,0,P|328:307|377:250,1,150.000005722046,6|0,0:0|0:0,0:0:0:0:
337,123,146983,1,8,0:0:0:0:
322,160,147150,54,0,B|199:117|208:191|87:146,1,240,0|4,0:0|0:0,0:0:0:0:
99,250,149150,70,0,P|68:310|73:352,1,100.000003814697,4|0,0:0|0:0,0:0:0:0:
168,322,149650,54,0,P|198:261|193:219,1,100.000003814697,8|0,0:0|0:0,0:0:0:0:
288,262,150150,54,0,P|342:283|424:164,1,200,6|4,0:0|0:0,0:0:0:0:
345,197,150983,1,8,0:0:0:0:
265,342,151150,2,0,B|198:353|198:322|132:331,1,133.333333333333,6|0,0:0|0:0,0:0:0:0:
48,352,152650,53,2,0:0:0:0:
22,290,152816,1,2,0:0:0:0:
62,239,152983,1,2,0:0:0:0:
244,171,153150,54,0,P|248:155|251:139,1,33.3333333333333,2|0,0:0|0:0,0:0:0:0:
163,123,153483,54,0,P|147:127|130:133,1,33.3333333333333,2|0,0:0|0:0,0:0:0:0:
163,216,153816,6,0,P|173:228|186:239,1,33.3333333333333,2|0,0:0|0:0,0:0:0:0:
330,233,154150,54,0,P|299:302|370:306,1,166.666666666667,0|8,0:0|0:0,0:0:0:0:
280,145,155150,54,0,P|183:158|330:221,1,450.000017166138,2|0,0:0|0:0,0:0:0:0:
99,117,156983,5,8,0:0:0:0:
117,136,157150,54,0,P|166:108|245:125,1,133.333333333333,2|0,0:0|0:0,0:0:0:0:
261,141,157650,2,0,P|202:200|181:320,1,200.000007629395,10|0,0:0|0:0,0:0:0:0:
189,339,158150,54,0,P|258:353|321:304,1,150.000005722046,6|4,0:0|0:0,0:0:0:0:
240,264,158983,1,8,0:0:0:0:
330,260,159150,54,0,P|398:286|427:308,1,100,2|8,0:0|0:0,0:0:0:0:
389,189,159983,53,0,0:0:0:0:
318,139,160150,54,0,B|269:122|219:142|219:142|166:125,1,150,2|0,0:0|0:0,0:0:0:0:
183,217,162150,70,0,P|175:277|155:324,1,100,2|0,0:0|0:0,0:0:0:0:
260,248,163150,6,0,P|298:238|332:240,1,66.6666666666667,0|0,0:0|0:0,0:0:0:0:
382,295,163650,6,0,B|416:309|455:309|455:309|400:228|342:115|442:40|566:143|447:241|346:197,1,466.666666666667,2|0,0:0|0:0,0:0:0:0:
275,111,166150,22,0,P|209:110|189:139,1,100,0|0,0:0|0:0,0:0:0:0:
316,179,167150,6,0,P|279:208|267:234,1,66.6666666666667,0|0,0:0|0:0,0:0:0:0:
195,204,167650,6,0,B|144:194|99:219|99:219|118:146,1,166.666666666667,0|0,0:0|0:0,0:0:0:0:
163,325,168650,6,0,P|199:290|261:293,1,100.000003814697,2|0,0:0|0:0,0:0:0:0:
280,308,169150,2,0,L|338:300,1,50.0000019073487,0|0,0:0|0:0,0:0:0:0:
359,274,169483,1,0,0:0:0:0:
440,270,169650,2,0,P|427:318|390:350,1,100.000003814697,2|0,0:0|0:0,0:0:0:0:
332,142,170150,6,0,P|296:201|269:210,1,100,2|0,0:0|0:0,0:0:0:0:
128,169,171150,2,0,P|173:157|198:160,1,66.6666666666667,0|0,0:0|0:0,0:0:0:0:
174,254,171650,2,0,B|178:304|178:304|183:363|122:369|105:314|178:304|178:304|249:296|250:333|317:323,1,333.333333333333,2|0,0:0|0:0,0:0:0:0:
413,303,172650,2,0,P|379:246|294:225,1,150.000005722046,0|0,0:0|0:0,0:0:0:0:
376,110,174150,70,0,P|318:92|279:96,1,100,0|0,0:0|0:0,0:0:0:0:
141,90,174983,53,0,0:0:0:0:
144,116,175150,2,0,L|220:135,1,66.6666666666667,0|0,0:0|0:0,0:0:0:0:
158,203,175650,2,0,P|142:243|151:299,1,100,0|0,0:0|0:0,0:0:0:0:
256,192,176316,12,0,177983,0:0:0:0:
256,192,178150,38,0,P|296:177|335:174,1,66.6666666666667,6|0,0:0|0:0,0:0:0:0:
327,321,178483,2,0,P|294:293|271:261,1,66.6666666666667,0|4,0:0|0:0,0:0:0:0:
403,195,178816,2,0,P|395:237|379:272,1,66.6666666666667,0|0,0:0|0:0,0:0:0:0:
195,321,179150,6,0,P|145:324|100:305,1,100.000003814697,6|0,0:0|0:0,0:0:0:0:
68,200,179650,2,0,P|118:197|163:216,1,100.000003814697,12|0,0:0|0:0,0:0:0:0:
212,122,180150,2,0,B|242:159|297:174|297:174|323:119,1,150.000005722046,4|4,0:0|0:0,0:0:0:0:
286,55,181150,1,4,0:0:0:0:
286,55,181650,1,12,0:0:0:0:
307,126,181900,5,0,0:0:0:0:
324,144,181983,1,0,0:0:0:0:
346,156,182066,1,0,0:0:0:0:
375,173,182150,2,0,P|341:216|336:239,1,66.6666666666667,6|0,0:0|0:0,0:0:0:0:
451,304,182483,2,0,P|430:253|413:237,1,66.6666666666667,0|4,0:0|0:0,0:0:0:0:
299,304,182816,2,0,P|353:311|375:304,1,66.6666666666667,0|8,0:0|0:0,0:0:0:0:
230,209,183150,6,0,P|179:194|127:211,1,100.000003814697,6|0,0:0|0:0,0:0:0:0:
84,282,183650,2,0,P|135:297|187:280,1,100.000003814697,12|0,0:0|0:0,0:0:0:0:
95,55,184150,2,0,L|62:150,1,100.000003814697,4|0,0:0|0:0,0:0:0:0:
205,88,184650,5,6,0:0:0:0:
250,146,184816,1,0,0:0:0:0:
222,213,184983,1,0,0:0:0:0:
322,212,185150,6,0,P|379:246|399:281,1,100.000003814697,6|0,0:0|0:0,0:0:0:0:
299,315,185483,2,0,P|241:347|200:347,1,100.000003814697,0|12,0:0|0:0,0:0:0:0:
127,289,185816,5,0,0:0:0:0:
393,347,185983,1,0,0:0:0:0:
221,244,186150,22,0,P|222:195|232:174,1,66.6666666666667,6|0,0:0|0:0,0:0:0:0:
363,195,186483,2,0,P|320:218|296:220,1,66.6666666666667,0|4,0:0|0:0,0:0:0:0:
250,96,186816,2,0,P|291:121|305:140,1,66.6666666666667,0|0,0:0|0:0,0:0:0:0:
134,153,187150,6,0,P|88:172|61:213,1,100.000003814697,6|0,0:0|0:0,0:0:0:0:
69,297,187650,2,0,P|115:278|142:237,1,100.000003814697,12|0,0:0|0:0,0:0:0:0:
206,297,188150,2,0,B|250:319|302:300|302:300|278:247,1,150.000005722046,4|4,0:0|0:0,0:0:0:0:
199,206,189150,1,4,0:0:0:0:
199,206,189650,1,12,0:0:0:0:
217,114,189900,5,0,0:0:0:0:
239,103,189983,1,0,0:0:0:0:
264,100,190066,1,0,0:0:0:0:
296,108,190150,2,0,P|303:150|321:177,1,66.6666666666667,4|0,0:0|0:0,0:0:0:0:
448,130,190483,2,0,P|408:115|375:117,1,66.6666666666667,0|4,0:0|0:0,0:0:0:0:
353,251,190816,2,0,P|385:223|400:194,1,66.6666666666667,0|8,0:0|0:0,0:0:0:0:
440,346,191150,6,0,P|353:341|324:348,1,100.000003814697,4|0,0:0|0:0,0:0:0:0:
261,321,191650,2,0,P|174:326|145:319,1,100.000003814697,12|0,0:0|0:0,0:0:0:0:
81,347,192150,1,0,0:0:0:0:
113,125,192316,69,0,0:0:0:0:
125,168,192483,1,0,0:0:0:0:
176,249,192650,5,0,0:0:0:0:
203,213,192816,1,0,0:0:0:0:
230,177,192983,38,2,L|246:192,2,16.6666666666667,0|0|2,0:0|0:0|0:0,0:0:0:0:
326,264,193150,85,0,0:0:0:0:
314,221,193317,1,0,0:0:0:0:
283,253,193483,1,0,0:0:0:0:
418,257,193650,6,0,P|397:322|369:345,1,100.000003814697,0|0,0:0|0:0,0:0:0:0:
204,340,194150,6,0,B|138:223|138:223|209:208,1,200,4|4,0:2|0:0,0:0:0:0:
454,163,194983,1,8,0:0:0:0:
425,264,195150,2,0,B|301:212|301:212|349:160,1,200,4|12,0:0|0:0,0:0:0:0:
300,212,196150,6,0,B|176:160|176:160|182:231,1,200,4|4,0:0|0:0,0:0:0:0:
187,303,196983,1,8,0:0:0:0:
192,366,197150,2,0,L|45:346,1,133.333333333333,4|0,0:0|0:0,0:0:0:0:
224,151,197650,2,0,L|280:288,1,133.333333333333,12|0,0:0|0:0,0:0:0:0:
445,181,198150,6,0,B|433:333|433:333|414:285,1,200,4|4,0:0|0:0,0:0:0:0:
343,105,198983,1,8,0:0:0:0:
312,30,199150,2,0,L|194:123,1,133.333333333333,4|0,0:0|0:0,0:0:0:0:
424,199,199650,2,0,L|284:143,1,133.333333333333,12|0,0:0|0:0,0:0:0:0:
186,213,200150,6,0,B|57:284|57:284|129:297,1,200,4|4,0:0|0:0,0:0:0:0:
352,337,200983,1,8,0:0:0:0:
286,366,201150,2,0,L|238:215,1,133.333333333333,4|0,0:0|0:0,0:0:0:0:
394,98,201650,54,0,L|370:153,1,33.3333333333333,12|0,0:0|0:0,0:0:0:0:
411,258,201816,2,0,L|376:211,1,33.3333333333333,0|0,0:0|0:0,0:0:0:0:
264,192,201983,2,0,L|311:188,1,33.3333333333333,0|0,0:0|0:0,0:0:0:0:
218,320,202150,69,4,0:0:0:0:
178,322,202483,53,0,0:0:0:0:
151,103,202650,1,4,0:0:0:0:
190,115,202983,5,0,0:0:0:0:
138,324,203150,1,4,0:0:0:0:
98,326,203483,5,0,0:0:0:0:
75,79,203650,1,4,0:0:0:0:
113,91,203983,5,0,0:0:0:0:
58,328,204150,1,4,0:0:0:0:
18,330,204483,69,0,0:0:0:0:
278,200,204650,53,6,0:0:0:0:
212,210,204816,1,0,0:0:0:0:
146,220,204983,1,0,0:0:0:0:
390,339,205150,5,6,0:0:0:0:
310,322,205316,1,0,0:0:0:0:
232,306,205483,1,0,0:0:0:0:
474,268,205650,5,6,0:0:0:0:
383,264,205816,1,0,0:0:0:0:
294,261,205983,1,0,0:0:0:0:
428,349,206150,22,0,L|445:349,1,16.6666666666667,12|0,0:0|0:0,0:0:0:0:
401,168,206483,6,0,L|416:174,1,16.6666666666667,8|4,0:0|0:0,0:0:0:0:
328,346,206816,6,0,L|345:346,1,16.6666666666667,8|0,0:0|0:0,0:0:0:0:
277,116,207150,22,0,L|292:122,1,16.6666666666667,12|0,0:0|0:0,0:0:0:0:
208,343,207483,6,0,L|225:343,1,16.6666666666667,8|4,0:0|0:0,0:0:0:0:
156,65,207816,6,0,L|171:71,1,16.6666666666667,8|0,0:0|0:0,0:0:0:0:
124,300,208150,22,0,L|160:300,1,33.3333333333333,4|0,0:0|0:0,0:0:0:0:
85,227,208316,2,0,L|115:246,1,33.3333333333333
88,145,208483,2,0,L|104:175,1,33.3333333333333
313,224,208650,6,0,L|337:181,1,33.3333333333333,4|0,0:0|0:0,0:0:0:0:
231,220,208816,2,0,L|276:192,1,33.3333333333333,0|0,0:0|0:0,0:0:0:0:
161,175,208983,2,0,L|212:175,1,33.3333333333333,0|0,0:0|0:0,0:0:0:0:
292,50,209150,38,0,B|330:59|330:59|336:54|336:54|341:62|341:62|363:68,1,66.6666666666667,2|0,0:0|0:0,0:0:0:0:
435,87,209316,6,0,B|406:115|406:115|406:123|406:123|397:123|397:123|382:139,1,66.6666666666667,0|0,0:0|0:0,0:0:0:0:
329,194,209483,6,0,B|317:155|317:155|309:152|309:152|314:144|314:144|308:122,1,66.6666666666667,0|0,0:0|0:0,0:0:0:0:
351,111,209650,6,0,L|361:121,1,13.3333333333333
256,192,210150,5,4,0:2:0:0:
256,192,210233,12,0,212983,0:0:0:0:
67,157,213150,54,0,L|96:156,1,26.6666666666667
56,146,213650,5,0,0:0:0:0:
64,231,213816,1,0,0:0:0:0:
72,316,213983,1,0,0:0:0:0:
217,38,214150,38,0,P|118:52|94:92,1,133.333333333333,6|0,0:0|0:0,0:0:0:0:
263,117,214650,1,8,0:0:0:0:
394,56,214816,1,0,0:0:0:0:
481,173,214983,1,0,0:0:0:0:
272,106,215150,2,0,L|290:247,1,133.333333333333,4|0,0:0|0:0,0:0:0:0:
356,369,215650,1,8,0:0:0:0:
446,238,215816,1,0,0:0:0:0:
294,268,215983,1,0,0:0:0:0:
450,384,216150,6,0,L|436:245,1,133.333333333333,4|0,0:0|0:0,0:0:0:0:
334,204,216650,1,8,0:0:0:0:
252,218,216816,1,0,0:0:0:0:
163,233,216983,1,0,0:0:0:0:
344,194,217150,2,0,L|356:336,1,133.333333333333,4|0,0:0|0:0,0:0:0:0:
263,364,217650,1,8,0:0:0:0:
177,314,217816,1,0,0:0:0:0:
97,369,217983,1,0,0:0:0:0:
101,107,218150,6,0,L|112:249,1,133.333333333333,4|0,0:0|0:0,0:0:0:0:
177,314,218650,1,8,0:0:0:0:
196,165,218816,1,0,0:0:0:0:
20,197,218983,1,0,0:0:0:0:
67,25,219150,2,0,P|129:23|187:92,1,133.333333333333,4|0,0:0|0:0,0:0:0:0:
321,115,219650,2,0,P|259:113|201:182,1,133.333333333333,8|0,0:0|0:0,0:0:0:0:
408,290,220150,6,0,L|394:154,1,133.333333333333,4|0,0:0|0:0,0:0:0:0:
255,277,220650,1,8,0:0:0:0:
423,279,220816,1,0,0:0:0:0:
254,361,220983,1,0,0:0:0:0:
286,201,221150,2,0,P|314:162|408:166,1,133.333333333333,4|0,0:0|0:0,0:0:0:0:
202,215,221650,2,0,P|174:254|80:250,1,133.333333333333,8|0,0:0|0:0,0:0:0:0:
115,45,222150,6,0,L|128:193,1,133.333333333333,4|0,0:0|0:0,0:0:0:0:
202,215,222650,1,8,0:0:0:0:
108,371,222816,1,0,0:0:0:0:
23,242,222983,1,0,0:0:0:0:
191,332,223150,6,0,B|216:343|216:343|263:341,2,66.6666666666667,6|0|0,0:0|0:0|0:0,0:0:0:0:
264,266,223650,1,8,0:0:0:0:
374,348,223816,1,0,0:0:0:0:
264,266,223983,1,0,0:0:0:0:
387,174,224150,5,4,0:0:0:0:
420,264,224316,1,0,0:0:0:0:
374,348,224483,1,0,0:0:0:0:
248,158,224650,5,8,0:0:0:0:
433,92,224816,1,0,0:0:0:0:
345,244,224983,1,0,0:0:0:0:
292,54,225150,2,0,L|429:78,1,133.333333333333,6|0,0:0|0:0,0:0:0:0:
235,166,225650,54,0,L|131:185,1,93.3333304850261,8|0,0:0|0:0,0:0:0:0:
0,314,226150,70,0,P|20:335|127:348,1,133.333333333333,6|0,0:0|0:0,0:0:0:0:
237,232,226650,1,8,0:0:0:0:
287,374,226816,1,0,0:0:0:0:
413,308,226983,1,0,0:0:0:0:
229,219,227150,2,0,L|243:83,1,133.333333333333,4|0,0:0|0:0,0:0:0:0:
415,51,227650,2,0,L|429:187,1,133.333333333333,8|0,0:0|0:0,0:0:0:0:
131,118,228150,6,0,P|178:74|242:86,1,133.333333333333,4|0,0:0|0:0,0:0:0:0:
224,288,228650,1,8,0:0:0:0:
306,134,228816,1,0,0:0:0:0:
344,316,228983,1,0,0:0:0:0:
199,146,229150,2,0,L|214:292,1,133.333333333333,4|0,0:0|0:0,0:0:0:0:
24,323,229650,2,0,L|39:188,1,133.333333333333,8|0,0:0|0:0,0:0:0:0:
288,315,230150,6,0,P|236:354|150:342,1,133.333333333333,4|0,0:0|0:0,0:0:0:0:
324,234,230650,1,8,0:0:0:0:
486,306,230816,1,0,0:0:0:0:
357,384,230983,1,0,0:0:0:0:
417,161,231150,2,0,L|409:303,1,133.333333333333,4|0,0:0|0:0,0:0:0:0:
237,107,231650,1,8,0:0:0:0:
331,128,231816,1,0,0:0:0:0:
430,152,231983,1,0,0:0:0:0:
195,176,232150,6,0,L|208:320,1,133.333333333333,4|0,0:0|0:0,0:0:0:0:
294,226,232650,1,8,0:0:0:0:
123,292,232816,1,0,0:0:0:0:
294,226,232983,1,0,0:0:0:0:
101,104,233150,2,0,P|141:61|226:82,1,133.333333333333,4|0,0:0|0:0,0:0:0:0:
338,150,233650,1,8,0:0:0:0:
292,43,233816,1,0,0:0:0:0:
244,146,233983,1,0,0:0:0:0:
51,26,234150,70,0,L|65:170,1,133.333333333333,4|0,0:0|0:0,0:0:0:0:
149,298,234650,1,8,0:0:0:0:
240,281,234816,1,0,0:0:0:0:
333,261,234983,1,0,0:0:0:0:
137,289,235150,2,0,L|148:156,1,133.333333333333,4|0,0:0|0:0,0:0:0:0:
306,50,235650,2,0,L|322:197,1,133.333333333333,8|0,0:0|0:0,0:0:0:0:
498,346,236150,6,0,P|497:265|439:229,1,133.333333333333,4|0,0:0|0:0,0:0:0:0:
298,264,236650,1,8,0:0:0:0:
394,361,236816,1,0,0:0:0:0:
460,234,236983,1,0,0:0:0:0:
285,256,237150,2,0,L|296:120,1,133.333333333333,4|0,0:0|0:0,0:0:0:0:
430,0,237650,2,0,L|449:162,1,133.333333333333,8|0,0:0|0:0,0:0:0:0:
148,50,238150,6,0,P|198:13|272:33,1,133.333333333333,4|0,0:0|0:0,0:0:0:0:
132,130,238650,1,8,0:0:0:0:
277,35,238816,1,0,0:0:0:0:
203,227,238983,1,0,0:0:0:0:
50,96,239150,2,0,L|63:240,1,133.333333333333,4|0,0:0|0:0,0:0:0:0:
183,371,239650,2,0,L|193:233,1,133.333333333333,8|0,0:0|0:0,0:0:0:0:
413,118,240150,6,0,L|406:195,1,66.6666666666667,4|0,0:0|0:0,0:0:0:0:
356,250,240650,2,0,L|397:268,2,33.3333333333333
206,212,241150,2,0,P|233:196|274:194,1,66.6666666666667
253,282,241650,54,0,L|258:266,1,13.3333333333333,2|0,0:0|0:0,0:0:0:0:
186,55,242150,5,4,0:0:0:0:
135,206,242316,1,0,0:0:0:0:
293,176,242483,1,0,0:0:0:0:
93,110,242650,2,0,P|57:95|11:90,2,79.9999975585938,8|0|0,0:0|0:0|0:0,0:0:0:0:
206,323,243150,5,4,0:0:0:0:
357,234,243316,1,0,0:0:0:0:
203,147,243483,1,0,0:0:0:0:
295,358,243650,1,8,0:0:0:0:
326,334,243816,1,0,0:0:0:0:
287,323,243983,1,0,0:0:0:0:
411,294,244150,6,0,P|434:253|434:198,2,79.9999975585938,4|0|0,0:0|0:0|0:0,0:0:0:0:
306,145,244650,2,0,P|311:105|332:71,2,79.9999975585938,8|0|0,0:0|0:0|0:0,0:0:0:0:
141,68,245150,6,0,P|103:53|64:54,2,79.9999975585938,4|0|0,0:0|0:0|0:0,0:0:0:0:
161,295,245650,1,8,0:0:0:0:
273,161,245816,1,0,0:0:0:0:
92,133,245983,1,0,0:0:0:0:
388,135,246150,69,4,0:0:0:0:
442,250,246316,1,0,0:0:0:0:
314,239,246483,1,0,0:0:0:0:
400,137,246650,1,8,0:0:0:0:
433,259,246816,1,0,0:0:0:0:
309,226,246983,1,0,0:0:0:0:
266,106,247150,6,0,L|206:52,2,79.9999975585938,4|0|0,0:0|0:0|0:0,0:0:0:0:
156,136,247650,2,0,L|215:192,2,79.9999975585938,8|0|0,0:0|0:0|0:0,0:0:0:0:
112,52,248150,5,4,0:0:0:0:
46,121,248316,1,0,0:0:0:0:
71,213,248483,1,0,0:0:0:0:
54,376,248650,1,8,0:0:0:0:
123,305,248816,1,0,0:0:0:0:
84,214,248983,1,0,0:0:0:0:
119,306,249150,6,0,P|154:289|196:287,2,79.9999975585938,4|0|0,0:0|0:0|0:0,0:0:0:0:
402,349,249650,1,0,0:0:0:0:
176,366,249816,1,8,0:0:0:0:
280,298,249983,1,0,0:0:0:0:
354,150,250150,70,0,P|357:108|389:62,2,79.9999975585938,4|0|0,0:0|0:0|0:0,0:0:0:0:
235,128,250650,2,0,P|216:90|221:34,2,79.9999975585938,8|0|0,0:0|0:0|0:0,0:0:0:0:
284,237,251150,6,0,P|265:274|270:330,2,79.9999975585938,4|0|0,0:0|0:0|0:0,0:0:0:0:
164,219,251650,2,0,P|129:242|105:293,2,79.9999975585938,8|0|0,0:0|0:0|0:0,0:0:0:0:
215,52,252150,5,4,0:0:0:0:
99,80,252316,1,0,0:0:0:0:
182,166,252483,1,0,0:0:0:0:
206,44,252650,1,8,0:0:0:0:
96,91,252816,1,0,0:0:0:0:
193,162,252983,1,0,0:0:0:0:
308,127,253150,6,0,L|406:137,2,79.9999975585938,4|0|0,0:0|0:0|0:0,0:0:0:0:
366,253,253650,2,0,L|287:245,2,79.9999975585938,8|0|0,0:0|0:0|0:0,0:0:0:0:
189,76,254150,69,4,0:0:0:0:
58,167,254316,1,0,0:0:0:0:
202,236,254483,1,0,0:0:0:0:
323,131,254650,1,8,0:0:0:0:
454,222,254816,1,0,0:0:0:0:
310,291,254983,1,0,0:0:0:0:
151,227,255150,6,0,L|142:128,1,79.9999975585938,4|0,0:0|0:0,0:0:0:0:
133,51,255483,1,0,0:0:0:0:
361,227,255650,2,0,L|370:128,1,79.9999975585938,8|0,0:0|0:0,0:0:0:0:
379,51,255983,1,0,0:0:0:0:
256,112,256149,5,4,0:0:0:0:
256,152,256316,1,0,0:0:0:0:
256,192,256483,1,0,0:0:0:0:
256,312,256649,54,0,L|256:232,2,79.9999975585938,6|0|0,0:0|0:0|0:0,0:0:0:0:
256,192,257149,69,0,0:0:0:0:
256,152,257316,1,0,0:0:0:0:
256,112,257483,1,0,0:0:0:0:
130,90,257649,54,0,B|99:128|99:128|106:195|106:195|149:222|182:188,1,200.000007629395,6|0,0:0|0:0,0:0:0:0:
211,40,257983,1,0,0:0:0:0:
399,51,258149,5,4,0:0:0:0:
416,226,258316,1,0,0:0:0:0:
256,152,258483,1,0,0:0:0:0:
457,133,258649,1,8,0:0:0:0:
314,235,258816,1,0,0:0:0:0:
298,60,258983,1,0,0:0:0:0:
355,147,259149,6,0,L|382:87,2,50.0000019073487,4|0|0,0:0|0:0|0:0,0:0:0:0:
217,242,259649,1,8,0:0:0:0:
58,168,259816,1,0,0:0:0:0:
73,344,259983,1,0,0:0:0:0:
246,262,260149,5,4,0:0:0:0:
336,306,260315,1,0,0:0:0:0:
330,206,260482,1,0,0:0:0:0:
220,279,260649,1,8,0:0:0:0:
310,323,260815,1,0,0:0:0:0:
394,267,260982,1,0,0:0:0:0:
478,323,261149,6,0,L|489:227,2,79.9999975585938,4|0|0,0:0|0:0|0:0,0:0:0:0:
429,97,261649,2,0,L|419:176,2,79.9999975585938,8|0|0,0:0|0:0|0:0,0:0:0:0:
224,40,262150,69,4,0:0:0:0:
160,152,262316,1,0,0:0:0:0:
231,263,262483,1,0,0:0:0:0:
40,152,262650,1,8,0:0:0:0:
104,264,262816,1,0,0:0:0:0:
231,263,262983,1,0,0:0:0:0:
288,152,263150,6,0,L|263:108,2,50.0000019073487,4|0|0,0:0|0:0|0:0,0:0:0:0:
352,264,263650,1,8,0:0:0:0:
424,152,263816,1,0,0:0:0:0:
291,150,263983,1,0,0:0:0:0:
83,217,264150,6,0,P|66:182|64:142,1,79.9999975585938,4|0,0:0|0:0,0:0:0:0:
159,158,264483,1,0,0:0:0:0:
193,327,264650,2,0,P|175:291|174:252,1,79.9999975585938,8|0,0:0|0:0,0:0:0:0:
269,267,264983,1,0,0:0:0:0:
326,344,265150,6,0,L|424:351,1,79.9999975585938,4|0,0:0|0:0,0:0:0:0:
501,340,265483,1,0,0:0:0:0:
472,127,265650,1,8,0:0:0:0:
444,262,265816,2,0,L|364:256,1,79.9999975585938,8|0,0:0|0:0,0:0:0:0:
213,60,266150,69,4,0:0:0:0:
53,133,266317,1,0,0:0:0:0:
197,234,266484,1,0,0:0:0:0:
113,51,266650,1,8,0:0:0:0:
96,225,266817,1,0,0:0:0:0:
256,152,266984,1,0,0:0:0:0:
157,147,267150,6,0,L|130:87,2,50.0000019073487,4|0|0,0:0|0:0|0:0,0:0:0:0:
197,234,267650,2,0,L|233:315,2,79.9999975585938
321,335,268150,5,4,0:0:0:0:
402,285,268316,1,0,0:0:0:0:
415,189,268483,1,0,0:0:0:0:
324,340,268650,1,8,0:0:0:0:
405,290,268816,1,0,0:0:0:0:
418,194,268983,1,0,0:0:0:0:
264,79,269150,6,0,P|203:86|181:104,2,79.9999975585938,4|0|0,0:0|0:0|0:0,0:0:0:0:
244,163,269650,2,0,P|308:154|330:136,2,79.9999975585938,8|0|0,0:0|0:0|0:0,0:0:0:0:
128,40,270150,69,4,0:0:0:0:
167,234,270316,1,0,0:0:0:0:
348,65,270483,1,0,0:0:0:0:
91,173,270650,1,8,0:0:0:0:
263,253,270816,1,0,0:0:0:0:
249,31,270983,1,0,0:0:0:0:
353,226,271150,6,0,L|361:159,2,50.0000019073487,4|0|0,0:0|0:0|0:0,0:0:0:0:
386,316,271650,2,0,L|472:339,2,79.9999975585938,8|0|0,0:0|0:0|0:0,0:0:0:0:
429,167,272150,6,0,P|446:202|448:242,1,79.9999975585938
353,226,272483,1,0,0:0:0:0:
319,57,272650,2,0,P|337:93|338:132,1,79.9999975585938,8|0,0:0|0:0,0:0:0:0:
243,117,272983,1,0,0:0:0:0:
419,72,273150,5,8,0:0:0:0:
341,264,273316,1,4,0:0:0:0:
341,264,273483,1,4,0:0:0:0:
274,77,273650,1,8,0:0:0:0:
147,231,273816,1,8,0:0:0:0:
345,268,273983,1,4,0:0:0:0:
256,192,274150,6,0,P|336:168|400:176,1,150.000005722046,4|0,0:0|0:0,0:0:0:0:
258,33,275650,1,0,0:0:0:0:
111,57,276150,2,0,L|122:156,1,100.000003814697
166,178,276650,1,0,0:0:0:0:
256,192,278150,6,0,P|192:202|148:216,2,100.000003814697,0|0|0,0:0|0:0|0:0,0:0:0:0:
158,213,279150,1,0,0:0:0:0:
294,184,279650,1,0,0:0:0:0:
336,51,280150,1,0,0:0:0:0:
245,39,281066,38,2,L|250:75,2,25.0000009536744,0|0|0,0:0|0:0|0:0,0:0:0:0:
353,74,281650,85,0,0:0:0:0:
86,156,282150,6,0,P|153:156|192:184,3,100.000003814697
270,290,283650,1,0,0:0:0:0:
414,329,284150,2,0,L|451:177,1,150.000005722046
352,104,284983,1,0,0:0:0:0:
352,104,285150,2,0,L|348:50,2,50.0000019073487
262,145,285650,2,0,L|258:91,1,50.0000019073487
184,64,285983,2,0,L|181:43,3,12.5000004768372
169,92,286150,70,0,P|120:75|69:68,2,100.000003814697,0|0|0,0:0|0:0|0:0,0:0:0:0:
73,68,287150,1,0,0:0:0:0:
186,166,287650,1,0,0:0:0:0:
119,307,288150,1,2,0:0:0:0:
245,345,289066,38,2,L|250:309,2,25.0000009536744,0|0|0,0:0|0:0|0:0,0:0:0:0:
376,272,289650,1,0,0:0:0:0:
256,192,290150,5,0,0:0:0:0:
256,192,290400,12,0,292150,0:0:0:0:
