osu file format v14

[General]
AudioFilename: audio.mp3
AudioLeadIn: 0
PreviewTime: 83619
Countdown: 0
SampleSet: Soft
StackLeniency: 0.6
Mode: 0
LetterboxInBreaks: 0
WidescreenStoryboard: 1

[Editor]
Bookmarks: 7391,21355,35319,49282,56264,63246,70228,77209,84191,97282,98155,108628,112119,126082,133064,140046,147028,148773,160991,167973,174955,185428,188919,202882,209864,213355,216846,230809,244773,258737,272700,279682,286664,293646,300628,302373
DistanceSpacing: 0.38
BeatDivisor: 4
GridSize: 32
TimelineZoom: 2.9

[Metadata]
Title:Seisou Shoujo no Chuuyuu Gensoukyoku
TitleUnicode:悽愴少女の冲融幻想曲
Artist:AIHISNA
ArtistUnicode:AIHISNA
Creator:Lasse
Version:Illusion
Source:
Tags:doujin metal instrumental 黒紅少女の優雅な哀史 Kokukou Shoujo no Yuugana Aishi かがやみ Kagayami
BeatmapID:2399207
BeatmapSetID:1149127

[Difficulty]
HPDrainRate:6
CircleSize:4
OverallDifficulty:9.4
ApproachRate:9.8
SliderMultiplier:2.4
SliderTickRate:1

[Events]
//Background and Video events
0,0,"d.jpg",0,0
//Break Periods
//Storyboard Layer 0 (Background)
//Storyboard Layer 1 (Fail)
//Storyboard Layer 2 (Pass)
//Storyboard Layer 3 (Foreground)
//Storyboard Layer 4 (Overlay)
//Storyboard Sound Samples

[TimingPoints]
410,218.181818181818,4,2,1,40,1,0
410,-200,4,2,1,40,0,0
3900,-166.666666666667,4,2,1,45,0,0
4773,-142.857142857143,4,2,1,50,0,0
5646,-142.857142857143,4,2,1,52,0,0
6519,-142.857142857143,4,2,1,54,0,0
6628,-142.857142857143,4,2,1,56,0,0
6737,-142.857142857143,4,2,1,58,0,0
6846,-142.857142857143,4,2,1,60,0,0
6955,-142.857142857143,4,2,1,62,0,0
7391,-142.857142857143,4,2,1,50,0,0
10446,-125,4,2,1,50,0,0
10882,-125,4,2,1,52,0,0
14373,-125,4,2,1,54,0,0
17864,-125,4,2,1,56,0,0
19609,-111.111111111111,4,2,1,58,0,0
20046,-111.111111111111,4,2,1,60,0,0
20482,-111.111111111111,4,2,1,62,0,0
20919,-111.111111111111,4,2,1,64,0,0
21355,-100,4,2,1,65,0,1
23973,-90.9090909090909,4,2,1,65,0,1
24846,-100,4,2,1,65,0,1
27464,-83.3333333333333,4,2,1,65,0,1
28337,-100,4,2,1,65,0,1
30955,-90.9090909090909,4,2,1,65,0,1
31828,-100,4,2,1,65,0,1
34446,-83.3333333333333,4,2,1,68,0,1
35209,-83.3333333333333,4,2,1,60,0,1
35319,-100,4,2,1,66,0,1
41646,-90.9090909090909,4,2,1,66,0,1
41864,-83.3333333333333,4,2,1,66,0,1
42300,-100,4,2,1,66,0,1
47537,-90.9090909090909,4,2,1,66,0,1
49282,-125,4,2,1,58,0,0
52119,-100,4,2,1,58,0,0
52282,-100,4,2,1,44,0,0
52337,-100,4,2,1,58,0,0
52719,-100,4,2,1,44,0,0
52773,-111.111111111111,4,2,1,58,0,0
53100,-125,4,2,1,58,0,0
55391,-125,4,2,2,58,0,0
56264,-117.647058823529,4,2,1,62,0,0
62809,-117.647058823529,4,2,2,62,0,0
63246,-111.111111111111,4,2,1,62,0,0
68482,-90.9090909090908,4,2,1,65,0,0
69573,-90.9090909090908,4,2,2,65,0,0
70009,-90.9090909090908,4,2,2,62,0,0
70228,-105.263157894737,4,2,1,64,0,0
73500,-95.2380952380954,4,2,1,64,0,0
73937,-105.263157894737,4,2,1,62,0,0
76227,-105.263157894737,4,2,1,60,0,0
76773,-105.263157894737,4,2,2,62,0,0
77209,-105.263157894737,4,2,1,64,0,0
79828,-95.2380952380954,4,2,1,64,0,0
80700,-100,4,2,1,64,0,0
81573,-105.263157894737,4,2,1,64,0,0
82336,-105.263157894737,4,2,1,60,0,0
82446,-105.263157894737,4,2,1,65,0,0
82882,-105.263157894737,4,2,1,66,0,0
83319,-86.9565217391304,4,2,1,68,0,0
84191,-99.9999999999999,4,2,1,70,0,1
90737,-99.9999999999999,4,2,2,70,0,1
91173,-99.9999999999999,4,2,1,70,0,1
92919,-83.3333333333333,4,2,1,70,0,1
94228,-100,4,2,1,70,0,1
96409,-83.3333333333333,4,2,1,70,0,1
97282,-99.9999999999999,4,2,1,60,0,0
97609,-99.9999999999999,4,2,1,65,0,0
98155,-99.9999999999999,4,2,1,70,0,1
107755,-83.3333333333333,4,2,1,70,0,1
108628,-90.9090909090909,4,2,1,70,0,1
111246,-90.9090909090909,4,2,2,68,0,1
112119,-99.9999999999999,4,2,1,65,0,1
114737,-90.9090909090909,4,2,1,65,0,1
115609,-99.9999999999999,4,2,1,65,0,1
118228,-83.3333333333333,4,2,1,65,0,1
119100,-99.9999999999999,4,2,1,65,0,1
121719,-90.9090909090909,4,2,1,65,0,1
122591,-99.9999999999999,4,2,1,65,0,1
125209,-83.3333333333333,4,2,1,68,0,1
126082,-99.9999999999999,4,2,1,66,0,1
132409,-90.9090909090909,4,2,1,66,0,1
133064,-90.9090909090909,4,2,1,68,0,1
140046,-125,4,2,1,58,0,0
143046,-100,4,2,1,44,0,0
143100,-125,4,2,1,58,0,0
143482,-100,4,2,1,44,0,0
143537,-125,4,2,1,58,0,0
147028,-111.111111111111,4,2,1,62,0,0
159246,-83.3333333333333,4,2,1,65,0,0
159900,-90.9090909090909,4,2,1,65,0,0
160337,-90.9090909090909,4,2,2,65,0,0
160773,-90.9090909090909,4,2,3,65,0,0
160991,-100,4,2,1,66,0,1
162300,-100,4,2,2,66,0,1
162737,-100,4,2,1,62,0,0
162955,-100,4,2,2,62,0,0
163173,-100,4,2,2,64,0,0
163609,-100,4,2,1,66,0,1
165791,-100,4,2,2,66,0,1
166228,-100,4,2,1,62,0,0
166446,-100,4,2,2,62,0,0
166664,-100,4,2,2,64,0,0
167100,-100,4,2,1,65,0,1
167973,-105.263157894737,4,2,1,65,0,0
171464,-100,4,2,1,65,0,0
172337,-105.263157894737,4,2,1,65,0,0
173209,-105.263157894737,4,2,1,66,0,0
173646,-105.263157894737,4,2,1,67,0,0
174082,-86.9565217391304,4,2,1,68,0,0
174955,-100,4,2,1,70,0,1
175118,-100,4,2,1,60,0,1
175173,-100,4,2,1,70,0,1
181500,-100,4,2,2,70,0,1
181937,-100,4,2,1,70,0,1
183682,-83.3333333333333,4,2,1,70,0,1
184500,-83.3333333333333,4,2,1,60,0,1
184555,-83.3333333333333,4,2,1,70,0,1
184991,-100,4,2,1,70,0,1
187173,-83.3333333333333,4,2,1,70,0,1
188046,-100,4,2,1,60,0,0
188373,-100,4,2,1,65,0,0
188919,-100,4,2,1,70,0,1
198519,-83.3333333333333,4,2,1,70,0,1
199391,-90.9090909090909,4,2,1,70,0,1
201028,-90.9090909090909,4,2,1,60,0,1
201137,-90.9090909090909,4,2,1,70,0,1
202009,-90.9090909090909,4,2,2,70,0,1
202882,-250,4,2,1,54,0,0
203100,-250,4,2,1,48,0,0
209864,-200,4,2,1,50,0,0
213355,-166.666666666667,4,2,1,52,0,0
214228,-166.666666666667,4,2,1,54,0,0
215100,-142.857142857143,4,2,1,56,0,0
215537,-133.333333333333,4,2,1,58,0,0
215973,-125,4,2,1,60,0,0
216409,-125,4,2,1,62,0,0
216628,-125,4,2,1,64,0,0
216846,-90.9090909090909,4,2,1,70,0,1
221209,-111.111111111111,4,2,1,70,0,1
221864,-125,4,2,1,70,0,1
222082,-111.111111111111,4,2,1,70,0,1
222955,-100,4,2,1,70,0,1
223609,-100,4,2,2,70,0,1
223828,-90.9090909090909,4,2,1,70,0,1
224155,-100,4,2,1,70,0,1
230155,-111.111111111111,4,2,1,70,0,1
230591,-111.111111111111,4,2,2,70,0,1
230809,-90.9090909090909,4,2,1,70,0,1
238446,-90.9090909090909,4,2,1,67,0,1
239537,-90.9090909090909,4,2,1,70,0,1
240191,-90.9090909090909,4,2,1,67,0,1
241282,-90.9090909090909,4,2,1,70,0,1
241609,-90.9090909090909,4,2,1,66,0,1
242700,-90.9090909090909,4,2,1,67,0,1
243028,-83.3333333333333,4,2,1,68,0,1
243900,-76.9230769230769,4,2,1,68,0,1
244228,-83.3333333333333,4,2,1,68,0,1
244773,-95.2380952380952,4,2,1,72,0,1
251319,-95.2380952380952,4,2,2,72,0,1
251755,-95.2380952380952,4,2,1,72,0,1
253500,-80,4,2,1,72,0,1
254318,-80,4,2,1,60,0,1
254373,-80,4,2,1,72,0,1
254809,-95.2380952380952,4,2,1,72,0,1
256991,-80,4,2,1,72,0,1
257864,-95.2380952380952,4,2,1,62,0,0
258191,-95.2380952380952,4,2,1,66,0,0
258737,-90.9090909090909,4,2,1,72,0,1
264737,-83.3333333333333,4,2,1,72,0,1
265064,-90.9090909090909,4,2,1,72,0,1
268337,-83.3333333333333,4,2,1,72,0,1
268664,-100,4,2,1,72,0,1
269209,-86.9565217391304,4,2,1,72,0,1
269428,-95.2380952380952,4,2,1,72,0,1
269864,-90.9090909090909,4,2,1,72,0,1
271828,-90.9090909090909,4,2,2,70,0,1
272700,-95.2380952380952,4,2,1,72,0,1
278809,-86.9565217391304,4,2,1,72,0,1
279682,-95.2380952380952,4,2,1,72,0,1
285791,-86.9565217391304,4,2,2,70,0,1
286446,-86.9565217391304,4,2,1,70,0,1
286664,-83.3333333333333,4,2,1,72,0,1
293537,-83.3333333333333,4,2,1,72,0,0
293646,-83.3333333333333,4,3,1,74,0,1
298882,-76.9230769230769,4,2,1,76,0,1
300628,-217.391304347826,4,2,1,72,0,0
300846,-217.391304347826,4,2,1,50,0,0
301064,-217.391304347826,4,2,1,45,0,0
301282,-217.391304347826,4,2,1,40,0,0
301500,-217.391304347826,4,2,1,35,0,0
301719,-217.391304347826,4,2,1,30,0,0
301937,-217.391304347826,4,2,1,25,0,0
302155,-217.391304347826,4,2,1,20,0,0
302373,-217.391304347826,4,2,2,30,0,0

[Colours]
Combo1 : 250,180,240
Combo2 : 120,200,230
Combo3 : 255,230,130
Combo4 : 160,230,150

[HitObjects]
209,157,410,6,0,P|215:82|69:35,1,240,6|0,1:2|0:0,0:0:0:0:
333,210,1282,2,0,P|327:135|473:88,1,240,0|0,1:0|0:0,0:0:0:0:
265,288,2155,6,0,B|135:235|160:336|34:295,1,240,2|0,1:2|0:0,0:0:0:0:
271,106,3028,2,0,B|401:159|376:58|501:98,1,240,2|0,1:2|0:0,0:0:0:0:
432,212,3900,6,0,P|373:231|373:321,1,143.999995605469,2|0,1:2|1:0,0:0:0:0:
445,367,4228,1,2,0:0:0:0:
445,367,4337,2,0,P|445:319|435:272,1,71.9999978027344,0|0,1:0|0:0,0:0:0:0:
278,274,4555,2,0,P|273:309|274:345,1,71.9999978027344,2|0,1:2|0:0,0:0:0:0:
361,304,4773,6,0,P|335:204|270:192,1,167.999994873047,2|2,1:2|0:0,0:0:0:0:
195,282,5100,1,2,0:0:0:0:
195,282,5209,2,0,P|235:282|285:272,1,83.9999974365235,0|0,1:0|0:0,0:0:0:0:
331,111,5428,2,0,P|289:103|247:103,1,83.9999974365235,2|0,1:2|0:0,0:0:0:0:
98,214,5646,5,6,3:2:0:0:
98,214,5755,1,0,3:0:0:0:
98,214,5864,1,0,3:0:0:0:
98,214,5973,1,0,3:0:0:0:
98,214,6082,1,0,3:0:0:0:
98,214,6191,1,0,3:0:0:0:
98,214,6300,1,0,3:0:0:0:
98,214,6409,1,0,3:0:0:0:
53,283,6519,5,6,1:1:0:0:
4,214,6628,5,0,1:0:0:0:
41,129,6737,5,0,1:0:0:0:
140,112,6846,5,0,1:0:0:0:
203,206,6955,5,8,1:2:0:0:
456,80,7391,5,2,3:2:0:0:
387,18,7500,1,0,3:0:0:0:
305,61,7609,1,0,3:0:0:0:
374,123,7719,1,2,3:2:0:0:
495,215,8046,5,2,3:2:0:0:
466,126,8155,1,0,3:2:0:0:
374,123,8264,1,0,3:2:0:0:
401,210,8373,1,2,3:2:0:0:
460,351,8700,5,2,3:2:0:0:
479,259,8809,1,0,3:2:0:0:
401,210,8919,1,0,3:2:0:0:
381,299,9028,1,2,3:2:0:0:
215,130,9355,5,2,3:3:0:0:
296,253,9464,1,2,3:3:0:0:
198,237,9573,1,2,3:3:0:0:
313,146,9682,1,2,3:3:0:0:
52,351,10009,5,2,3:2:0:0:
131,299,10119,1,0,3:2:0:0:
111,210,10228,1,0,3:2:0:0:
33,259,10337,1,0,3:2:0:0:
198,237,10446,6,0,B|213:193|213:193|185:137,1,96,6|0,3:2|0:2,0:2:0:0:
58,56,10664,2,0,B|35:100|35:100|50:144,1,96,6|0,3:2|0:2,0:2:0:0:
256,64,10882,5,2,3:2:0:0:
344,121,10991,1,0,3:2:0:0:
439,75,11100,1,0,3:2:0:0:
351,19,11209,1,2,3:2:0:0:
256,64,11537,5,2,3:3:0:0:
161,19,11646,1,2,3:3:0:0:
168,121,11755,1,2,3:3:0:0:
73,75,11864,1,2,3:3:0:0:
256,192,12191,5,2,3:2:0:0:
336,259,12300,1,0,3:2:0:0:
436,226,12409,1,0,3:2:0:0:
355,158,12519,1,2,3:2:0:0:
256,192,12846,5,2,3:2:0:0:
175,259,12955,1,0,3:2:0:0:
75,225,13064,1,0,3:2:0:0:
156,158,13173,1,2,3:2:0:0:
324,343,13500,5,2,3:2:0:0:
188,343,13609,1,0,3:2:0:0:
336,259,13719,1,0,3:2:0:0:
175,259,13828,1,0,3:2:0:0:
256,192,13937,6,0,P|259:144|252:97,1,96,6|0,3:2|0:2,0:2:0:0:
56,172,14155,2,0,P|48:219|52:266,1,96,6|0,3:2|0:2,0:2:0:0:
191,363,14373,5,2,3:2:0:0:
175,259,14482,1,0,3:2:0:0:
256,192,14591,1,0,3:2:0:0:
272,296,14700,1,2,3:2:0:0:
85,127,15028,5,2,3:2:0:0:
189,111,15137,1,0,3:2:0:0:
256,192,15246,1,0,3:2:0:0:
152,209,15355,1,2,3:2:0:0:
321,21,15682,5,2,3:2:0:0:
337,125,15791,1,0,3:2:0:0:
256,192,15900,1,0,3:2:0:0:
239,88,16009,1,2,3:2:0:0:
427,257,16337,5,2,3:3:0:0:
360,175,16446,1,2,3:3:0:0:
323,273,16555,1,2,3:3:0:0:
256,192,16664,1,2,3:3:0:0:
85,257,16991,5,2,3:2:0:0:
191,273,17100,1,0,3:2:0:0:
256,192,17209,1,0,3:2:0:0:
152,175,17319,1,0,3:2:0:0:
271,106,17428,6,0,B|286:64|286:64|268:2,1,96,6|0,3:2|0:2,0:2:0:0:
81,39,17646,2,0,B|66:81|66:81|84:143,1,96,6|0,3:2|0:2,0:2:0:0:
256,192,17864,5,2,3:2:0:0:
359,142,17973,1,0,3:2:0:0:
435,228,18082,1,0,3:2:0:0:
332,278,18191,1,2,3:2:0:0:
80,130,18519,5,2,3:3:0:0:
116,253,18628,1,2,3:3:0:0:
177,168,18737,1,2,3:3:0:0:
17,214,18846,1,2,3:3:0:0:
433,219,19173,5,2,0:3:0:0:
390,361,19282,1,2,0:3:0:0:
317,262,19391,1,2,3:3:0:0:
504,317,19500,1,2,0:3:0:0:
421,200,19609,6,0,L|410:84,1,107.999996704102,6|0,3:2|0:2,0:2:0:0:
172,303,19828,2,0,L|161:187,1,107.999996704102,6|0,3:2|0:2,0:2:0:0:
32,171,20046,6,0,L|43:55,1,107.999996704102,6|0,3:2|0:2,0:2:0:0:
320,323,20264,2,0,L|331:207,1,107.999996704102,6|0,3:2|0:2,0:2:0:0:
455,146,20482,6,0,L|444:30,1,107.999996704102,6|0,3:2|0:2,0:2:0:0:
144,252,20700,2,0,L|133:136,1,107.999996704102,6|0,3:2|0:2,0:2:0:0:
440,337,20919,5,0,3:2:0:0:
440,337,20973,1,0,3:3:0:0:
440,337,21028,1,0,3:3:0:0:
440,337,21082,1,0,3:3:0:0:
440,337,21137,1,0,3:3:0:0:
440,337,21191,1,0,3:3:0:0:
440,337,21246,1,0,3:3:0:0:
440,337,21300,1,0,3:3:0:0:
440,337,21355,6,0,P|447:204|353:164,1,240,12|0,1:3|1:0,0:0:0:0:
181,253,21682,2,0,P|161:141|256:79,1,240,2|0,1:0|1:0,0:0:0:0:
296,276,22009,2,0,B|322:332|322:332|297:385,1,120,2|0,1:0|0:0,0:0:0:0:
49,286,22228,5,2,1:0:0:0:
100,344,22337,2,0,L|232:334,1,120,0|0,1:0|0:0,0:0:0:0:
466,227,22555,1,2,1:0:0:0:
415,285,22664,2,0,L|283:275,1,120,0|0,1:0|0:0,0:0:0:0:
241,117,22882,2,0,B|268:67|268:67|242:8,1,120,2|0,1:1|0:0,0:0:0:0:
57,242,23100,6,2,P|47:127|138:58,1,240,2|0,1:0|1:0,0:1:0:0:
373,57,23428,2,2,P|472:113|464:226,1,240,2|0,1:0|1:0,0:1:0:0:
260,202,23755,2,0,P|316:183|376:183,1,120,2|0,1:0|0:0,0:0:0:0:
141,348,23973,5,6,1:1:0:0:
93,287,24082,2,0,B|67:228|67:228|96:153,1,132.00000402832,2|0,1:0|0:0,0:0:0:0:
327,365,24300,1,2,1:0:0:0:
375,304,24409,2,0,B|401:245|401:245|376:182,1,132.00000402832,6|0,1:0|0:0,0:0:0:0:
153,67,24628,2,0,L|-1:56,1,132.00000402832,6|0,1:0|0:0,0:0:0:0:
284,23,24846,6,0,B|410:-30|378:99|526:76,1,240,6|0,1:1|1:0,0:1:0:0:
242,161,25173,2,2,B|116:108|148:237|0:214,1,240,2|0,1:0|1:0,1:0:0:0:
274,378,25500,2,0,P|266:318|286:257,1,120,2|0,1:0|0:0,0:0:0:0:
464,86,25719,5,2,1:0:0:0:
473,164,25828,2,0,L|484:290,1,120,0|0,1:2|0:0,0:0:0:0:
250,83,26046,1,2,1:0:0:0:
242,161,26155,2,0,L|231:287,1,120,0|0,1:2|0:0,0:0:0:0:
28,67,26373,2,0,L|39:193,1,120,2|0,1:1|0:0,0:0:0:0:
5,384,26591,6,2,P|70:257|178:223,1,240,2|0,1:0|1:0,1:0:0:0:
469,239,26919,2,2,P|404:112|296:78,1,240,2|0,1:0|1:0,1:0:0:0:
254,259,27246,2,0,P|259:199|234:145,1,120,2|0,1:1|0:0,0:0:0:0:
1,11,27464,5,6,1:1:0:0:
71,46,27573,2,0,B|121:42|121:42|150:22|150:22|233:14,1,143.999995605469,2|0,1:1|0:0,0:0:0:0:
444,118,27791,1,2,1:1:0:0:
373,151,27900,2,0,B|323:147|323:147|294:127|294:127|211:119,1,143.999995605469,6|0,1:1|0:0,0:0:0:0:
29,232,28119,2,0,B|79:228|79:228|108:208|108:208|191:200,1,143.999995605469,6|0,1:1|0:0,0:0:0:0:
415,270,28337,6,2,P|396:353|256:360,1,240,12|0,1:3|1:0,0:1:0:0:
29,232,28664,2,0,P|48:315|188:322,1,240,2|0,1:0|1:0,1:0:0:0:
268,226,28991,2,0,L|239:95,1,120,2|0,1:0|0:0,0:0:0:0:
400,0,29209,5,2,1:0:0:0:
464,49,29319,2,0,P|469:95|434:175,1,120,0|0,1:0|0:0,0:0:0:0:
268,226,29537,1,2,1:0:0:0:
204,177,29646,2,0,P|199:131|234:51,1,120,0|0,1:0|0:0,0:0:0:0:
431,241,29864,2,0,P|385:277|327:290,1,120,2|0,1:0|0:0,0:0:0:0:
150,3,30082,6,2,P|106:114|119:232,1,240,2|0,1:0|1:0,1:0:0:0:
431,241,30409,2,2,P|443:122|400:12,1,240,2|0,1:0|1:0,1:0:0:0:
272,236,30737,2,0,B|269:286|269:286|276:301|276:301|272:386,1,120,2|0,1:1|0:0,0:0:0:0:
0,252,30955,5,6,1:0:0:0:
65,295,31064,2,0,B|125:322|125:322|188:280,1,132.00000402832,2|0,1:0|0:0,0:0:0:0:
403,134,31282,1,2,1:0:0:0:
338,177,31391,2,0,B|278:204|278:204|215:162,1,132.00000402832,6|0,1:0|0:0,0:0:0:0:
10,74,31609,2,0,B|70:101|70:101|133:59,1,132.00000402832,6|0,1:0|0:0,0:0:0:0:
403,134,31828,6,2,P|398:46|257:16,1,240,6|0,1:0|1:0,1:0:0:0:
72,193,32155,2,2,P|77:105|218:75,1,240,2|0,1:0|1:0,1:0:0:0:
330,256,32482,2,0,P|334:196|300:147,1,120,2|0,1:0|0:0,0:0:0:0:
91,319,32700,5,2,1:0:0:0:
156,367,32809,2,0,L|302:360,1,120,0|0,1:0|0:0,0:0:0:0:
432,217,33028,1,2,1:0:0:0:
367,265,33137,2,0,L|221:258,1,120,0|0,1:0|0:0,0:0:0:0:
88,169,33355,2,0,L|234:162,1,120,2|0,1:0|0:0,0:0:0:0:
480,141,33573,6,2,P|462:55|321:36,1,240,2|0,1:0|1:0,1:0:0:0:
88,169,33900,2,2,P|126:62|239:59,1,240,2|0,1:0|1:0,1:0:0:0:
334,226,34228,2,0,L|322:372,1,120,2|0,1:0|0:0,0:0:0:0:
69,384,34446,6,2,P|18:245|69:117,1,287.999991210938,12|0,1:3|1:0,0:1:0:0:
445,120,34773,2,2,P|494:252|443:384,1,287.999991210938,6|0,1:0|1:0,0:1:0:0:
274,151,35100,2,0,B|284:108|284:108|278:65|278:65|298:-15,1,143.999995605469,6|0,1:0|0:0,0:0:0:0:
1,165,35319,6,2,B|241:166|63:10|294:11,1,360,12|2,1:3|0:1,0:1:0:0:
390,123,35755,1,2,1:2:0:0:
238,253,35864,1,2,1:2:0:0:
423,356,35973,2,2,P|434:190|273:151,1,360,10|0,1:1|1:0,0:1:0:0:
52,380,36409,6,0,L|185:371,1,120,10|0,1:0|0:0,0:0:0:0:
357,244,36628,2,0,L|224:253,1,120,2|0,1:0|0:0,0:0:0:0:
26,145,36846,2,0,L|145:136,1,120,10|0,1:0|0:0,0:0:0:0:
424,165,37064,6,2,P|442:76|403:-2,1,180,2|0,1:0|0:0,0:1:0:0:
382,10,37282,1,10,1:0:0:0:
235,137,37391,2,0,P|222:179|248:268,1,120,2|0,1:1|0:0,0:0:0:0:
393,350,37609,2,0,L|530:356,1,120,2|8,1:0|0:0,0:0:0:0:
237,252,37828,6,0,B|108:216|137:336|-3:280,1,240,2|0,1:1|1:0,0:0:0:0:
144,124,38155,2,0,P|145:64|175:13,1,120,10|0,1:0|0:0,0:0:0:0:
403,0,38373,5,2,1:2:0:0:
351,134,38482,1,2,1:2:0:0:
289,33,38591,1,10,1:2:0:0:
463,99,38700,1,2,1:2:0:0:
224,167,38809,6,0,B|165:150|165:150|139:120|139:120|58:101,1,180,6|0,1:0|0:0,0:0:0:0:
38,96,39028,1,10,1:0:0:0:
78,329,39137,2,0,B|63:271|63:271|95:218,1,120,2|0,1:0|0:0,0:0:0:0:
277,274,39355,2,0,B|289:332|289:332|259:384,1,120,2|8,1:0|0:0,0:0:0:0:
351,134,39573,6,2,P|361:56|534:41,1,240,2|0,1:0|1:0,0:1:0:0:
387,223,39900,2,0,L|506:211,1,120,10|0,1:0|0:0,0:0:0:0:
210,70,40119,2,0,L|329:58,1,120,2|0,1:0|0:0,0:0:0:0:
157,286,40337,2,0,L|276:274,1,120,10|0,1:0|0:0,0:0:0:0:
56,173,40555,6,2,P|76:61|34:1,1,180,2|0,1:1|0:0,0:1:0:0:
20,17,40773,1,10,1:0:0:0:
199,187,40882,2,0,P|213:146|205:53,1,120,2|0,1:0|0:0,0:0:0:0:
56,173,41100,2,0,P|42:214|50:307,1,120,2|8,1:0|0:0,0:0:0:0:
257,384,41319,2,2,B|353:371|353:371|388:386|388:386|522:369,1,240,2|0,1:0|1:1,0:1:0:0:
454,180,41646,6,0,P|482:85|423:0,1,198.000006042481,10|0,1:1|0:0,0:1:0:0:
356,25,41864,2,0,B|302:17|302:17|272:41|272:41|198:34,1,143.999995605469,6|0,1:0|0:0,0:0:0:0:
0,227,42082,2,0,B|54:219|54:219|84:243|84:243|158:236,1,143.999995605469,6|0,1:0|0:0,0:0:0:0:
409,377,42300,6,2,P|446:256|160:185,1,480,12|8,1:3|1:0,1:0:0:0:
70,320,42846,1,2,1:0:0:0:
0,227,42955,2,0,P|-6:167|16:106,1,120,2|0,1:0|0:0,0:0:0:0:
180,161,43173,2,0,P|186:220|167:276,1,120,10|0,1:2|0:0,0:0:0:0:
337,115,43391,6,0,P|330:55|349:-1,1,120,2|0,1:0|0:0,0:0:0:0:
512,139,43609,2,0,P|518:198|499:254,1,120,10|0,1:0|0:0,0:0:0:0:
373,348,43828,2,0,L|224:317,1,120,10|0,1:0|0:0,0:0:0:0:
66,49,44046,6,2,B|351:-16|227:201|510:139,1,480,14|8,1:0|1:0,2:0:0:0:
340,230,44591,1,2,1:2:0:0:
472,325,44700,1,2,1:2:0:0:
329,384,44809,2,2,P|358:322|224:243,1,240,2|0,1:0|1:0,0:1:0:0:
68,379,45137,6,0,L|214:367,1,120,2|0,1:0|0:0,0:0:0:0:
460,240,45355,2,0,L|314:228,1,120,10|0,1:0|0:0,0:0:0:0:
65,115,45573,2,0,L|211:103,1,120,10|0,1:0|0:0,0:0:0:0:
499,21,45791,6,2,P|378:324|67:224,1,720,14|0,1:0|1:0,0:1:0:0:
138,88,46555,1,2,1:2:0:0:
386,206,46664,6,2,P|420:109|394:23,1,180,10|0,1:0|0:0,0:1:0:0:
331,0,46882,2,0,L|200:9,1,120,2|0,1:1|0:0,0:0:0:0:
51,151,47100,6,0,P|33:238|67:320,1,180,10|0,1:0|0:0,0:0:0:0:
135,363,47319,2,10,L|266:354,1,120,10|0,1:0|0:0,1:0:0:0:
512,203,47537,6,2,B|418:193|418:193|364:239|364:239|265:230,1,264.000008056641,2|0,1:0|1:0,0:1:0:0:
0,70,47864,2,0,B|94:60|94:60|148:106|148:106|246:97,1,264.000008056641,2|0,1:0|1:0,1:0:0:0:
73,335,48191,2,0,B|50:280|50:280|84:200,1,132.00000402832,2|0,1:0|0:0,0:0:0:0:
241,18,48409,5,2,1:2:0:0:
459,103,48519,1,2,1:2:0:0:
372,0,48628,1,2,1:2:0:0:
326,122,48737,1,2,1:2:0:0:
135,276,48846,5,2,1:2:0:0:
119,121,48955,1,2,1:2:0:0:
256,183,49064,1,2,1:2:0:0:
0,210,49173,1,2,1:2:0:0:
147,356,49282,6,0,B|258:322|225:399|347:355,1,192,6|8,1:1|2:0,0:0:0:0:
186,206,49609,2,0,B|75:172|108:249|-14:205,1,192,2|0,1:1|0:0,0:0:0:0:
202,114,49937,2,0,P|202:77|228:16,1,96,10|0,1:0|0:0,0:0:0:0:
394,172,50155,6,0,P|414:79|357:4,1,192,2|8,1:0|0:0,0:0:0:0:
267,180,50482,1,2,1:2:0:0:
360,262,50591,2,0,L|470:255,1,96,2|0,1:0|0:0,0:0:0:0:
300,363,50809,2,0,L|190:356,1,96,10|0,1:0|0:0,0:0:0:0:
94,191,51028,6,0,P|39:266|60:357,1,192,2|8,1:0|1:0,0:0:0:0:
232,256,51355,2,0,P|253:165|198:89,1,192,2|0,1:0|0:0,0:0:0:0:
49,0,51682,2,0,B|43:37|43:37|49:57|49:57|35:119,1,96,10|0,1:0|0:0,0:0:0:0:
30,237,51900,5,2,3:3:0:0:
131,315,52009,1,2,3:3:0:0:
73,367,52119,2,2,B|86:305|86:305|78:268|78:268|95:186,1,180,6|0,1:0|0:0,0:1:0:0:
98,173,52337,5,2,0:3:0:0:
246,181,52446,1,2,0:3:0:0:
220,265,52555,2,2,B|207:203|207:203|215:166|215:166|198:84,1,180,6|0,1:0|0:0,0:1:0:0:
258,24,52773,6,0,B|393:-8|338:85|485:59,1,215.999993408203,6|8,1:0|0:0,0:0:0:0:
290,166,53100,2,0,B|171:137|219:219|91:196,1,192,2|0,1:0|0:0,0:0:0:0:
241,347,53428,2,0,P|237:294|265:224,1,96,10|0,1:0|0:0,0:0:0:0:
455,384,53646,6,0,P|472:271|424:182,1,192,2|8,1:0|0:0,0:0:0:0:
508,114,53973,1,2,1:2:0:0:
349,37,54082,2,0,L|451:31,1,96,2|0,1:1|0:0,0:0:0:0:
260,209,54300,2,0,L|362:203,1,96,10|0,1:0|0:0,0:0:0:0:
187,119,54519,6,0,P|180:35|69:27,1,192,2|8,1:0|0:0,0:0:0:0:
0,213,54846,2,0,P|7:129|118:121,1,192,2|0,1:0|0:0,0:0:0:0:
197,233,55173,2,0,L|81:230,1,96,10|0,1:0|0:0,0:0:0:0:
293,91,55391,5,8,3:3:0:0:
417,202,55500,1,8,3:3:0:0:
451,37,55609,1,4,3:3:0:0:
387,110,55719,1,4,3:3:0:0:
497,133,55828,5,8,3:3:0:0:
309,193,55937,1,8,3:3:0:0:
352,1,56046,1,4,3:3:0:0:
387,110,56155,1,4,3:3:0:0:
198,29,56264,6,2,P|128:6|44:190,1,306.000005836487,12|0,0:3|0:1,0:1:0:0:
182,143,56700,1,2,1:2:0:0:
127,288,56809,1,2,1:2:0:0:
281,349,56919,2,2,P|211:372|127:188,1,306.000005836487,10|0,1:0|1:0,0:1:0:0:
292,28,57355,6,0,L|302:135,1,102.000001945496,10|0,1:2|0:0,0:0:0:0:
398,314,57573,2,0,L|388:212,1,102.000001945496,2|0,1:2|1:0,0:0:0:0:
454,14,57791,2,0,L|463:115,1,102.000001945496,10|0,1:2|0:0,0:0:0:0:
512,332,58009,6,2,B|401:296|443:386|318:353,1,204.000003890991,2|8,1:0|0:0,0:1:0:0:
210,211,58337,2,0,P|218:161|205:112,1,102.000001945496,2|0,2:1|1:0,0:0:0:0:
67,286,58555,2,0,P|58:335|71:384,1,102.000001945496,2|8,1:1|0:0,0:0:0:0:
10,121,58773,6,2,P|295:336|455:16,1,816.000015563965,2|2,1:0|0:1,0:1:0:0:
140,204,59755,6,0,P|98:112|110:12,1,204.000003890991,6|8,1:0|0:0,0:0:0:0:
269,91,60082,2,0,L|393:74,1,102.000001945496,2|0,0:1|1:0,0:0:0:0:
140,204,60300,2,0,L|38:215,1,102.000001945496,2|8,1:1|0:0,0:0:0:0:
285,312,60519,6,2,B|406:287|359:389|474:366,1,204.000003890991,2|0,1:0|1:0,0:1:0:0:
349,173,60846,2,0,P|348:124|387:59,1,102.000001945496,2|0,1:2|0:0,0:0:0:0:
140,204,61064,2,0,P|182:227|219:293,1,102.000001945496,2|0,1:2|1:0,0:0:0:0:
217,7,61282,2,0,P|175:32|99:31,1,102.000001945496,10|0,1:2|0:0,0:0:0:0:
349,173,61500,6,2,B|472:165|401:78|518:71,1,204.000003890991,2|8,1:0|0:0,0:1:0:0:
465,262,61828,2,0,P|475:297|456:372,1,102.000001945496,2|0,0:1|1:0,0:0:0:0:
312,384,62046,2,0,P|301:334|313:285,1,102.000001945496,2|8,1:0|0:0,0:0:0:0:
382,245,62264,1,2,0:0:0:0:
220,315,62373,2,0,L|95:298,1,102.000001945496,2|0,1:1|1:0,0:0:0:0:
0,110,62591,5,8,3:2:0:0:
46,16,62700,1,8,3:2:0:0:
158,189,62809,1,8,3:3:0:0:
56,193,62919,1,8,3:3:0:0:
150,11,63028,1,4,3:3:0:0:
206,98,63137,1,4,3:3:0:0:
494,31,63246,6,2,B|258:-49|362:200|104:103,1,431.999986816407,12|2,1:3|1:1,0:1:0:0:
218,257,63791,1,2,1:2:0:0:
85,384,63900,2,0,P|67:331|80:270,1,107.999996704102,10|0,1:2|0:0,0:0:0:0:
206,98,64119,6,0,L|334:87,1,107.999996704102,2|0,1:1|2:0,0:0:0:0:
107,192,64337,2,0,L|-21:181,1,107.999996704102,10|0,1:0|0:0,0:0:0:0:
214,384,64555,2,0,P|232:321|213:268,1,107.999996704102,2|0,1:0|2:0,0:0:0:0:
323,31,64773,2,0,P|312:83|330:133,1,107.999996704102,10|0,1:0|0:0,0:0:0:0:
492,364,64991,6,2,B|600:293|537:93|370:94|266:238|301:276|338:313|236:358|115:421|47:254|108:192,1,755.999976928712,6|2,1:0|0:1,0:1:0:0:
323,31,65864,6,0,L|455:14,1,107.999996704102,2|0,1:1|2:0,0:0:0:0:
293,229,66082,2,0,L|425:212,1,107.999996704102,10|0,1:0|0:0,0:0:0:0:
145,94,66300,2,0,B|167:44|167:44|135:-6,1,107.999996704102,2|0,1:0|2:0,0:0:0:0:
25,190,66519,2,0,B|-3:235|-3:235|18:285,1,107.999996704102,10|0,1:0|0:0,0:0:0:0:
400,215,66737,6,2,P|294:378|102:299,1,431.999986816407,6|2,1:0|1:1,0:1:0:0:
25,190,67282,1,2,1:2:0:0:
144,108,67391,2,0,P|161:57|139:-6,1,107.999996704102,10|0,1:2|0:0,0:0:0:0:
247,270,67609,6,0,P|230:321|252:384,1,107.999996704102,2|0,1:0|2:0,0:0:0:0:
400,215,67828,2,0,L|528:209,1,107.999996704102,10|0,1:0|0:0,0:0:0:0:
264,113,68046,2,0,P|280:63|268:11,1,107.999996704102,2|0,1:0|2:0,0:0:0:0:
25,190,68264,2,0,L|133:196,1,107.999996704102,10|0,1:0|0:0,0:0:0:0:
462,97,68482,6,0,P|510:216|464:337,1,264.000008056641,12|0,1:3|1:0,0:1:0:0:
71,328,68809,2,2,P|25:207|74:87,1,264.000008056641,6|0,1:1|1:0,0:1:0:0:
264,205,69137,2,0,L|102:193,1,132.00000402832,6|0,1:1|0:0,0:0:0:0:
340,3,69355,5,8,0:0:0:0:
462,97,69464,1,8,0:0:0:0:
322,20,69573,1,8,0:3:0:0:
375,172,69682,1,8,0:3:0:0:
306,36,69791,1,4,0:3:0:0:
264,205,69900,1,4,0:3:0:0:
391,280,70009,5,2,3:3:0:0:
391,280,70119,1,2,3:3:0:0:
248,359,70228,6,2,P|202:363|126:334,1,113.999996955872,12|0,0:3|0:0,0:1:0:0:
391,280,70446,2,0,P|437:276|513:305,1,113.999996955872,2|0,1:1|0:0,0:0:0:0:
264,205,70664,1,10,1:0:0:0:
347,107,70773,2,0,P|366:56|341:-16,1,113.999996955872,0|0,1:1|0:0,0:0:0:0:
184,151,70991,5,2,1:2:0:0:
264,205,71100,2,2,B|403:167|337:260|481:232,1,227.999993911743,10|0,1:0|1:0,0:1:0:0:
272,338,71428,2,2,B|133:300|199:393|55:365,1,227.999993911743,2|0,1:0|1:0,0:1:0:0:
264,205,71755,2,0,P|282:146|263:83,1,113.999996955872,2|0,1:0|0:0,0:0:0:0:
49,7,71973,6,2,P|37:80|494:68,1,797.999978691102,10|0,1:0|1:1,0:1:0:0:
307,0,72846,6,0,P|314:46|291:132,1,113.999996955872,10|0,1:0|0:0,0:0:0:0:
212,365,73064,2,0,P|199:309|206:253,1,113.999996955872,2|0,1:0|0:0,0:0:0:0:
309,305,73282,1,10,1:1:0:0:
309,305,73391,1,8,1:0:0:0:
121,348,73500,6,0,B|76:341|76:341|54:354|54:354|-10:347,1,125.999996154785,6|0,1:1|0:0,0:0:0:0:
309,305,73719,2,0,B|354:298|354:298|376:311|376:311|440:304,1,125.999996154785,14|0,1:1|0:0,0:0:0:0:
206,133,73937,6,0,L|184:0,1,113.999996955872,2|0,1:1|0:0,0:0:0:0:
402,221,74155,1,10,1:0:0:0:
451,134,74264,2,0,L|473:1,1,113.999996955872,2|0,1:0|0:0,0:0:0:0:
264,219,74482,5,2,1:0:0:0:
206,133,74591,2,2,P|191:192|36:177,1,227.999993911743,10|0,1:0|1:0,0:1:0:0:
317,283,74919,2,2,P|332:342|487:327,1,227.999993911743,2|0,1:0|1:0,0:1:0:0:
342,141,75246,2,0,B|380:132|380:132|405:145|405:145|450:133,1,113.999996955872,2|0,1:0|0:0,0:0:0:0:
172,21,75464,6,2,P|204:344|450:133,1,797.999978691102,10|0,1:0|1:0,0:1:0:0:
370,11,76337,5,8,3:2:0:0:
287,262,76482,1,8,3:2:0:0:
111,64,76628,1,8,3:2:0:0:
316,82,76773,5,8,3:0:0:0:
252,179,76919,1,8,3:0:0:0:
199,75,77064,1,8,3:0:0:0:
122,261,77209,6,2,P|105:360|-8:337,1,227.999993911743,12|0,0:3|1:0,0:1:0:0:
252,179,77537,2,2,P|271:281|374:267,1,227.999993911743,2|0,1:0|1:0,0:1:0:0:
352,94,77864,2,0,L|468:59,1,113.999996955872,2|0,1:0|0:0,0:0:0:0:
203,93,78082,6,0,B|66:90|146:-8|-11:11,1,227.999993911743,10|0,1:0|1:0,0:0:0:0:
107,206,78409,1,2,1:1:0:0:
107,206,78519,2,0,B|77:255|77:255|104:334,1,113.999996955872,8|0,1:2|0:0,0:0:0:0:
252,384,78737,2,0,B|282:335|282:335|263:281,1,113.999996955872,2|0,1:0|0:0,0:0:0:0:
390,81,78955,6,2,P|407:185|512:190,1,227.999993911743,10|0,1:0|1:0,0:1:0:0:
277,1,79282,2,2,P|271:93|128:78,1,227.999993911743,2|0,1:0|1:0,0:1:0:0:
12,30,79609,2,0,L|139:18,1,113.999996955872,2|0,1:0|0:0,0:0:0:0:
351,177,79828,6,2,P|497:180|390:80,1,377.999988464356,14|2,1:1|1:1,0:1:0:0:
196,301,80264,2,0,P|49:299|160:203,1,377.999988464356,14|2,0:1|1:1,0:0:0:0:
413,375,80700,6,2,P|402:50|196:301,1,840,14|2,1:0|1:1,0:1:0:0:
98,375,81573,6,0,P|109:50|316:300,1,797.999978691102,10|2,1:1|1:1,0:0:0:0:
221,384,82446,5,2,1:2:0:0:
138,208,82555,1,2,1:2:0:0:
332,262,82664,1,2,1:2:0:0:
248,85,82773,1,2,1:2:0:0:
247,216,82882,5,2,1:2:0:0:
129,30,82991,1,2,1:2:0:0:
119,336,83100,1,2,1:2:0:0:
1,150,83209,1,2,1:2:0:0:
256,239,83319,6,0,B|435:191|333:330|525:277,1,276.000005264282,6|0,1:1|1:0,0:0:0:0:
334,106,83646,2,2,P|335:10|240:0,1,207.000003948212,6|0,1:1|0:0,0:1:0:0:
174,41,83864,5,2,1:2:0:0:
395,164,83973,1,2,1:2:0:0:
177,293,84082,1,2,1:2:0:0:
377,384,84191,6,2,B|393:325|393:325|371:271,1,120,12|0,1:3|0:0,0:1:0:0:
94,242,84409,2,0,B|72:296|72:296|88:355,1,120,10|0,1:0|0:0,0:0:0:0:
252,158,84628,1,0,1:0:0:0:
152,59,84737,2,0,B|114:52|114:52|91:64|91:64|30:55,1,120,0|8,1:0|2:0,0:0:0:0:
210,272,84955,6,2,P|496:316|359:58,1,720,6|2,1:1|2:1,0:1:0:0:
281,195,85719,1,10,1:0:0:0:
130,11,85828,6,0,P|139:117|245:100,1,240,2|0,1:1|0:0,0:0:0:0:
467,2,86155,2,0,P|485:58|465:113,1,120,10|0,1:0|0:0,0:0:0:0:
230,0,86373,1,2,1:0:0:0:
117,112,86482,2,0,P|98:168|118:223,1,120,2|8,1:0|0:0,0:0:0:0:
275,357,86700,6,2,B|368:347|368:347|412:375|412:375|509:366,1,240,6|0,1:1|0:1,0:1:0:0:
467,225,87028,2,0,P|484:184|444:93,1,120,8|0,1:0|0:0,0:0:0:0:
403,53,87246,2,0,L|273:41,1,120,0|0,1:0|0:0,0:0:0:0:
205,82,87464,2,0,L|75:70,1,120,8|0,1:0|0:0,0:0:0:0:
0,265,87682,5,6,1:0:0:0:
180,167,87791,1,2,2:2:0:0:
173,372,87900,1,10,2:2:0:0:
117,270,88009,2,2,P|336:233|350:11,1,480,2|2,1:1|2:1,0:1:0:0:
54,122,88555,6,2,P|25:204|69:378,1,240,2|8,1:0|0:0,0:1:0:0:
419,150,88882,2,2,P|450:264|421:379,1,240,2|0,1:0|0:0,0:1:0:0:
282,262,89209,2,0,L|162:272,1,120,10|0,1:1|0:0,0:0:0:0:
330,79,89428,6,2,B|438:57|397:145|494:123,1,180,2|0,1:0|0:0,0:1:0:0:
512,111,89646,1,10,1:0:0:0:
433,252,89755,2,2,P|428:359|320:354,1,240,2|0,0:1|1:0,2:1:0:0:
247,377,90082,1,10,2:1:0:0:
335,163,90191,6,2,B|472:160|373:29|508:31,1,240,6|2,1:0|0:1,0:1:0:0:
223,206,90519,5,8,1:0:0:0:
315,280,90628,1,8,1:0:0:0:
353,45,90737,1,8,1:3:0:0:
243,88,90846,1,8,1:3:0:0:
429,235,90955,1,4,1:3:0:0:
449,120,91064,1,4,1:3:0:0:
205,219,91173,6,0,L|79:206,1,120,12|0,1:3|0:0,0:0:0:0:
314,362,91391,2,0,L|440:375,1,120,10|0,1:0|0:0,0:0:0:0:
222,206,91609,1,2,1:0:0:0:
348,155,91719,2,0,P|371:101|353:45,1,120,2|8,1:0|0:0,0:0:0:0:
99,14,91937,6,2,P|-7:214|176:370,1,480,2|2,1:1|2:1,0:1:0:0:
387,250,92482,2,0,P|402:286|395:389,1,120,2|0,1:0|1:0,0:0:0:0:
170,235,92700,2,0,P|166:175|185:118,1,120,10|0,1:0|0:0,0:0:0:0:
440,305,92919,6,2,B|501:272|501:272|451:58,1,287.999991210938,12|0,1:3|1:0,0:1:0:0:
70,277,93246,2,2,B|19:228|19:228|100:-1,1,287.999991210938,6|0,1:1|1:0,0:1:0:0:
316,168,93573,2,2,B|258:151|258:151|244:133|244:133|184:119,1,143.999995605469,14|0,1:1|0:0,0:1:0:0:
0,336,93791,6,2,B|242:243|162:449|412:361,1,431.999986816407,6|2,1:1|0:1,0:1:0:0:
185,119,94228,2,0,P|158:172|164:232,1,120,2|0,1:0|0:0,0:0:0:0:
440,131,94446,2,0,P|445:71|418:18,1,120,10|0,1:0|0:0,0:0:0:0:
176,0,94664,5,6,1:1:0:0:
293,79,94773,1,2,1:2:0:0:
164,231,94882,1,10,2:2:0:0:
283,308,94991,2,2,B|420:256|379:367|525:314,1,240,2|2,1:0|1:1,0:1:0:0:
305,187,95319,2,0,B|324:134|324:134|287:70,1,120,10|0,1:1|0:0,0:0:0:0:
165,0,95537,5,2,1:0:0:0:
67,225,95646,1,2,1:2:0:0:
1,21,95755,1,10,1:2:0:0:
212,142,95864,2,2,B|304:131|304:131|347:154|347:154|456:139,1,240,2|0,1:0|1:0,0:1:0:0:
301,341,96191,2,0,B|320:288|320:288|283:224,1,120,10|0,1:0|0:0,0:0:0:0:
66,105,96409,5,6,1:1:0:0:
0,349,96519,1,2,1:1:0:0:
213,106,96628,1,10,1:0:0:0:
301,341,96737,2,0,P|383:369|425:209,1,287.999991210938,6|0,1:0|0:0,0:0:0:0:
251,27,97064,5,2,1:0:0:0:
104,225,97173,1,2,1:1:0:0:
4,0,97282,1,2,2:3:0:0:
4,0,97391,1,2,2:3:0:0:
104,225,97609,5,6,3:1:0:0:
251,27,97828,5,2,3:2:0:0:
104,225,97937,1,2,3:2:0:0:
350,254,98046,1,2,3:2:0:0:
184,146,98155,6,0,B|290:117|255:178|373:155,1,180,12|0,1:3|0:0,0:0:0:0:
424,123,98373,2,0,P|443:66|420:5,1,120,10|0,1:0|0:0,0:0:0:0:
271,190,98591,1,2,1:0:0:0:
350,254,98700,2,0,P|398:273|476:262,1,120,2|8,1:0|0:0,0:0:0:0:
216,111,98919,6,2,P|201:14|81:19,1,240,6|0,1:0|0:0,0:1:0:0:
0,124,99246,1,10,1:2:0:0:
86,114,99355,1,2,1:2:0:0:
144,272,99464,1,2,1:2:0:0:
58,282,99573,1,2,1:2:0:0:
216,111,99682,5,10,1:0:0:0:
291,169,99791,2,2,B|400:220|400:220|495:149,1,240,2|0,0:1|0:0,0:1:0:0:
294,384,100119,2,0,B|316:329|316:329|289:274,1,120,10|0,1:0|0:0,0:0:0:0:
112,173,100337,1,2,1:0:0:0:
63,256,100446,2,0,B|36:310|36:310|58:365,1,120,2|8,1:0|0:0,0:0:0:0:
0,98,100664,6,2,P|109:117|133:1,1,240,6|0,1:1|1:0,0:1:0:0:
215,204,100991,1,10,1:2:0:0:
277,31,101100,1,2,1:2:0:0:
412,164,101209,1,2,1:2:0:0:
511,98,101319,2,0,P|401:117|377:1,1,240,2|0,1:0|0:0,0:0:0:0:
215,204,101646,6,0,L|357:191,1,120,6|0,1:0|0:0,0:0:0:0:
462,347,101864,1,10,0:1:0:0:
511,285,101973,2,2,P|403:265|370:369,1,240,2|0,0:1|0:1,0:1:0:0:
198,226,102300,2,0,L|317:215,1,120,10|0,1:2|0:0,0:0:0:0:
164,21,102519,6,2,P|82:102|110:213,1,240,2|8,1:0|1:0,0:1:0:0:
347,21,102846,2,2,P|429:102|401:213,1,240,2|0,1:0|1:0,0:1:0:0:
298,384,103173,2,0,B|290:342|290:342|298:318|298:318|282:235,1,120,10|0,1:1|0:0,0:0:0:0:
189,70,103391,6,2,B|125:65|125:65|93:89|93:89|-8:79,1,180,2|0,1:0|0:0,0:1:0:0:
0,81,103609,1,10,1:0:0:0:
23,257,103719,2,2,P|26:355|166:341,1,240,2|0,1:0|1:0,0:1:0:0:
181,230,104046,1,10,1:0:0:0:
379,120,104155,6,2,P|423:323|215:317,1,480,6|2,1:0|0:1,0:1:0:0:
141,156,104700,1,2,1:0:0:0:
336,201,104809,1,2,1:0:0:0:
278,10,104919,1,10,2:2:0:0:
278,10,105028,1,10,2:2:0:0:
91,50,105137,6,2,B|309:-15|215:154|437:88,1,360,12|2,1:3|2:1,0:1:0:0:
316,219,105573,1,2,1:1:0:0:
399,367,105682,1,2,1:2:0:0:
512,238,105791,1,2,1:2:0:0:
429,90,105900,6,2,P|443:208|68:267,1,600,2|0,1:0|1:2,0:1:0:0:
197,142,106555,1,2,1:1:0:0:
119,10,106664,1,10,1:2:0:0:
25,88,106773,6,2,B|156:59|110:135|289:98,1,240,2|0,1:0|1:0,0:1:0:0:
128,213,107100,2,0,B|68:200|68:200|4:224,1,120,10|0,1:0|0:0,0:0:0:0:
176,329,107319,1,2,1:0:0:0:
271,364,107428,2,0,B|331:377|331:377|395:353,1,120,2|8,1:0|0:0,0:0:0:0:
461,384,107646,1,2,0:1:0:0:
313,219,107755,6,2,B|281:177|281:177|340:-7,1,215.999993408203,6|0,1:1|0:0,0:1:0:0:
349,10,107973,1,10,1:0:0:0:
475,287,108082,2,2,B|507:245|507:245|448:61,1,215.999993408203,6|0,1:0|0:0,0:1:0:0:
439,78,108300,1,2,1:0:0:0:
256,160,108409,1,10,1:2:0:0:
73,78,108519,1,2,1:2:0:0:
117,310,108628,6,2,P|118:188|-12:182,1,264.000008056641,6|8,1:1|0:1,0:1:0:0:
19,250,108955,1,0,1:0:0:0:
174,129,109064,2,0,B|196:70|196:70|173:-2,1,132.00000402832,2|2,1:1|1:0,0:0:0:0:
254,245,109282,2,0,B|232:304|232:304|255:376,1,132.00000402832,10|0,1:0|0:0,0:0:0:0:
380,190,109500,6,2,P|505:181|503:60,1,264.000008056641,2|8,1:0|1:0,0:1:0:0:
302,127,109828,2,2,P|182:123|174:3,1,264.000008056641,2|0,1:0|1:0,0:1:0:0:
1,192,110155,2,2,B|70:184|70:184|113:225|113:225|199:221,1,198.000006042481,10|0,1:0|0:0,0:1:0:0:
274,240,110373,6,2,P|282:360|402:363,1,264.000008056641,2|8,1:0|1:0,0:1:0:0:
508,66,110700,2,2,P|500:186|380:190,1,264.000008056641,2|0,1:0|1:0,0:1:0:0:
247,24,111028,1,10,1:0:0:0:
368,42,111137,1,2,1:2:0:0:
209,179,111246,5,8,3:3:0:0:
137,126,111355,2,0,P|134:63|170:-16,1,132.00000402832,8|0,3:3|3:3,0:0:0:0:
222,192,111573,1,4,3:3:0:0:
128,242,111682,2,0,P|65:234|-2:177,1,132.00000402832,4|0,3:3|3:0,0:0:0:0:
237,205,111900,1,0,3:3:0:0:
102,334,112009,1,0,3:3:0:0:
309,384,112119,6,0,B|450:398|367:264|504:281,1,240,12|0,1:3|1:0,0:0:0:0:
237,205,112446,2,0,B|99:217|179:85|42:102,1,240,2|0,1:0|1:0,0:0:0:0:
310,0,112773,2,0,P|295:55|314:111,1,120,2|0,1:0|0:0,0:0:0:0:
501,274,112991,5,2,1:0:0:0:
491,194,113100,2,0,L|475:66,1,120,0|0,1:0|0:0,0:0:0:0:
339,310,113319,1,2,1:0:0:0:
330,231,113428,2,0,L|314:103,1,120,0|0,1:0|0:0,0:0:0:0:
182,347,113646,2,0,L|167:227,1,120,2|0,1:1|0:0,0:0:0:0:
4,18,113864,6,2,P|15:131|129:161,1,240,2|0,1:0|1:0,0:1:0:0:
322,1,114191,2,2,P|310:114|197:144,1,240,2|0,1:0|1:0,0:1:0:0:
9,19,114519,2,0,P|-1:76|25:129,1,120,2|0,1:0|0:0,0:0:0:0:
205,280,114737,5,6,1:1:0:0:
130,310,114846,2,0,B|66:329|66:329|-14:292,1,132.00000402832,2|0,1:0|0:0,0:0:0:0:
283,206,115064,1,2,1:0:0:0:
358,236,115173,2,0,B|422:255|422:255|502:218,1,132.00000402832,6|0,1:0|0:0,0:0:0:0:
206,121,115391,2,0,B|233:63|233:63|203:-15,1,132.00000402832,6|0,1:0|0:0,0:0:0:0:
18,206,115609,6,0,P|31:93|138:56,1,240,6|0,1:1|1:0,0:1:0:0:
418,158,115937,2,2,P|404:45|297:8,1,240,2|0,1:0|1:0,1:0:0:0:
197,236,116264,2,0,P|187:176|209:115,1,120,2|0,1:0|0:0,0:0:0:0:
347,326,116482,5,2,1:0:0:0:
404,381,116591,2,0,P|460:359|502:310,1,120,0|0,1:2|0:0,0:0:0:0:
272,284,116809,1,2,1:0:0:0:
215,339,116919,2,0,P|158:317|116:268,1,120,0|0,1:2|0:0,0:0:0:0:
342,244,117137,2,0,P|367:188|361:124,1,120,2|0,1:1|0:0,0:0:0:0:
163,0,117355,6,2,P|75:66|85:190,1,240,2|0,1:0|1:0,1:0:0:0:
363,131,117682,2,2,P|453:202|443:317,1,240,2|0,1:0|1:0,1:0:0:0:
222,384,118009,2,0,B|231:341|231:341|225:314|225:314|236:254,1,120,2|0,1:1|0:0,0:0:0:0:
492,7,118228,5,6,1:0:0:0:
422,42,118337,2,0,B|352:52|352:52|282:28,1,143.999995605469,2|0,1:0|0:0,0:0:0:0:
63,122,118555,1,2,1:0:0:0:
133,157,118664,2,0,B|203:167|203:167|272:143,1,143.999995605469,6|0,1:0|0:0,0:0:0:0:
480,259,118882,2,0,B|410:269|410:269|340:245,1,143.999995605469,6|0,1:0|0:0,0:0:0:0:
73,263,119100,6,2,P|89:349|228:365,1,240,12|0,1:3|1:0,0:1:0:0:
480,259,119428,2,0,P|464:345|325:361,1,240,2|0,1:0|1:0,1:0:0:0:
429,168,119755,2,0,P|439:101|408:48,1,120,2|0,1:0|0:0,0:0:0:0:
202,6,119973,5,2,1:0:0:0:
139,49,120082,2,0,P|114:102|126:160,1,120,0|0,1:0|0:0,0:0:0:0:
365,120,120300,1,2,1:0:0:0:
429,168,120409,2,0,P|453:221|441:279,1,120,0|0,1:0|0:0,0:0:0:0:
123,250,120628,2,0,P|98:303|110:361,1,120,2|0,1:0|0:0,0:0:0:0:
0,147,120846,6,2,B|130:93|101:206|227:161,1,240,2|0,1:0|1:0,1:0:0:0:
512,320,121173,2,2,B|382:266|411:379|284:334,1,240,2|0,1:0|1:0,1:0:0:0:
429,168,121500,2,0,P|447:111|430:55,1,120,2|0,1:1|0:0,0:0:0:0:
99,30,121719,5,6,1:0:0:0:
168,68,121828,2,0,B|220:64|220:64|243:80|243:80|295:76,1,132.00000402832,2|0,1:0|0:0,0:0:0:0:
495,207,122046,1,2,1:0:0:0:
426,245,122155,2,0,B|374:241|374:241|351:257|351:257|298:253,1,132.00000402832,6|0,1:0|0:0,0:0:0:0:
41,362,122373,2,0,B|93:358|93:358|116:374|116:374|168:370,1,132.00000402832,6|0,1:0|0:0,0:0:0:0:
426,245,122591,6,2,P|426:354|317:367,1,240,6|0,1:0|1:0,1:0:0:0:
190,132,122919,2,2,P|190:241|299:253,1,240,2|0,1:0|1:0,1:0:0:0:
428,57,123246,2,0,P|439:114|409:165,1,120,2|0,1:0|0:0,0:0:0:0:
121,93,123464,5,2,1:0:0:0:
190,132,123573,2,0,L|335:119,1,120,0|0,1:0|0:0,0:0:0:0:
111,280,123791,1,2,1:0:0:0:
179,242,123900,2,0,L|324:255,1,120,0|0,1:0|0:0,0:0:0:0:
56,47,124119,2,0,L|201:34,1,120,2|0,1:0|0:0,0:0:0:0:
409,165,124337,6,2,P|406:74|262:52,1,240,2|0,1:0|1:0,1:0:0:0:
111,280,124664,2,2,P|114:189|258:167,1,240,2|0,1:0|1:0,1:0:0:0:
350,308,124991,2,0,B|308:302|308:302|289:312|289:312|204:296,1,120,2|0,1:0|0:0,0:0:0:0:
53,115,125209,6,2,P|15:251|65:383,1,287.999991210938,12|0,1:3|1:0,0:1:0:0:
446,383,125537,2,2,P|496:251|458:115,1,287.999991210938,6|0,1:0|1:0,0:1:0:0:
148,0,125864,2,0,B|129:74|129:74|143:121|143:121|115:217,1,215.999993408203,6|0,1:0|0:0,0:0:0:0:
52,256,126082,6,2,B|265:185|180:360|417:303,1,360,12|2,1:3|0:1,0:1:0:0:
512,184,126519,1,2,1:2:0:0:
322,122,126628,1,2,1:2:0:0:
449,0,126737,2,2,P|460:166|296:216,1,360,10|0,1:1|1:0,0:1:0:0:
0,107,127173,6,0,L|119:98,1,120,10|0,1:0|0:0,0:0:0:0:
300,217,127391,2,0,L|180:208,1,120,2|0,1:0|0:0,0:0:0:0:
0,329,127609,2,0,L|119:320,1,120,10|0,1:0|0:0,0:0:0:0:
306,379,127828,6,2,P|270:299|300:217,1,180,2|0,1:0|0:0,0:1:0:0:
319,201,128046,1,10,1:0:0:0:
512,345,128155,2,0,B|466:338|466:338|444:345|444:345|393:336,1,120,2|0,1:1|0:0,0:0:0:0:
464,169,128373,2,0,P|485:116|463:51,1,120,2|8,1:0|0:0,0:0:0:0:
204,0,128591,6,0,B|189:91|189:91|211:125|211:125|192:230,1,240,2|0,1:1|1:0,0:0:0:0:
78,384,128919,2,0,P|61:327|82:272,1,120,10|0,1:0|0:0,0:0:0:0:
322,157,129137,5,2,1:2:0:0:
378,317,129246,1,2,1:2:0:0:
491,217,129355,1,10,1:2:0:0:
435,57,129464,1,2,1:2:0:0:
326,202,129573,6,0,P|411:179|491:217,1,180,6|0,1:0|0:0,0:0:0:0:
507,239,129791,1,10,1:0:0:0:
330,111,129900,2,0,P|311:56|331:-3,1,120,2|0,1:0|0:0,0:0:0:0:
233,273,130119,2,0,P|251:329|232:384,1,120,2|8,1:0|0:0,0:0:0:0:
0,194,130337,6,2,P|112:202|157:90,1,240,2|0,1:0|1:0,0:1:0:0:
357,1,130664,2,0,B|312:-5|312:-5|288:8|288:8|239:2,1,120,10|0,1:0|0:0,0:0:0:0:
445,174,130882,2,0,B|400:180|400:180|376:167|376:167|327:173,1,120,2|0,1:0|0:0,0:0:0:0:
496,361,131100,2,0,B|451:355|451:355|427:368|427:368|378:362,1,120,10|0,1:0|0:0,0:0:0:0:
153,234,131319,6,2,P|186:152|158:69,1,180,2|0,1:1|0:0,0:1:0:0:
143,51,131537,1,10,1:0:0:0:
19,264,131646,2,0,P|0:320|18:376,1,120,2|0,1:0|0:0,0:0:0:0:
213,297,131864,2,0,B|256:288|256:288|282:300|282:300|349:289,1,120,2|8,1:0|0:0,0:0:0:0:
508,384,132082,2,2,P|535:288|452:155,1,240,2|0,1:0|1:1,0:1:0:0:
271,0,132409,6,0,B|249:74|249:74|267:124|267:124|245:194,1,198.000006042481,10|0,1:1|0:0,0:1:0:0:
220,263,132628,1,2,1:1:0:0:
89,188,132737,1,0,1:2:0:0:
346,91,132846,1,2,1:1:0:0:
150,0,132955,1,0,1:2:0:0:
220,263,133064,6,2,P|434:292|348:92,1,528.000016113282,12|8,1:3|1:0,0:1:0:0:
169,194,133609,1,2,1:1:0:0:
110,302,133719,1,2,1:2:0:0:
0,246,133828,1,2,1:2:0:0:
54,123,133937,6,0,P|70:60|47:0,1,132.00000402832,10|0,1:2|0:2,0:0:0:0:
169,194,134155,2,0,P|152:256|175:317,1,132.00000402832,2|0,1:0|0:0,0:0:0:0:
359,377,134373,2,0,L|503:370,1,132.00000402832,10|0,1:1|0:0,0:0:0:0:
175,317,134591,2,0,L|31:310,1,132.00000402832,2|0,1:1|0:0,0:0:0:0:
282,203,134809,6,2,P|489:221|389:12,1,528.000016113282,14|8,1:0|1:0,0:1:0:0:
235,128,135355,1,2,1:1:0:0:
121,195,135464,1,2,1:2:0:0:
10,122,135573,1,2,1:2:0:0:
188,36,135682,6,0,B|237:29|237:29|255:40|255:40|331:29,1,132.00000402832,10|0,1:2|0:0,0:0:0:0:
113,211,135900,2,0,B|64:204|64:204|46:215|46:215|-30:204,1,132.00000402832,2|0,1:0|0:0,0:0:0:0:
201,361,136119,2,0,B|250:354|250:354|268:365|268:365|344:354,1,132.00000402832,10|0,1:0|0:0,0:0:0:0:
429,384,136337,1,2,1:2:0:0:
331,269,136446,1,2,1:2:0:0:
512,175,136555,6,2,B|445:259|218:242|392:-25|166:-42|96:39,1,528.000016113282,6|8,1:0|1:0,0:1:0:0:
0,143,137100,1,2,1:0:0:0:
158,176,137209,1,2,1:2:0:0:
0,263,137319,1,2,1:2:0:0:
127,352,137428,6,0,B|247:326|191:409|316:384,1,198.000006042481,10|0,1:0|0:0,0:0:0:0:
391,365,137646,2,0,L|406:223,1,132.00000402832,2|0,1:0|0:0,0:0:0:0:
512,84,137864,6,0,B|392:58|448:141|323:116,1,198.000006042481,10|0,1:0|0:0,0:0:0:0:
251,134,138082,2,0,L|236:-8,1,132.00000402832,2|0,1:0|0:0,0:0:0:0:
38,241,138300,6,2,P|33:117|148:69,1,264.000008056641,6|0,1:0|1:0,1:1:0:0:
349,0,138628,1,2,1:2:0:0:
410,75,138737,2,0,B|434:139|434:139|405:218,1,132.00000402832,10|0,1:0|0:0,0:0:0:0:
512,340,138955,2,0,B|368:326,1,132.00000402832,2|0,1:0|0:0,0:0:0:0:
165,384,139173,5,10,1:2:0:0:
218,219,139282,1,2,1:2:0:0:
26,268,139391,1,2,1:2:0:0:
86,90,139500,1,2,1:2:0:0:
307,272,139609,5,10,1:2:0:0:
133,170,139719,1,2,1:2:0:0:
259,11,139828,1,2,3:3:0:0:
259,11,139937,1,2,3:3:0:0:
512,192,140046,6,2,B|401:187|463:121|342:120,1,192,12|8,1:3|1:0,0:1:0:0:
179,291,140373,2,2,B|290:286|228:220|349:219,1,192,2|0,1:0|1:0,0:1:0:0:
200,115,140700,2,0,B|216:67|216:67|191:16,1,96,10|0,1:0|0:0,0:0:0:0:
45,192,140919,6,2,P|37:102|123:76,1,192,2|8,1:0|1:0,0:1:0:0:
231,221,141246,1,2,1:2:0:0:
296,288,141355,2,0,L|391:291,1,96,10|0,1:0|0:0,0:0:0:0:
219,365,141573,2,0,L|123:368,1,96,2|0,1:0|0:0,0:0:0:0:
231,221,141791,6,2,B|283:123|198:138|254:32,1,192,2|8,1:0|1:0,0:1:0:0:
422,1,142119,2,2,P|418:74|305:81,1,192,2|0,1:0|1:0,0:1:0:0:
142,0,142446,2,0,P|140:61|161:106,1,96,10|0,1:0|0:0,0:0:0:0:
231,221,142664,5,2,1:3:0:0:
273,288,142773,1,2,1:3:0:0:
220,346,142882,2,2,B|171:338|171:338|142:355|142:355|78:347,1,144,10|0,1:2|0:0,0:1:0:0:
64,344,143100,5,2,1:3:0:0:
97,275,143209,1,2,1:3:0:0:
52,212,143319,2,2,B|31:174|31:174|69:65,1,144,10|0,1:1|0:1,0:1:0:0:
106,10,143537,6,2,P|124:96|213:91,1,192,6|8,1:0|1:0,0:1:0:0:
400,57,143864,2,2,P|381:143|292:138,1,192,2|0,1:0|1:0,0:1:0:0:
210,1,144191,2,0,P|197:39|222:103,1,96,10|0,1:0|0:0,0:0:0:0:
339,234,144409,6,2,B|407:243|407:243|430:277|430:277|526:296,1,192,2|8,1:0|1:0,0:1:0:0:
406,152,144737,1,2,1:2:0:0:
470,97,144846,2,0,B|493:55|493:55|472:-3,1,96,2|0,1:0|0:0,0:0:0:0:
314,43,145064,2,0,B|297:88|297:88|320:130,1,96,10|0,1:0|0:0,0:0:0:0:
220,266,145282,6,2,P|214:352|108:355,1,192,2|8,1:0|1:0,0:1:0:0:
2,182,145609,2,2,P|8:268|114:271,1,192,2|0,1:0|1:0,0:1:0:0:
211,181,145937,2,0,L|97:172,1,96,10|0,1:0|0:0,0:0:0:0:
252,0,146155,5,0,1:0:0:0:
274,93,146264,1,0,1:0:0:0:
367,115,146373,1,0,1:0:0:0:
373,211,146482,1,0,1:0:0:0:
457,253,146591,1,0,1:0:0:0:
446,349,146700,1,0,1:0:0:0:
272,384,146809,5,2,1:2:0:0:
272,384,146919,1,2,1:2:0:0:
373,211,147028,6,0,B|432:246|432:246|482:82|482:82|401:21,1,323.999990112305,12|2,1:3|0:1,0:0:0:0:
253,157,147464,1,2,1:2:0:0:
148,213,147573,1,2,1:2:0:0:
66,127,147682,2,0,B|46:78|46:78|73:8,1,107.999996704102,8|0,0:0|0:0,0:0:0:0:
239,108,147900,5,2,3:1:0:0:
206,146,147973,1,0,3:2:0:0:
220,194,148046,1,0,3:2:0:0:
267,211,148119,1,10,3:1:0:0:
311,189,148191,1,0,3:2:0:0:
357,208,148264,1,0,3:2:0:0:
374,255,148337,1,2,3:1:0:0:
356,301,148409,1,0,3:2:0:0:
310,322,148482,1,0,3:2:0:0:
262,303,148555,1,10,3:1:0:0:
229,341,148628,1,0,3:2:0:0:
179,332,148700,1,0,3:2:0:0:
143,368,148773,6,2,P|71:384|34:264,1,215.999993408203,2|8,1:0|1:0,0:1:0:0:
262,303,149100,2,0,P|361:304|376:206,1,215.999993408203,2|0,1:0|1:0,0:0:0:0:
294,76,149428,6,0,B|252:70|252:70|231:77|231:77|167:70,1,107.999996704102,10|0,1:0|0:0,0:0:0:0:
376,206,149646,2,0,B|418:200|418:200|439:207|439:207|503:200,1,107.999996704102,2|0,1:0|0:0,0:0:0:0:
293,99,149864,2,0,B|251:93|251:93|230:100|230:100|166:93,1,107.999996704102,10|0,1:0|0:0,0:0:0:0:
375,229,150082,2,0,B|417:223|417:223|438:230|438:230|502:223,1,107.999996704102,2|0,1:0|0:0,0:0:0:0:
292,122,150300,2,0,B|250:116|250:116|229:123|229:123|165:116,1,107.999996704102,10|0,1:0|0:0,0:0:0:0:
0,18,150519,5,2,3:1:0:0:
51,5,150591,1,0,3:0:0:0:
96,35,150664,1,0,3:0:0:0:
93,88,150737,1,10,3:1:0:0:
52,124,150809,1,0,3:0:0:0:
43,177,150882,1,0,3:0:0:0:
80,216,150955,1,2,3:1:0:0:
133,222,151028,1,0,3:0:0:0:
167,263,151100,1,0,3:0:0:0:
149,314,151173,1,10,3:1:0:0:
172,362,151246,1,0,3:0:0:0:
222,381,151319,1,0,3:0:0:0:
270,357,151391,5,2,2:2:0:0:
116,168,151537,1,2,0:2:0:0:
355,128,151682,1,2,0:2:0:0:
138,315,151828,5,2,2:2:0:0:
219,96,151973,1,2,0:2:0:0:
368,276,152119,1,2,0:2:0:0:
460,152,152264,6,2,P|475:54|424:16,1,161.999995056153,2|0,1:0|0:0,0:1:0:0:
361,4,152482,2,0,L|240:18,1,107.999996704102,10|0,1:0|0:0,0:0:0:0:
118,169,152700,2,2,P|103:267|145:313,1,161.999995056153,2|0,1:0|0:0,0:1:0:0:
193,366,152919,1,10,1:0:0:0:
258,232,153028,6,0,L|253:10,1,215.999993408203,2|2,1:0|0:1,0:1:0:0:
118,169,153355,2,0,B|76:164|76:164|54:172|54:172|8:167,1,107.999996704102,10|0,1:0|0:0,0:0:0:0:
258,232,153573,2,0,B|300:227|300:227|322:235|322:235|363:229,1,107.999996704102,2|0,1:0|0:0,0:0:0:0:
140,310,153791,2,0,B|98:305|98:305|76:313|76:313|33:307,1,107.999996704102,10|0,1:0|0:0,0:0:0:0:
218,126,154009,5,6,0:0:0:0:
364,334,154155,1,2,0:0:0:0:
472,104,154300,1,2,0:0:0:0:
289,177,154446,5,2,0:0:0:0:
372,246,154591,1,2,0:0:0:0:
391,139,154737,1,2,0:0:0:0:
211,223,154882,6,0,L|67:209,1,107.999996704102,2|0,1:0|0:0,0:0:0:0:
259,91,155100,2,0,L|273:-53,1,107.999996704102,10|0,1:0|0:0,0:0:0:0:
391,139,155319,2,0,L|535:153,1,107.999996704102,2|0,1:0|0:0,0:0:0:0:
343,271,155537,2,0,L|329:415,1,107.999996704102,10|0,1:0|0:0,0:0:0:0:
96,248,155755,5,2,0:2:0:0:
300,184,155900,1,2,0:2:0:0:
143,41,156046,1,2,0:2:0:0:
94,269,156191,5,2,0:2:0:0:
227,108,156337,1,2,0:2:0:0:
24,65,156482,1,2,0:2:0:0:
199,207,156628,6,0,L|348:193,1,107.999996704102,2|0,1:0|0:0,0:0:0:0:
119,349,156846,2,0,L|11:359,1,107.999996704102,10|0,1:0|0:0,0:0:0:0:
207,221,157064,2,0,L|356:207,1,107.999996704102,2|0,1:0|0:0,0:0:0:0:
127,363,157282,2,0,L|-22:377,1,107.999996704102,10|0,1:0|0:0,0:0:0:0:
322,224,157500,5,2,0:0:0:0:
506,337,157646,1,2,0:0:0:0:
512,122,157791,1,2,0:0:0:0:
394,23,157937,5,2,0:0:0:0:
307,121,158082,1,2,0:0:0:0:
264,0,158228,1,2,0:0:0:0:
130,156,158373,6,2,P|101:230|119:308,1,161.999995056153,2|0,1:0|0:0,0:1:0:0:
173,363,158591,2,0,L|287:354,1,107.999996704102,10|0,1:0|0:0,0:0:0:0:
512,384,158809,6,2,P|530:306|501:231,1,161.999995056153,2|0,1:0|0:0,0:1:0:0:
440,183,159028,2,0,L|326:174,1,107.999996704102,10|0,1:0|0:0,0:0:0:0:
51,262,159246,6,2,B|-15:219|-15:219|56:0,1,287.999991210938,12|0,1:3|1:0,0:1:0:0:
389,273,159573,2,0,B|455:230|455:230|383:10,1,287.999991210938,6|0,1:0|1:0,0:0:0:0:
121,201,159900,2,0,B|167:189|167:189|183:165|183:165|252:150,1,132.00000402832,6|0,1:0|0:0,0:0:0:0:
455,190,160119,5,8,3:2:0:0:
390,32,160228,1,8,3:2:0:0:
375,238,160337,1,8,3:3:0:0:
303,50,160446,1,8,3:3:0:0:
295,287,160555,1,4,3:3:0:0:
216,68,160664,1,4,3:3:0:0:
216,336,160773,1,8,3:3:0:0:
129,86,160882,1,8,3:3:0:0:
13,291,160991,6,2,P|36:209|121:201,1,180,12|0,1:3|0:0,0:1:0:0:
168,264,161209,2,0,L|154:394,1,120,6|0,1:0|0:0,0:0:0:0:
305,269,161428,1,2,1:0:0:0:
387,342,161537,2,0,B|443:358|443:358|519:334,1,120,2|0,1:0|0:0,0:0:0:0:
362,177,161755,6,2,P|328:13|164:41,1,360,6|0,1:0|1:0,2:1:0:0:
73,187,162191,1,2,1:1:0:0:
10,137,162300,2,0,P|-4:79|21:24,1,120,8|0,1:3|0:0,0:0:0:0:
133,243,162519,2,0,P|147:300|121:355,1,120,4|0,1:3|0:0,0:0:0:0:
160,145,162737,5,8,3:2:0:0:
228,181,162846,1,8,3:2:0:0:
286,129,162955,1,8,3:3:0:0:
286,129,163064,1,8,3:3:0:0:
461,278,163173,5,4,0:3:0:0:
373,332,163282,1,4,0:3:0:0:
301,264,163391,1,8,0:3:0:0:
301,264,163500,1,8,0:3:0:0:
483,183,163609,6,2,P|503:126|459:2,1,180,6|0,1:0|0:0,0:1:0:0:
396,0,163828,2,0,B|348:3|348:3|328:22|328:22|266:26,1,120,10|0,1:0|0:0,0:0:0:0:
136,129,164046,2,0,B|184:132|184:132|204:151|204:151|266:155,1,120,2|0,1:0|0:0,0:0:0:0:
413,239,164264,2,0,B|365:242|365:242|345:261|345:261|283:265,1,120,10|0,1:0|0:0,0:0:0:0:
106,384,164482,6,0,P|137:325|96:213,1,180,6|0,1:1|0:0,0:0:0:0:
31,195,164700,2,0,L|11:334,1,120,6|0,1:0|0:0,0:0:0:0:
204,384,164919,1,2,1:0:0:0:
269,342,165028,2,0,L|286:223,1,120,2|0,1:0|0:0,0:0:0:0:
436,19,165246,6,2,P|413:175|230:119,1,360,6|0,1:0|1:0,0:1:0:0:
173,0,165682,1,2,1:0:0:0:
248,60,165791,2,0,B|306:82|306:82|361:53,1,120,8|0,1:3|0:0,0:0:0:0:
154,169,166009,2,0,B|96:147|96:147|41:176,1,120,4|0,1:3|0:0,0:0:0:0:
213,384,166228,5,8,3:2:0:0:
263,316,166337,1,8,3:2:0:0:
232,240,166446,1,8,3:3:0:0:
232,240,166555,1,8,3:3:0:0:
101,63,166664,5,4,3:3:0:0:
44,174,166773,1,4,3:3:0:0:
89,295,166882,1,8,3:3:0:0:
89,295,166991,1,8,3:3:0:0:
273,113,167100,5,2,1:2:0:0:
330,365,167246,1,2,1:2:0:0:
273,113,167391,1,2,1:2:0:0:
436,332,167537,5,2,1:2:0:0:
458,48,167682,1,2,1:2:0:0:
436,332,167828,1,2,1:2:0:0:
248,0,167973,6,2,P|234:103|129:106,1,227.999993911743,6|8,1:1|1:0,0:1:0:0:
318,226,168300,2,2,P|331:329|436:332,1,227.999993911743,2|0,1:0|1:0,0:1:0:0:
360,113,168628,2,0,B|382:64|382:64|360:-2,1,113.999996955872,10|0,1:0|0:0,0:0:0:0:
174,166,168846,6,2,P|187:62|292:59,1,227.999993911743,2|8,1:0|1:0,0:1:0:0:
427,225,169173,1,2,1:0:0:0:
427,225,169282,2,0,B|385:219|385:219|362:232|362:232|317:225,1,113.999996955872,0|0,1:0|0:0,0:0:0:0:
146,345,169500,2,0,B|188:339|188:339|211:352|211:352|255:345,1,113.999996955872,10|0,1:0|0:0,0:0:0:0:
93,214,169719,6,2,B|38:101|161:112|100:0,1,227.999993911743,6|8,1:0|1:0,0:1:0:0:
291,58,170046,2,2,P|278:161|173:165,1,227.999993911743,2|0,1:0|1:0,0:1:0:0:
3,82,170373,2,0,L|130:70,1,113.999996955872,10|0,1:0|0:0,0:0:0:0:
365,230,170591,6,2,P|439:319|428:170,1,341.999990867615,10|0,1:0|1:1,2:1:0:0:
214,127,171028,2,2,P|103:206|117:71,1,341.999990867615,2|2,1:0|0:1,0:1:0:0:
499,0,171464,6,2,P|365:357|0:234,1,840,6|2,1:1|2:1,0:1:0:0:
6,57,172337,6,0,P|131:355|421:125,1,797.999978691102,0|2,1:1|0:1,0:1:0:0:
148,3,173209,5,2,1:2:0:0:
89,207,173319,1,2,1:2:0:0:
314,59,173428,1,2,1:2:0:0:
255,263,173537,1,2,1:2:0:0:
107,103,173646,5,2,1:2:0:0:
167,352,173755,1,2,1:2:0:0:
314,59,173864,1,2,1:2:0:0:
376,309,173973,1,2,1:2:0:0:
484,42,174082,6,2,P|508:124|330:134,1,276.000005264282,6|0,1:0|1:0,0:1:0:0:
120,53,174409,2,2,B|198:40|198:40|239:72|239:72|313:59,1,207.000003948212,6|0,1:1|0:0,0:1:0:0:
372,3,174628,5,2,1:2:0:0:
285,238,174737,1,2,1:2:0:0:
64,123,174846,1,2,1:2:0:0:
187,384,174955,6,2,P|211:298|183:214,1,180,12|0,1:3|0:0,0:1:0:0:
124,169,175173,2,0,B|77:164|77:164|56:177|56:177|5:171,1,120,10|0,1:0|0:0,0:0:0:0:
228,10,175391,1,0,1:0:0:0:
270,124,175500,2,0,B|283:155|283:155|271:199|271:199|287:246,1,120,0|8,1:0|2:0,0:0:0:0:
431,357,175719,6,2,P|375:42|65:122,1,720,6|2,1:1|2:1,0:1:0:0:
26,253,176482,1,10,1:0:0:0:
199,347,176591,6,0,B|365:305|266:394|440:354,1,240,2|0,1:1|0:0,0:0:0:0:
267,244,176919,2,0,P|249:183|263:109,1,120,10|0,1:0|0:0,0:0:0:0:
379,11,177137,1,2,1:0:0:0:
487,156,177246,2,0,P|493:215|475:272,1,120,2|8,1:0|0:0,0:0:0:0:
287,366,177464,6,2,B|121:324|220:413|46:373,1,240,6|0,1:1|0:1,0:1:0:0:
0,264,177791,2,0,B|-16:208|-16:208|4:134,1,120,8|0,1:0|0:0,0:0:0:0:
59,89,178009,2,0,L|189:77,1,120,0|0,1:0|0:0,0:0:0:0:
260,107,178228,2,0,L|390:95,1,120,8|0,1:0|0:0,0:0:0:0:
512,275,178446,5,6,1:0:0:0:
295,196,178555,1,2,2:2:0:0:
478,368,178664,1,10,2:2:0:0:
265,302,178773,2,2,P|480:233|403:13,1,480,2|2,1:1|2:1,0:1:0:0:
131,229,179319,6,2,B|94:114|94:114|140:2,1,240,2|8,1:0|0:0,0:1:0:0:
341,159,179646,2,2,B|386:269|386:269|349:384,1,240,2|0,1:0|0:0,0:1:0:0:
119,318,179973,2,0,L|-5:309,1,120,10|0,1:1|0:0,0:0:0:0:
266,125,180191,6,2,P|346:109|340:9,1,180,2|0,1:0|0:0,0:1:0:0:
345,6,180409,1,10,1:0:0:0:
203,193,180519,2,2,P|88:184|80:77,1,240,2|0,0:1|1:0,2:1:0:0:
70,0,180846,1,10,2:1:0:0:
266,125,180955,6,2,B|311:166|311:166|272:349,1,240,6|2,1:0|0:1,0:1:0:0:
0,384,181282,5,8,1:0:0:0:
131,371,181391,1,8,1:0:0:0:
131,157,181500,5,8,1:3:0:0:
0,170,181609,1,8,1:3:0:0:
163,275,181719,5,4,1:3:0:0:
292,262,181828,1,4,1:3:0:0:
345,114,181937,6,0,P|326:57|337:-2,1,120,12|0,1:3|0:0,0:0:0:0:
482,180,182155,2,0,P|492:238|473:294,1,120,10|0,1:0|0:0,0:0:0:0:
288,384,182373,1,2,1:0:0:0:
242,248,182482,2,0,B|235:209|235:209|244:181|244:181|227:115,1,120,2|8,1:0|0:0,0:0:0:0:
35,20,182700,6,2,P|27:237|244:247,1,480,2|2,1:1|2:1,0:1:0:0:
413,31,183246,2,0,B|446:81|446:81|426:137,1,120,2|0,1:0|1:0,0:0:0:0:
169,71,183464,2,0,B|136:121|136:121|155:177,1,120,10|0,1:0|0:0,0:0:0:0:
487,323,183682,6,2,P|477:189|345:163,1,287.999991210938,12|0,1:3|1:0,0:1:0:0:
25,383,184009,2,2,P|46:252|179:249,1,287.999991210938,6|0,1:1|1:0,0:1:0:0:
409,369,184337,2,2,B|325:356|325:356|285:379|285:379|190:362,1,215.999993408203,14|0,1:1|0:0,0:1:0:0:
111,334,184555,6,2,P|291:253|231:65,1,431.999986816407,6|2,1:1|0:1,0:1:0:0:
47,9,184991,2,0,B|27:65|27:65|44:123,1,120,2|0,1:0|0:0,0:0:0:0:
328,137,185209,2,0,B|347:80|347:80|330:22,1,120,10|0,1:0|0:0,0:0:0:0:
103,204,185428,5,6,1:1:0:0:
282,298,185537,1,2,1:2:0:0:
89,373,185646,1,10,2:2:0:0:
282,298,185755,2,2,B|418:264|358:358|499:375,1,240,2|2,1:0|1:1,0:1:0:0:
428,182,186082,2,0,B|447:125|447:125|430:67,1,120,10|0,1:1|0:0,0:0:0:0:
158,0,186300,5,2,1:0:0:0:
84,248,186409,1,2,1:2:0:0:
12,19,186519,1,10,1:2:0:0:
195,182,186628,2,2,P|297:160|283:41,1,240,2|0,1:0|1:0,0:1:0:0:
84,133,186955,2,0,B|65:190|65:190|83:248,1,120,10|0,1:0|0:0,0:0:0:0:
381,382,187173,5,6,1:1:0:0:
318,129,187282,1,2,1:1:0:0:
381,382,187391,1,10,1:0:0:0:
475,119,187500,2,0,P|447:249|314:249,1,287.999991210938,6|0,1:0|0:0,0:0:0:0:
64,47,187828,5,2,1:0:0:0:
211,245,187937,1,2,1:1:0:0:
311,20,188046,1,2,2:3:0:0:
311,20,188155,1,2,2:3:0:0:
64,47,188373,5,6,3:1:0:0:
211,245,188591,5,2,3:2:0:0:
311,20,188700,1,2,3:2:0:0:
64,47,188809,1,2,3:2:0:0:
229,166,188919,6,0,B|304:158|304:158|328:176|328:176|419:171,1,180,12|0,1:3|0:0,0:0:0:0:
466,118,189137,2,0,B|487:62|487:62|453:3,1,120,10|0,1:0|0:0,0:0:0:0:
299,214,189355,1,2,1:0:0:0:
375,284,189464,2,0,B|427:314|427:314|483:293,1,120,2|8,1:0|0:0,0:0:0:0:
294,129,189682,6,2,P|295:59|152:35,1,240,6|0,1:0|0:0,0:1:0:0:
0,185,190009,1,10,1:2:0:0:
21,101,190119,1,2,1:2:0:0:
144,236,190228,1,2,1:2:0:0:
122,320,190337,1,2,1:2:0:0:
297,222,190446,5,10,1:0:0:0:
375,284,190555,2,2,B|474:353|474:353|513:216,1,240,2|0,0:1|0:0,0:1:0:0:
343,138,190882,2,0,B|365:83|365:83|338:28,1,120,10|0,1:0|0:0,0:0:0:0:
103,0,191100,1,2,1:0:0:0:
21,101,191209,2,0,B|-6:156|-6:156|16:211,1,120,2|8,1:0|0:0,0:0:0:0:
213,363,191428,6,2,P|100:352|97:240,1,240,6|0,1:1|1:0,0:1:0:0:
171,106,191755,1,10,1:2:0:0:
241,230,191864,1,2,1:2:0:0:
312,62,191973,1,2,1:2:0:0:
377,242,192082,2,0,P|490:231|493:119,1,240,2|0,1:0|0:0,0:0:0:0:
264,0,192409,6,0,B|254:44|254:44|262:66|262:66|251:132,1,120,6|0,1:0|0:0,0:0:0:0:
210,320,192628,1,10,0:1:0:0:
278,356,192737,2,2,P|268:246|158:238,1,240,2|0,0:1|0:1,0:1:0:0:
82,370,193064,2,0,B|129:358|129:358|148:367|148:367|199:357,1,120,10|0,1:2|0:0,0:0:0:0:
512,258,193282,6,2,B|361:210|428:323|277:270,1,240,2|8,1:0|1:0,0:1:0:0:
72,106,193609,2,2,B|222:58|155:171|306:118,1,240,2|0,1:0|1:0,0:1:0:0:
136,293,193937,2,0,B|104:242|104:242|132:182,1,120,10|0,1:1|0:0,0:0:0:0:
304,4,194155,6,2,P|303:87|385:94,1,180,2|0,1:0|0:0,0:1:0:0:
403,85,194373,1,10,1:0:0:0:
485,248,194482,2,2,P|470:361|346:349,1,240,2|0,1:0|1:0,0:1:0:0:
289,384,194809,1,10,1:0:0:0:
214,209,194919,6,2,P|245:17|49:96,1,480,6|2,1:0|0:1,0:1:0:0:
131,171,195464,1,2,1:0:0:0:
0,319,195573,1,2,1:0:0:0:
124,190,195682,1,10,2:2:0:0:
149,384,195791,1,10,2:2:0:0:
313,297,195900,6,2,P|468:337|496:173,1,360,12|2,1:3|2:1,0:1:0:0:
371,48,196337,1,2,1:1:0:0:
231,222,196446,1,2,1:2:0:0:
154,56,196555,1,2,1:2:0:0:
8,224,196664,6,2,B|87:304|322:250|184:78|378:-73|493:49,1,600,2|0,1:0|1:2,0:1:0:0:
353,168,197319,1,2,1:1:0:0:
512,251,197428,1,10,1:2:0:0:
393,356,197537,6,2,B|247:320|312:413|162:373,1,240,2|0,1:0|1:0,0:1:0:0:
296,231,197864,2,0,P|313:178|287:105,1,120,10|0,1:0|0:0,0:0:0:0:
136,5,198082,1,2,1:0:0:0:
44,107,198191,2,0,P|27:163|44:220,1,120,2|8,1:0|0:0,0:0:0:0:
0,287,198409,1,2,0:1:0:0:
162,373,198519,6,2,B|255:360|255:360|289:377|289:377|385:366,1,215.999993408203,6|0,1:1|0:0,0:1:0:0:
386,381,198737,1,10,1:0:0:0:
275,185,198846,2,2,B|368:198|368:198|402:181|402:181|498:192,1,215.999993408203,6|0,1:0|0:0,0:1:0:0:
488,209,199064,1,2,1:0:0:0:
342,98,199173,1,10,1:2:0:0:
294,292,199282,1,2,1:2:0:0:
154,177,199391,6,2,P|169:48|48:37,1,264.000008056641,6|8,1:1|0:1,0:1:0:0:
0,133,199719,1,0,1:0:0:0:
96,273,199828,2,0,B|158:297|158:297|246:250,1,132.00000402832,2|2,1:1|1:0,0:0:0:0:
271,76,200046,2,0,B|333:52|333:52|421:99,1,132.00000402832,10|0,1:0|0:0,0:0:0:0:
462,335,200264,6,2,P|458:217|341:230,1,264.000008056641,2|8,1:0|1:0,0:1:0:0:
97,372,200591,2,2,P|100:254|217:267,1,264.000008056641,2|0,1:0|1:0,0:1:0:0:
471,343,200919,2,2,P|495:284|478:221,1,132.00000402832,10|0,1:0|0:0,0:1:0:0:
333,58,201137,6,2,P|313:175|206:138,1,264.000008056641,2|8,1:0|1:0,0:1:0:0:
0,183,201464,2,2,P|20:300|127:263,1,264.000008056641,2|0,1:0|1:0,0:1:0:0:
172,4,201791,1,10,1:0:0:0:
48,41,201900,1,2,1:2:0:0:
206,138,202009,5,8,3:3:0:0:
337,207,202119,2,0,P|402:204|455:167,1,132.00000402832,8|0,3:3|3:3,0:0:0:0:
188,148,202337,1,4,3:3:0:0:
242,269,202446,2,0,P|290:312|354:325,1,132.00000402832,4|0,3:3|3:0,0:0:0:0:
169,156,202664,1,0,3:3:0:0:
95,302,202773,1,0,3:3:0:0:
11,98,202882,6,0,P|89:184|109:70,1,288,6|0,1:2|0:0,0:0:0:0:
302,262,203755,2,0,P|224:348|204:233,1,288,2|0,0:0|0:0,0:0:0:0:
329,62,204628,2,0,P|406:148|426:33,1,288,2|0,0:0|0:0,0:0:0:0:
240,133,205500,2,0,P|162:219|142:104,1,288,2|0,0:0|0:0,0:0:0:0:
345,21,206373,6,0,P|325:70|346:168,2,144,6|0|0,1:2|0:0|0:0,0:0:0:0:
470,94,207246,2,0,P|486:163|464:230,2,144,2|0|0,0:2|0:0|0:0,0:0:0:0:
339,157,208119,2,0,P|322:226|344:293,2,144,2|0|0,0:2|0:0|0:0,0:0:0:0:
464,230,208991,5,2,0:2:0:0:
256,320,209319,1,2,0:2:0:0:
48,230,209646,1,0,0:1:0:0:
130,50,209864,6,0,P|157:192|26:129,1,360,6|0,1:2|0:0,0:0:0:0:
363,14,210737,2,0,P|335:156|466:93,1,360,6|0,1:2|0:0,2:2:0:0:
189,218,211609,6,0,P|75:209|-9:241,2,180,6|0|0,1:2|0:0|0:0,0:0:0:0:
332,285,212482,2,0,P|446:294|530:262,2,180,6|0|0,1:2|0:0|0:0,0:0:0:0:
198,196,213355,6,0,P|208:124|191:53,1,143.999995605469,6|0,1:2|1:0,0:0:0:0:
132,3,213682,1,2,0:0:0:0:
72,55,213791,2,0,P|55:124|65:195,1,143.999995605469,6|0,1:2|1:0,0:0:0:0:
290,255,214228,6,0,P|359:232|431:236,1,143.999995605469,6|0,1:2|1:0,0:0:0:0:
491,285,214555,1,2,0:0:0:0:
449,354,214664,2,0,P|383:381|311:384,1,143.999995605469,6|0,1:2|1:0,0:0:0:0:
13,202,215100,6,0,L|-1:113,1,83.9999974365235,6|0,1:1|0:0,0:0:0:0:
290,255,215319,2,0,L|304:166,1,83.9999974365235,6|0,1:2|0:0,0:0:0:0:
88,171,215537,6,0,L|74:82,1,90.0000034332277,6|0,1:1|0:0,0:0:0:0:
370,260,215755,2,0,L|384:171,1,90.0000034332277,6|0,0:2|0:0,0:0:0:0:
162,139,215973,6,0,L|145:33,1,96,6|0,1:1|0:0,0:0:0:0:
451,268,216191,2,0,L|467:162,1,96,6|0,1:2|0:0,0:0:0:0:
329,0,216409,5,6,1:2:0:0:
147,189,216519,1,2,1:2:0:0:
117,22,216628,1,2,1:2:0:0:
354,144,216737,1,2,1:2:0:0:
248,252,216846,6,2,P|234:368|108:351,1,264.000008056641,12|8,1:3|1:0,0:1:0:0:
42,384,217173,1,0,1:0:0:0:
0,226,217282,2,0,L|20:78,1,132.00000402832,2|0,1:2|0:0,0:0:0:0:
74,270,217500,2,0,L|92:140,1,132.00000402832,10|0,0:2|0:0,0:0:0:0:
378,158,217719,6,2,P|404:73|263:24,1,264.000008056641,6|8,1:0|1:0,0:1:0:0:
33,205,218046,2,2,P|7:120|148:71,1,264.000008056641,2|0,1:0|0:0,0:1:0:0:
189,183,218373,2,0,P|170:226|196:320,1,132.00000402832,10|0,1:0|0:0,0:0:0:0:
407,384,218591,5,2,1:1:0:0:
394,341,218664,1,0,3:0:0:0:
413,301,218737,1,0,3:0:0:0:
456,294,218809,1,10,3:1:0:0:
484,259,218882,1,0,3:0:0:0:
484,214,218955,1,0,3:0:0:0:
447,188,219028,1,2,3:1:0:0:
434,146,219100,1,0,3:0:0:0:
459,110,219173,1,0,3:0:0:0:
500,95,219246,1,10,3:1:0:0:
511,52,219319,1,0,3:0:0:0:
491,12,219391,1,0,3:0:0:0:
447,3,219464,5,2,1:1:0:0:
475,47,219537,1,0,3:0:0:0:
450,92,219609,1,0,3:0:0:0:
397,92,219682,1,10,3:1:0:0:
366,48,219755,1,0,3:0:0:0:
313,40,219828,1,0,3:0:0:0:
281,82,219900,1,2,3:1:0:0:
294,133,219973,1,0,3:0:0:0:
342,153,220046,1,0,3:0:0:0:
342,205,220119,1,10,3:1:0:0:
298,233,220191,1,0,3:0:0:0:
294,285,220264,1,0,3:0:0:0:
333,320,220337,5,6,1:1:0:0:
320,264,220409,1,0,3:0:0:0:
266,244,220482,1,0,3:0:0:0:
217,274,220555,1,10,3:1:0:0:
209,330,220628,1,0,3:0:0:0:
162,362,220700,1,0,3:0:0:0:
105,353,220773,1,2,3:1:0:0:
82,300,220846,1,0,3:0:0:0:
98,245,220919,1,0,3:0:0:0:
151,226,220991,1,10,3:1:0:0:
164,170,221064,1,0,3:0:0:0:
122,129,221137,1,0,3:0:0:0:
71,154,221209,6,2,B|3:172|3:172|50:23,1,215.999993408203,2|8,1:0|1:0,0:1:0:0:
237,135,221537,2,2,B|305:153|305:153|258:4,1,215.999993408203,2|0,1:0|1:0,0:1:0:0:
151,226,221864,2,2,B|121:291|121:291|160:382,1,144,10|0,1:0|0:0,0:1:0:0:
221,383,222082,6,2,L|474:371,1,215.999993408203,2|8,1:0|0:0,0:1:0:0:
307,294,222409,1,2,0:2:0:0:
252,199,222519,1,2,0:2:0:0:
271,92,222628,1,2,0:2:0:0:
402,0,222737,5,10,0:0:0:0:
402,0,222846,1,2,0:0:0:0:
507,121,222955,6,2,B|397:118|458:65|341:68,1,180,2|0,1:0|0:0,0:1:0:0:
275,111,223173,2,0,B|298:166|298:166|278:233,1,120,10|0,1:0|0:0,0:0:0:0:
69,384,223391,5,8,3:2:0:0:
134,269,223500,1,8,3:2:0:0:
28,189,223609,1,8,3:3:0:0:
58,59,223719,1,8,3:3:0:0:
236,10,223828,6,2,B|337:12|337:12|368:38|368:38|520:45,1,264.000008056641,6|8,1:1|1:0,0:1:0:0:
437,231,224155,2,2,P|450:325|310:338,1,240,2|0,1:0|1:0,0:1:0:0:
267,272,224482,2,0,L|254:146,1,120,10|0,0:1|0:0,0:0:0:0:
194,306,224700,2,0,L|181:187,1,120,2|0,1:2|0:0,0:0:0:0:
120,39,224919,6,0,B|63:49|63:49|5:24,1,120,10|0,1:0|0:0,0:0:0:0:
254,152,225137,2,0,B|311:142|311:142|368:166,1,120,2|0,1:0|0:0,0:0:0:0:
185,361,225355,2,0,L|172:242,1,120,10|0,1:0|0:0,0:0:0:0:
119,38,225573,6,2,P|102:123|16:101,1,180,2|0,1:0|0:0,0:1:0:0:
6,98,225791,1,10,0:1:0:0:
138,242,225900,2,0,B|82:224|82:224|21:234,1,120,2|0,1:1|0:0,0:0:0:0:
203,379,226119,2,0,B|263:389|263:389|319:371,1,120,2|8,1:0|0:0,0:0:0:0:
382,171,226337,6,2,B|367:114|367:114|381:55,1,120,2|0,1:0|0:0,0:1:0:0:
437,0,226555,1,2,1:0:0:0:
512,115,226664,2,2,B|361:60|422:163|267:111,1,240,10|0,1:0|1:0,0:1:0:0:
86,31,226991,5,2,0:2:0:0:
245,11,227100,1,10,0:2:0:0:
160,209,227209,1,2,0:2:0:0:
347,263,227319,6,2,P|339:346|475:344,1,240,6|8,1:0|1:0,0:1:0:0:
280,115,227646,2,2,P|288:198|152:196,1,240,2|0,1:0|1:0,0:1:0:0:
5,112,227973,2,0,B|47:105|47:105|65:111|65:111|146:100,1,120,10|0,1:0|0:0,0:0:0:0:
340,0,228191,5,2,2:2:0:0:
221,255,228337,1,2,0:2:0:0:
59,24,228482,1,2,0:2:0:0:
367,272,228628,5,2,2:2:0:0:
210,48,228773,1,2,0:2:0:0:
96,295,228919,1,2,0:2:0:0:
329,384,229064,6,2,P|342:312|284:169,1,180,2|0,1:0|0:0,0:1:0:0:
244,174,229282,2,0,B|186:194|186:194|129:178,1,120,10|0,1:0|0:0,0:0:0:0:
292,19,229500,1,2,1:0:0:0:
388,92,229609,2,0,B|444:107|444:107|502:87,1,120,2|8,1:0|0:0,0:0:0:0:
295,0,229828,5,2,1:0:0:0:
285,104,229937,2,0,B|279:178|279:178|294:207|294:207|286:284,1,180,2|0,1:2|0:0,0:0:0:0:
245,348,230155,2,0,B|195:371|195:371|139:344,1,107.999996704102,10|0,1:2|0:0,0:0:0:0:
0,183,230373,5,8,3:2:0:0:
167,118,230482,1,8,3:2:0:0:
124,262,230591,1,8,3:3:0:0:
40,37,230700,1,8,3:3:0:0:
249,183,230809,6,2,P|315:193|385:168,1,132.00000402832,12|0,1:3|0:0,0:1:0:0:
167,27,231028,2,0,P|101:17|31:42,1,132.00000402832,2|0,1:0|0:0,0:0:0:0:
236,206,231246,5,2,1:1:0:0:
332,80,231355,1,2,1:2:0:0:
376,307,231464,1,2,1:2:0:0:
472,181,231573,2,0,P|483:111|459:29,1,132.00000402832,2|0,1:1|0:0,0:0:0:0:
236,206,231791,2,0,P|223:270|234:335,1,132.00000402832,2|0,1:0|0:0,0:0:0:0:
497,381,232009,5,2,1:0:0:0:
393,292,232119,1,2,1:2:0:0:
472,181,232228,1,2,1:2:0:0:
387,68,232337,2,0,B|325:84|325:84|242:58,1,132.00000402832,2|0,1:0|0:0,0:0:0:0:
96,0,232555,5,4,1:1:0:0:
186,161,232664,1,2,1:1:0:0:
260,63,232773,1,2,1:2:0:0:
31,119,232882,1,2,1:2:0:0:
138,248,232991,2,0,B|203:262|203:262|275:228,1,132.00000402832,2|0,1:0|0:0,0:0:0:0:
28,136,233209,5,2,1:2:0:0:
135,265,233319,2,0,B|200:279|200:279|272:245,1,132.00000402832,2|0,1:0|0:0,0:0:0:0:
25,153,233537,5,2,1:2:0:0:
132,282,233646,2,0,B|197:296|197:296|269:262,1,132.00000402832,2|0,1:0|0:0,0:0:0:0:
22,170,233864,5,2,1:1:0:0:
129,299,233973,2,0,B|194:313|194:313|266:279,1,132.00000402832,2|0,1:0|0:0,0:0:0:0:
306,346,234191,1,2,1:2:0:0:
368,151,234300,6,0,P|351:87|368:23,1,132.00000402832,6|0,1:0|0:0,0:0:0:0:
511,242,234519,2,0,P|528:306|510:369,1,132.00000402832,2|0,1:0|0:0,0:0:0:0:
253,285,234737,1,2,1:0:0:0:
187,366,234846,2,0,B|128:384|128:384|51:361,1,132.00000402832,2|0,1:0|0:0,0:0:0:0:
256,192,235064,5,2,1:2:0:0:
357,233,235173,2,0,P|421:236|475:192,1,132.00000402832,2|0,1:0|0:0,0:0:0:0:
154,151,235391,2,0,P|90:148|36:192,1,132.00000402832,2|0,1:0|0:0,0:0:0:0:
270,299,235609,2,0,P|300:356|365:381,1,132.00000402832,2|0,1:0|0:0,0:0:0:0:
241,84,235828,2,0,P|211:27|146:2,1,132.00000402832,2|0,1:0|0:0,0:0:0:0:
0,117,236046,6,2,L|9:324,1,198.000006042481,6|0,1:0|0:0,0:1:0:0:
56,375,236264,2,0,B|122:387|122:387|198:353,1,132.00000402832,2|0,1:0|0:0,0:0:0:0:
326,216,236482,1,2,1:0:0:0:
253,246,236591,2,0,B|187:258|187:258|127:231,1,132.00000402832,2|0,1:0|0:0,0:0:0:0:
309,52,236809,5,2,1:0:0:0:
387,71,236919,2,0,B|453:83|453:83|512:56,1,132.00000402832,2|0,1:2|0:0,0:0:0:0:
232,23,237137,2,0,B|166:11|166:11|106:37,1,132.00000402832,2|0,1:2|0:0,0:0:0:0:
2,179,237355,5,2,1:2:0:0:
182,124,237464,1,2,1:2:0:0:
110,381,237573,1,6,1:0:0:0:
110,381,237791,6,2,B|47:339|47:339|108:136,1,264.000008056641,12|0,0:3|1:0,0:1:0:0:
182,124,238119,1,0,1:0:0:0:
411,384,238228,2,2,B|474:342|474:342|413:139,1,264.000008056641,10|0,0:1|1:0,0:1:0:0:
283,254,238555,5,2,1:2:0:0:
170,292,238664,1,2,1:2:0:0:
57,259,238773,1,2,1:2:0:0:
2,139,238882,6,0,P|2:70|35:9,1,132.00000402832,2|0,1:0|0:0,0:0:0:0:
155,0,239100,2,0,P|154:65|182:124,1,132.00000402832,8|0,1:0|0:0,0:0:0:0:
360,207,239319,1,2,1:2:0:0:
451,122,239428,1,2,1:2:0:0:
431,316,239537,6,0,B|379:269|384:180|431:197|439:113|377:59,1,264.000008056641,6|0,1:1|1:0,0:1:0:0:
332,15,239864,1,0,1:0:0:0:
187,152,239973,2,0,B|235:142|235:142|259:153|259:153|315:145,1,132.00000402832,10|0,0:1|0:0,0:0:0:0:
177,359,240191,5,2,1:1:0:0:
252,382,240300,2,0,P|260:312|231:245,1,132.00000402832,2|0,1:1|0:0,0:0:0:0:
75,165,240519,1,2,1:1:0:0:
0,188,240628,2,0,P|-8:118|21:51,1,132.00000402832,2|0,1:1|0:0,0:0:0:0:
179,126,240846,2,0,P|157:64|166:0,1,132.00000402832,8|0,1:0|0:0,0:0:0:0:
380,151,241064,1,2,1:2:0:0:
302,228,241173,1,2,1:2:0:0:
387,353,241282,6,0,B|451:373|451:373|511:350,1,132.00000402832,6|0,0:1|0:0,0:0:0:0:
287,214,241500,2,0,B|223:194|223:194|162:216,1,132.00000402832,8|0,1:0|0:0,0:0:0:0:
375,59,241719,5,2,1:1:0:0:
457,201,241828,1,2,1:2:0:0:
367,44,241937,1,10,1:2:0:0:
285,237,242046,2,0,B|268:280|268:280|278:308|278:308|259:369,1,132.00000402832,2|0,1:1|0:0,0:0:0:0:
0,172,242264,5,2,1:1:0:0:
71,214,242373,2,2,B|229:208|136:134|310:124,1,264.000008056641,2|0,1:1|1:0,0:1:0:0:
156,76,242700,5,2,0:2:0:0:
284,0,242809,1,2,0:2:0:0:
425,45,242919,1,2,0:2:0:0:
241,175,243028,5,6,1:2:0:0:
509,220,243137,1,2,1:2:0:0:
195,238,243246,5,6,1:2:0:0:
459,159,243355,1,2,1:2:0:0:
163,166,243464,5,6,1:2:0:0:
432,233,243573,1,2,1:2:0:0:
117,229,243682,5,6,1:2:0:0:
382,172,243791,1,2,1:2:0:0:
137,377,243900,6,2,P|93:228|144:82,1,311.999985717774,14|0,0:1|1:0,0:1:0:0:
447,12,244228,2,0,P|483:111|440:208,1,215.999993408203,2|0,1:1|0:0,0:0:0:0:
376,262,244446,5,2,1:2:0:0:
257,32,244555,1,2,1:2:0:0:
117,251,244664,1,2,1:2:0:0:
376,262,244773,6,2,B|421:269|421:269|442:258|442:258|498:264,1,125.999996154785,12|0,1:3|0:0,0:1:0:0:
148,167,244991,2,0,B|103:160|103:160|80:172|80:172|25:165,1,125.999996154785,10|0,1:0|0:0,0:0:0:0:
214,384,245209,1,0,1:0:0:0:
270,242,245319,2,0,B|280:204|280:204|270:174|270:174|288:114,1,125.999996154785,0|8,1:0|2:0,0:0:0:0:
439,12,245537,6,2,P|321:324|27:167,1,755.999976928712,6|2,1:1|2:1,0:1:0:0:
91,46,246300,1,10,1:0:0:0:
315,239,246409,6,0,P|378:135|345:17,1,251.999992309571,2|0,1:1|0:0,0:0:0:0:
142,179,246737,2,0,B|116:236|116:236|133:299,1,125.999996154785,10|0,1:0|0:0,0:0:0:0:
356,384,246955,1,2,1:0:0:0:
484,291,247064,2,0,B|500:229|500:229|474:172,1,125.999996154785,2|8,1:0|0:0,0:0:0:0:
344,16,247282,6,2,P|344:101|185:86,1,251.999992309571,6|0,1:1|0:1,0:1:0:0:
137,8,247609,2,0,B|86:13|86:13|71:31|71:31|19:36,1,125.999996154785,8|0,1:0|0:0,0:0:0:0:
7,124,247828,2,0,L|16:260,1,125.999996154785,0|0,1:0|0:0,0:0:0:0:
71,318,248046,2,0,B|121:322|121:322|135:340|135:340|188:346,1,125.999996154785,8|0,1:0|0:0,0:0:0:0:
482,256,248264,5,6,1:0:0:0:
395,384,248373,1,2,2:2:0:0:
317,201,248482,1,10,2:2:0:0:
402,71,248591,2,2,P|409:288|197:236,1,503.999984619141,2|2,1:1|2:1,0:1:0:0:
77,24,249137,6,2,B|230:-1|162:90|321:57,1,251.999992309571,2|8,1:0|0:0,0:1:0:0:
512,174,249464,2,2,B|360:143|430:245|269:203,1,251.999992309571,2|0,1:0|0:0,0:1:0:0:
459,379,249791,2,0,P|478:326|460:259,1,125.999996154785,10|0,1:1|0:0,0:0:0:0:
318,57,250009,6,2,B|234:102|234:102|151:19,1,188.999994232178,2|0,1:0|0:0,0:1:0:0:
150,22,250228,1,10,1:0:0:0:
272,203,250337,2,2,P|289:319|174:357,1,251.999992309571,2|0,0:1|1:0,2:1:0:0:
124,306,250664,1,10,2:1:0:0:
0,181,250773,6,2,B|152:176|59:86|216:76,1,251.999992309571,6|2,1:0|0:1,0:1:0:0:
512,117,251100,5,8,1:0:0:0:
427,10,251209,1,8,1:0:0:0:
325,264,251319,1,8,1:3:0:0:
462,245,251428,1,8,1:3:0:0:
291,28,251537,1,4,1:3:0:0:
239,156,251646,1,4,1:3:0:0:
400,317,251755,6,0,B|420:257|420:257|388:202,1,125.999996154785,12|0,1:3|0:0,0:0:0:0:
170,87,251973,2,0,B|138:141|138:141|158:201,1,125.999996154785,10|0,1:0|0:0,0:0:0:0:
101,255,252191,1,2,1:0:0:0:
252,384,252300,2,0,B|264:337|264:337|258:312|258:312|275:254,1,125.999996154785,2|8,1:0|0:0,0:0:0:0:
448,28,252519,6,2,P|437:242|240:158,1,503.999984619141,2|2,1:1|2:1,0:1:0:0:
70,15,253064,2,0,B|120:10|120:10|140:18|140:18|213:7,1,125.999996154785,2|0,1:0|1:0,0:0:0:0:
25,205,253282,2,0,B|75:210|75:210|95:202|95:202|168:213,1,125.999996154785,10|0,1:0|0:0,0:0:0:0:
460,306,253500,6,2,P|457:167|320:143,1,300,12|0,1:3|1:0,0:1:0:0:
11,373,253828,2,2,P|13:234|150:210,1,300,6|0,1:1|1:0,0:1:0:0:
464,319,254155,2,2,P|496:215|430:129,1,225,14|0,1:1|0:0,0:1:0:0:
349,89,254373,6,2,P|329:282|149:210,1,450,6|2,1:1|0:1,0:1:0:0:
42,13,254809,2,0,B|8:67|8:67|35:134,1,125.999996154785,2|0,1:0|0:0,0:0:0:0:
264,218,255028,2,0,B|287:160|287:160|253:106,1,125.999996154785,10|0,1:0|0:0,0:0:0:0:
28,251,255246,5,6,1:1:0:0:
259,307,255355,1,2,1:2:0:0:
33,375,255464,1,10,2:2:0:0:
281,304,255573,2,2,B|368:309|368:309|407:353|407:353|523:370,1,251.999992309571,2|2,1:0|1:1,0:1:0:0:
437,161,255900,2,0,B|460:103|460:103|426:49,1,125.999996154785,10|0,1:1|0:0,0:0:0:0:
168,0,256119,5,2,1:0:0:0:
77,230,256228,1,2,1:2:0:0:
0,26,256337,1,10,1:2:0:0:
200,163,256446,2,2,B|306:228|306:228|362:115,1,251.999992309571,2|0,1:0|1:0,0:1:0:0:
149,22,256773,2,0,B|98:15|98:15|86:22|86:22|26:12,1,125.999996154785,10|0,1:0|0:0,0:0:0:0:
169,322,256991,5,6,1:1:0:0:
280,56,257100,1,2,1:1:0:0:
356,333,257209,1,10,1:0:0:0:
456,62,257319,2,0,P|455:197|320:194,1,300,6|0,1:0|0:0,0:0:0:0:
73,29,257646,5,2,1:0:0:0:
228,239,257755,1,2,1:1:0:0:
335,0,257864,1,2,2:3:0:0:
335,0,257973,1,2,2:3:0:0:
228,239,258191,5,6,3:1:0:0:
488,212,258409,5,2,3:2:0:0:
335,0,258519,1,2,3:2:0:0:
228,239,258628,1,2,3:2:0:0:
403,384,258737,6,2,B|369:294|433:297|384:187,1,198.000006042481,12|0,1:3|0:0,0:1:0:0:
322,142,258955,2,0,B|272:138|272:138|249:148|249:148|174:141,1,132.00000402832,10|0,1:0|0:0,0:0:0:0:
4,277,259173,1,2,1:0:0:0:
93,353,259282,2,0,B|143:349|143:349|166:359|166:359|241:352,1,132.00000402832,2|8,1:0|0:0,0:0:0:0:
453,243,259500,6,2,P|450:367|332:346,1,264.000008056641,6|0,1:0|1:0,0:0:0:0:
297,258,259828,2,0,L|275:124,1,132.00000402832,8|0,1:2|0:0,0:0:0:0:
213,272,260046,2,0,L|191:138,1,132.00000402832,0|0,1:0|0:0,0:0:0:0:
257,7,260264,5,10,1:0:0:0:
381,159,260373,2,0,P|498:162|493:44,1,264.000008056641,2|0,1:0|1:0,0:0:0:0:
309,97,260700,2,0,P|291:159|332:236,1,132.00000402832,10|0,1:0|0:0,0:0:0:0:
450,383,260919,1,2,1:0:0:0:
512,339,261028,2,0,P|530:277|489:200,1,132.00000402832,2|8,1:0|0:0,0:0:0:0:
202,116,261246,6,2,B|291:92|291:92|320:34|320:34|425:11,1,264.000008056641,6|0,1:0|1:0,0:1:0:0:
314,219,261573,2,0,P|337:279|319:341,1,132.00000402832,8|0,0:0|0:0,0:0:0:0:
181,382,261791,1,0,1:0:0:0:
110,346,261900,1,0,1:0:0:0:
40,384,262009,2,0,P|21:321|44:261,1,132.00000402832,8|0,0:0|0:0,0:0:0:0:
202,116,262228,6,2,B|275:104|275:104|306:125|306:125|403:109,1,198.000006042481,6|0,1:0|0:0,0:1:0:0:
459,146,262446,2,0,P|477:83|454:23,1,132.00000402832,10|0,1:1|0:0,0:0:0:0:
293,158,262664,1,2,1:0:0:0:
371,243,262773,2,0,P|433:261|493:238,1,132.00000402832,2|8,1:0|0:0,0:0:0:0:
248,0,262991,5,2,1:0:0:0:
181,41,263100,2,2,P|171:160|49:151,1,264.000008056641,2|8,1:1|0:0,0:1:0:0:
282,246,263428,2,2,P|292:365|414:356,1,264.000008056641,2|0,1:1|1:0,0:1:0:0:
512,158,263755,2,0,B|477:150|477:150|445:165|445:165|363:152,1,132.00000402832,10|0,1:1|0:0,0:1:0:0:
167,119,263973,6,2,P|168:18|271:13,1,198.000006042481,2|0,1:1|0:0,0:1:0:0:
273,7,264191,1,2,1:1:0:0:
381,174,264300,2,2,P|475:182|455:52,1,264.000008056641,2|0,1:1|1:0,0:1:0:0:
281,104,264628,1,2,1:1:0:0:
409,274,264737,6,2,B|490:312|490:312|435:122,1,287.999991210938,6|0,1:0|1:0,0:1:0:0:
87,175,265064,2,0,B|65:112|65:112|108:30,1,132.00000402832,10|0,1:0|0:0,0:0:0:0:
310,259,265282,2,0,B|332:322|332:322|301:379,1,132.00000402832,2|0,1:0|0:0,0:0:0:0:
207,308,265500,5,10,1:2:0:0:
207,308,265609,1,10,1:2:0:0:
306,111,265719,5,14,1:3:0:0:
397,206,265828,1,2,1:2:0:0:
507,133,265937,1,10,1:2:0:0:
297,16,266046,5,2,0:3:0:0:
186,109,266155,1,2,1:2:0:0:
66,27,266264,1,2,1:2:0:0:
0,121,266373,5,10,0:2:0:0:
0,121,266482,1,2,0:2:0:0:
50,220,266591,5,2,1:1:0:0:
170,138,266700,1,2,1:2:0:0:
271,241,266809,2,0,B|255:306|255:306|269:369,1,132.00000402832,10|0,1:1|0:0,0:0:0:0:
469,247,267028,2,0,B|485:182|485:182|470:118,1,132.00000402832,2|0,1:0|0:0,0:0:0:0:
397,137,267246,1,10,1:0:0:0:
228,0,267355,6,2,P|227:91|68:73,1,264.000008056641,2|0,1:0|1:0,0:1:0:0:
12,337,267682,2,0,B|76:309|76:309|136:326,1,132.00000402832,10|0,1:2|0:0,0:0:0:0:
269,369,267900,2,0,B|329:386|329:386|393:358,1,132.00000402832,2|0,1:2|0:0,0:0:0:0:
490,244,268119,2,0,B|475:200|475:200|484:168|484:168|469:117,1,132.00000402832,10|0,1:2|0:0,0:0:0:0:
228,0,268337,6,0,B|140:153|304:111|209:268,1,287.999991210938,6|8,1:1|1:0,0:0:0:0:
353,8,268664,1,2,1:0:0:0:
408,65,268773,2,0,B|461:89|461:89|517:39,1,120,6|0,1:0|3:0,0:0:0:0:
254,175,268991,1,0,3:0:0:0:
371,278,269100,1,0,3:0:0:0:
158,384,269209,6,2,P|165:263|35:253,1,276.000005264282,12|8,1:3|1:0,0:1:0:0:
44,331,269537,1,0,1:2:0:0:
146,159,269646,2,0,B|170:102|170:102|133:29,1,125.999996154785,2|0,1:2|0:0,0:0:0:0:
290,290,269864,5,10,1:2:0:0:
290,290,269973,1,2,1:2:0:0:
384,329,270082,1,0,1:1:0:0:
207,351,270191,1,2,1:2:0:0:
277,188,270300,1,10,1:2:0:0:
384,329,270409,2,2,P|493:342|491:216,1,264.000008056641,2|0,1:1|1:0,0:1:0:0:
362,141,270737,2,0,B|423:168|423:168|479:135,1,132.00000402832,10|0,0:0|0:0,0:0:0:0:
275,13,270955,6,2,B|117:-18|185:92|25:47,1,264.000008056641,2|8,1:1|0:0,0:1:0:0:
244,184,271282,2,2,B|402:153|333:263|493:218,1,264.000008056641,2|0,1:0|1:0,0:1:0:0:
335,384,271609,5,2,1:2:0:0:
348,307,271719,1,2,1:2:0:0:
245,156,271828,5,8,3:3:0:0:
118,254,271937,2,0,P|67:288|-14:263,1,132.00000402832,8|0,3:3|3:0,0:0:0:0:
248,130,272155,1,4,3:3:0:0:
209,304,272264,2,0,P|181:358|99:377,1,132.00000402832,4|0,3:3|3:0,0:0:0:0:
250,103,272482,1,2,3:3:0:0:
348,307,272591,1,2,3:3:0:0:
410,147,272700,6,2,P|518:160|507:51,1,251.999992309571,12|8,1:3|1:0,0:1:0:0:
250,103,273028,2,2,P|141:116|152:7,1,251.999992309571,2|0,1:0|1:0,0:1:0:0:
316,172,273355,2,0,B|343:229|343:229|317:287,1,125.999996154785,8|0,0:0|0:0,0:0:0:0:
52,346,273573,5,2,1:0:0:0:
117,384,273682,2,0,L|280:373,1,125.999996154785,2|8,1:0|0:0,0:0:0:0:
381,250,273900,1,2,1:0:0:0:
317,287,274009,2,0,L|154:276,1,125.999996154785,2|0,1:0|0:0,0:0:0:0:
20,206,274228,2,0,L|183:195,1,125.999996154785,10|0,1:0|0:0,0:0:0:0:
411,132,274446,6,2,P|421:17|306:13,1,251.999992309571,2|8,1:0|1:0,0:1:0:0:
80,157,274773,2,2,P|70:42|185:38,1,251.999992309571,2|0,1:0|1:0,0:1:0:0:
236,144,275100,2,0,B|244:194|244:194|229:221|229:221|235:264,1,125.999996154785,10|0,1:0|0:0,0:0:0:0:
395,384,275319,5,2,1:0:0:0:
444,324,275428,2,0,B|469:267|469:267|438:197,1,125.999996154785,2|8,1:0|0:0,0:0:0:0:
203,376,275646,1,2,1:0:0:0:
154,317,275755,2,0,B|129:260|129:260|160:190,1,125.999996154785,0|0,1:0|0:0,0:0:0:0:
370,125,275973,2,0,B|420:120|420:120|435:106|435:106|518:100,1,125.999996154785,10|0,1:0|0:0,0:0:0:0:
251,9,276191,6,2,B|114:-26|171:113|21:63,1,251.999992309571,6|8,1:0|1:0,0:1:0:0:
286,142,276519,2,2,B|423:107|366:246|516:196,1,251.999992309571,2|0,1:0|1:0,0:1:0:0:
327,384,276846,2,0,P|339:327|319:262,1,125.999996154785,10|0,1:0|0:0,0:0:0:0:
140,81,277064,5,2,1:0:0:0:
107,153,277173,2,0,B|48:175|48:175|-6:141,1,125.999996154785,2|8,1:0|0:0,0:0:0:0:
177,301,277391,1,2,1:0:0:0:
225,362,277500,2,0,B|284:384|284:384|342:353,1,125.999996154785,2|0,1:0|0:0,0:0:0:0:
476,231,277719,2,0,B|460:191|460:191|466:164|466:164|446:108,1,125.999996154785,10|0,1:0|0:0,0:0:0:0:
227,19,277937,6,2,P|221:135|106:152,1,251.999992309571,10|8,1:0|1:0,0:1:0:0:
383,236,278264,2,2,P|388:352|503:369,1,251.999992309571,2|0,1:0|1:0,0:1:0:0:
395,139,278591,2,0,B|454:149|454:149|530:104,1,125.999996154785,10|0,1:0|0:0,0:0:0:0:
307,0,278809,5,2,3:1:0:0:
256,116,278919,1,2,3:2:0:0:
139,85,279028,1,2,3:2:0:0:
9,156,279137,5,2,3:1:0:0:
49,68,279246,1,2,3:2:0:0:
143,89,279355,1,2,3:2:0:0:
87,220,279464,5,2,3:3:0:0:
87,220,279573,1,2,3:3:0:0:
208,259,279682,6,2,P|203:348|58:348,1,251.999992309571,12|8,1:3|1:0,0:1:0:0:
330,210,280009,2,2,P|335:299|480:299,1,251.999992309571,2|0,1:0|1:0,0:1:0:0:
431,121,280337,2,0,P|449:64|420:-12,1,125.999996154785,10|0,1:0|0:0,0:0:0:0:
257,180,280555,5,2,1:0:0:0:
330,210,280664,2,0,B|388:231|388:231|465:200,1,125.999996154785,2|8,1:0|0:0,0:0:0:0:
234,332,280882,1,2,1:0:0:0:
161,362,280991,2,0,B|103:383|103:383|26:352,1,125.999996154785,2|0,1:0|0:0,0:0:0:0:
123,167,281209,2,0,B|135:123|135:123|127:99|127:99|139:45,1,125.999996154785,10|0,1:0|0:0,0:0:0:0:
372,156,281428,6,2,P|369:31|244:53,1,251.999992309571,2|8,1:0|1:0,0:1:0:0:
118,242,281755,2,2,P|121:117|246:139,1,251.999992309571,2|0,1:0|1:0,0:1:0:0:
321,333,282082,2,0,B|269:321|269:321|246:333|246:333|193:321,1,125.999996154785,10|0,1:0|0:0,0:0:0:0:
392,178,282300,5,2,1:0:0:0:
451,229,282409,2,0,P|479:194|453:95,1,125.999996154785,2|8,1:0|0:0,0:0:0:0:
283,64,282628,1,2,1:0:0:0:
224,115,282737,2,0,P|196:80|222:-19,1,125.999996154785,2|0,1:0|2:0,0:0:0:0:
391,177,282955,2,0,P|403:238|370:290,1,125.999996154785,10|0,1:0|0:0,0:0:0:0:
97,245,283173,6,2,P|99:359|213:362,1,251.999992309571,6|8,0:1|1:0,0:1:0:0:
401,167,283500,2,2,P|398:281|284:284,1,251.999992309571,2|0,1:0|1:0,0:1:0:0:
209,62,283828,2,0,P|175:113|187:174,1,125.999996154785,10|0,1:0|0:0,0:0:0:0:
368,343,284046,5,2,1:0:0:0:
423,278,284155,2,0,B|440:220|440:220|417:158,1,125.999996154785,2|8,1:0|0:0,0:0:0:0:
179,290,284373,1,2,1:0:0:0:
124,225,284482,2,0,B|107:167|107:167|130:105,1,125.999996154785,2|0,1:0|0:0,0:0:0:0:
411,38,284700,2,0,B|434:100|434:100|417:158,1,125.999996154785,10|0,1:0|0:0,0:0:0:0:
251,384,284919,6,2,B|322:254|186:271|258:146,1,251.999992309571,2|8,1:0|1:0,0:1:0:0:
6,266,285246,2,2,B|-65:136|71:153|-1:28,1,251.999992309571,2|0,1:0|1:0,0:1:0:0:
194,220,285573,2,0,B|149:206|149:206|121:216|121:216|59:199,1,125.999996154785,10|0,1:0|0:0,0:0:0:0:
334,71,285791,5,10,3:3:0:0:
417,143,285900,1,8,3:3:0:0:
512,87,286009,1,8,3:3:0:0:
327,50,286119,5,6,3:3:0:0:
285,189,286228,2,0,P|280:241|314:329,1,138.000002632141,4|0,3:0|1:0,0:0:0:0:
315,331,286391,1,0,1:0:0:0:
324,341,286446,2,0,B|375:335|375:335|399:354|399:354|480:348,1,138.000002632141,6|0,1:1|0:0,0:0:0:0:
295,165,286664,6,2,P|296:94|89:82,1,287.999991210938,12|8,1:3|0:0,0:1:0:0:
0,198,286991,1,2,1:1:0:0:
76,335,287100,2,0,B|123:328|123:328|155:343|155:343|230:332,1,143.999995605469,8|0,1:2|0:0,0:0:0:0:
434,165,287319,2,0,B|387:158|387:158|355:173|355:173|280:162,1,143.999995605469,10|0,1:0|0:0,0:0:0:0:
77,4,287537,5,10,1:1:0:0:
143,92,287646,1,2,1:2:0:0:
74,181,287755,1,10,1:2:0:0:
77,364,287864,5,2,1:1:0:0:
9,275,287973,1,10,1:2:0:0:
78,185,288082,1,2,1:2:0:0:
173,300,288191,5,10,1:2:0:0:
173,300,288300,1,2,1:2:0:0:
308,359,288409,6,2,P|441:356|442:212,1,287.999991210938,14|8,0:1|1:0,0:1:0:0:
279,126,288737,1,2,1:1:0:0:
378,160,288846,2,0,B|447:176|447:176|513:142,1,143.999995605469,8|0,1:0|0:0,0:0:0:0:
218,38,289064,2,0,B|152:4|152:4|83:20,1,143.999995605469,10|0,1:0|0:0,0:0:0:0:
280,246,289282,5,10,1:1:0:0:
378,160,289391,1,2,1:2:0:0:
343,36,289500,1,10,1:2:0:0:
129,127,289609,5,2,1:1:0:0:
91,258,289719,1,10,1:2:0:0:
195,350,289828,1,2,1:2:0:0:
294,157,289937,5,10,1:1:0:0:
294,157,290046,1,2,1:2:0:0:
453,381,290155,6,0,P|414:252|280:246,1,287.999991210938,14|8,1:0|1:0,0:0:0:0:
106,377,290482,1,2,1:0:0:0:
8,252,290591,2,0,B|-14:183|-14:183|11:116,1,143.999995605469,8|0,1:0|0:0,0:0:0:0:
291,21,290809,2,0,B|316:87|316:87|294:157,1,143.999995605469,10|0,1:0|0:0,0:0:0:0:
149,302,291028,5,10,1:1:0:0:
108,194,291137,1,2,1:2:0:0:
8,252,291246,1,2,1:2:0:0:
144,323,291355,5,2,1:1:0:0:
244,381,291464,1,10,1:2:0:0:
285,273,291573,1,2,1:2:0:0:
218,163,291682,5,10,1:1:0:0:
218,163,291791,1,2,1:2:0:0:
334,37,291900,5,14,1:0:0:0:
312,183,292009,1,2,1:2:0:0:
334,37,292119,1,10,1:2:0:0:
453,213,292228,2,0,B|479:148|479:148|435:72,1,143.999995605469,2|8,1:1|0:0,0:0:0:0:
270,277,292446,1,2,1:2:0:0:
130,166,292555,2,0,B|104:101|104:101|141:36,1,143.999995605469,10|0,1:0|0:0,0:0:0:0:
270,277,292773,6,0,P|276:303|255:349,5,71.9999978027344,2|0|0|0|0|0,3:1|3:0|3:0|3:0|3:0|3:0,3:0:0:0:
187,379,293100,2,0,B|157:372|157:372|146:377|146:377|93:364,5,71.9999978027344,2|0|0|0|0|0,3:1|3:0|3:0|3:0|3:0|3:0,3:0:0:0:
41,384,293428,6,0,B|14:355|14:355|46:237,1,143.999995605469,6|0,3:1|3:0,0:0:0:0:
232,165,293646,5,6,0:1:0:0:
237,178,293700,1,0,0:1:0:0:
244,191,293755,1,0,0:1:0:0:
252,203,293809,1,0,0:1:0:0:
262,213,293864,1,0,0:1:0:0:
274,223,293919,1,0,0:1:0:0:
286,231,293973,1,2,0:1:0:0:
299,237,294028,1,0,0:1:0:0:
313,241,294082,1,0,0:1:0:0:
328,244,294137,1,0,0:1:0:0:
342,245,294191,1,0,0:1:0:0:
357,243,294246,1,0,0:1:0:0:
371,240,294300,1,2,0:1:0:0:
385,236,294355,1,0,0:1:0:0:
398,229,294409,1,0,0:1:0:0:
410,221,294464,1,0,0:1:0:0:
421,212,294519,6,0,L|437:123,5,71.9999978027344,2|0|0|0|0|0,0:1|0:0|0:0|0:0|0:0|0:0,0:0:0:0:
423,69,294846,2,0,L|343:26,5,71.9999978027344,2|0|0|0|0|0,0:1|0:0|0:0|0:0|0:0|0:0,0:0:0:0:
289,15,295173,2,0,L|223:77,3,71.9999978027344,2|0|0|0,0:1|0:0|0:0|0:0,0:0:0:0:
201,134,295391,5,2,0:1:0:0:
212,143,295446,1,0,0:0:0:0:
222,153,295500,1,0,0:0:0:0:
230,165,295555,1,0,0:0:0:0:
238,178,295609,1,0,0:1:0:0:
243,192,295664,1,0,0:0:0:0:
246,206,295719,1,2,0:1:0:0:
248,220,295773,1,0,0:0:0:0:
248,235,295828,1,0,0:0:0:0:
246,249,295882,1,0,0:0:0:0:
242,263,295937,1,0,0:0:0:0:
237,277,295991,1,0,0:0:0:0:
230,290,296046,1,2,0:1:0:0:
221,301,296100,1,0,0:0:0:0:
211,312,296155,1,0,0:0:0:0:
199,321,296209,1,0,0:0:0:0:
187,328,296264,6,0,L|97:315,5,71.9999978027344,2|0|0|0|0|0,0:1|0:0|0:0|0:0|0:0|0:0,0:0:0:0:
43,295,296591,2,0,L|27:206,5,71.9999978027344,2|0|0|0|0|0,0:1|0:0|0:0|0:0|0:0|0:0,0:0:0:0:
26,149,296919,2,0,L|105:106,3,71.9999978027344,2|0|0|0,0:1|0:0|0:0|0:0,0:0:0:0:
174,119,297137,5,2,0:1:0:0:
180,139,297191,1,0,0:0:0:0:
189,159,297246,1,0,0:0:0:0:
201,178,297300,1,0,0:0:0:0:
215,194,297355,1,0,0:0:0:0:
232,208,297409,1,0,0:0:0:0:
250,220,297464,1,2,0:1:0:0:
270,229,297519,1,0,0:0:0:0:
291,236,297573,1,0,0:0:0:0:
312,239,297628,1,0,0:0:0:0:
334,240,297682,1,0,0:1:0:0:
356,237,297737,1,0,0:0:0:0:
377,231,297791,1,2,0:1:0:0:
397,223,297846,1,0,0:0:0:0:
416,211,297900,1,0,0:0:0:0:
433,197,297955,1,0,0:0:0:0:
449,179,298009,6,0,L|432:83,7,71.9999978027344,2|0|0|0|0|0|0|0,0:1|0:0|0:0|0:0|0:0|0:0|0:0|0:0,0:0:0:0:
402,34,298446,5,2,1:1:0:0:
394,66,298500,1,0,1:0:0:0:
378,94,298555,1,0,1:0:0:0:
353,117,298609,1,0,1:0:0:0:
323,131,298664,1,0,1:0:0:0:
291,136,298719,1,0,1:0:0:0:
258,130,298773,1,0,1:0:0:0:
229,116,298828,1,0,1:0:0:0:
205,93,298882,5,6,1:1:0:0:
21,174,298991,2,0,P|7:114|45:25,1,155.999992858887,2|0,1:1|0:0,0:0:0:0:
250,222,299209,1,2,1:1:0:0:
145,354,299319,2,0,P|69:366|-1:333,1,155.999992858887,2|0,1:1|0:0,0:0:0:0:
200,65,299537,2,0,P|269:32|345:44,1,155.999992858887,0|0,1:0|0:0,0:0:0:0:
498,269,299755,5,2,1:2:0:0:
452,64,299864,1,2,1:2:0:0:
410,331,299973,1,2,1:2:0:0:
345,44,300082,1,2,1:2:0:0:
300,326,300191,1,2,1:2:0:0:
241,80,300300,1,2,1:2:0:0:
197,363,300409,1,2,1:2:0:0:
132,61,300519,1,2,1:2:0:0:
84,347,300628,6,0,B|-38:330|-59:141|150:46|255:173|187:222|344:352|546:355|610:48|498:-64|294:1|336:103|390:125,1,883.199970351563,12|4,0:3|1:2,0:0:0:0:
