osu file format v14

[General]
AudioFilename: audio1.mp3
AudioLeadIn: 0
PreviewTime: 60080
Countdown: 0
SampleSet: Soft
StackLeniency: 0.1
Mode: 0
LetterboxInBreaks: 0
WidescreenStoryboard: 1

[Editor]
Bookmarks: 15440,23120,46160,60080,61520,72560,76400,84560,92720,99920,107600,121040,122480,138320,153680,157520,161360,165200,169040,172880,176720,180560,184400,188240,192080,195920,209360
DistanceSpacing: 1
BeatDivisor: 4
GridSize: 4
TimelineZoom: 1

[Metadata]
Title:Piyala
TitleUnicode:Пыяла
Artist:AIGEL
ArtistUnicode:АИГЕЛ
Creator:RoseYoshino
Version:The Boy's Word
Source:Слово пацана. Кровь на асфальте
Tags:Russian Tatar Electronic Pop TV Show Series The Boy's Word: Blood on the Asphalt Slovo patsana Krov' na asfal'te Celektus
BeatmapID:4610364
BeatmapSetID:2163702

[Difficulty]
HPDrainRate:6
CircleSize:9.5
OverallDifficulty:8
ApproachRate:8
SliderMultiplier:0.6
SliderTickRate:1

[Events]
//Background and Video events
0,0,"w1500_52136448.jpg",0,0
//Break Periods
//Storyboard Layer 0 (Background)
//Storyboard Layer 1 (Fail)
//Storyboard Layer 2 (Pass)
//Storyboard Layer 3 (Foreground)
//Storyboard Layer 4 (Overlay)
//Storyboard Sound Samples

[TimingPoints]
80,480,4,2,1,60,1,0
15440,-83.3333333333333,4,2,1,60,0,0
23120,-50,4,2,1,60,0,0
23600,-200,4,2,1,60,0,0
24080,-50,4,2,1,60,0,0
24560,-200,4,2,1,60,0,0
25040,-50,4,2,1,60,0,0
25520,-200,4,2,1,60,0,0
26000,-76.9230769230769,4,2,1,60,0,0
38480,-50,4,2,1,60,0,0
38960,-200,4,2,1,60,0,0
39440,-50,4,2,1,60,0,0
39920,-200,4,2,1,60,0,0
40400,-50,4,2,1,60,0,0
40880,-200,4,2,1,60,0,0
41360,-76.9230769230769,4,2,1,60,0,0
61520,-76.9230769230769,4,2,1,70,0,1
69200,-71.4285714285714,4,2,1,70,0,1
72560,-133.333333333333,4,2,1,70,0,1
76400,-71.4285714285714,4,2,1,60,0,0
84560,-66.6666666666667,4,2,1,60,0,0
103760,-100,4,2,1,60,0,0
104240,-66.6666666666667,4,2,1,60,0,0
107600,-62.5,4,2,1,80,0,1
136400,-62.5,4,2,1,70,0,1
136880,-62.5,4,2,1,60,0,1
137360,-62.5,4,2,1,50,0,1
137840,-62.5,4,2,1,50,0,0
138320,-76.9230769230769,4,2,1,50,0,0
153680,-500,4,2,1,60,0,0
172880,-333.333333333333,4,2,1,60,0,0
176720,-250,4,2,1,60,0,0
180560,-200,4,2,1,60,0,0
184400,-1000,4,2,1,60,0,0
188000,-1000,4,2,1,5,0,0
188240,-1000,4,2,1,60,0,0
191840,-1000,4,2,1,5,0,0
192080,-1000,4,2,1,60,0,0
195680,-1000,4,2,1,5,0,0
195920,-1000,4,2,1,60,0,0
199760,-1000,4,2,1,5,0,0

[Colours]
Combo1 : 255,128,0
Combo2 : 255,0,0
Combo3 : 64,128,128

[HitObjects]
8,376,80,6,0,L|8:328,1,45,2|0,1:2|0:0,0:0:0:0:
32,304,560,1,8,1:2:0:0:
32,304,1040,2,0,L|32:256,1,45,0|0,1:2|0:0,0:0:0:0:
8,232,1520,1,8,1:2:0:0:
8,232,2000,2,0,L|8:184,1,45,0|0,1:2|0:0,0:0:0:0:
32,160,2480,1,8,1:2:0:0:
32,160,2840,1,0,3:2:0:0:
32,160,2960,2,0,L|32:112,1,45,0|0,1:2|0:0,0:0:0:0:
56,88,3440,1,8,1:2:0:0:
8,8,3920,6,0,L|64:8,1,45,2|0,1:2|0:0,0:0:0:0:
72,32,4400,1,8,1:2:0:0:
72,32,4880,2,0,L|128:32,1,45,0|0,1:2|0:0,0:0:0:0:
136,8,5360,1,8,1:2:0:0:
136,8,5840,2,0,L|192:8,1,45,0|0,1:2|0:0,0:0:0:0:
200,32,6320,1,8,1:2:0:0:
200,32,6680,1,0,3:2:0:0:
200,32,6800,2,0,L|256:32,1,45,0|0,1:2|0:0,0:0:0:0:
264,8,7280,1,8,1:2:0:0:
320,40,7760,6,0,L|320:96,1,45,2|0,1:2|0:0,0:0:0:0:
344,104,8240,1,8,1:2:0:0:
344,104,8720,2,0,L|344:160,1,45,0|0,1:2|0:0,0:0:0:0:
320,168,9200,1,8,1:2:0:0:
320,168,9680,2,0,L|320:224,1,45,0|0,1:2|0:0,0:0:0:0:
344,232,10160,1,8,1:2:0:0:
344,232,10520,1,0,3:2:0:0:
344,232,10640,2,0,L|344:288,1,45,0|0,1:2|0:0,0:0:0:0:
320,296,11120,1,8,1:2:0:0:
368,344,11600,6,0,L|312:344,1,45,2|0,1:2|0:0,0:0:0:0:
304,368,12080,1,8,1:2:0:0:
304,368,12560,2,0,L|248:368,1,45,0|0,1:2|0:0,0:0:0:0:
240,344,13040,1,8,1:2:0:0:
240,344,13520,2,0,L|184:344,1,45,0|0,1:2|0:0,0:0:0:0:
176,368,14000,1,8,1:2:0:0:
176,368,14360,1,0,3:2:0:0:
176,368,14480,2,0,L|120:368,1,45,0|0,1:2|0:0,0:0:0:0:
112,344,14960,5,8,1:2:0:0:
112,336,15080,1,0,0:0:0:0:
112,328,15200,1,0,0:0:0:0:
112,320,15320,1,0,0:0:0:0:
112,312,15440,2,0,L|160:312,1,35.9999989013672,6|2,1:2|2:0,0:0:0:0:
184,248,15920,2,0,L|144:248,1,35.9999989013672,10|2,1:2|2:0,0:0:0:0:
144,280,16400,5,2,1:2:0:0:
144,280,16640,1,2,2:0:0:0:
112,312,16880,2,0,L|112:264,1,35.9999989013672,10|0,1:2|0:0,0:0:0:0:
144,280,17360,1,2,1:2:0:0:
144,280,17600,1,2,2:0:0:0:
184,248,17840,2,0,L|184:288,1,35.9999989013672,10|0,1:2|0:0,0:0:0:0:
144,280,18320,1,2,1:2:0:0:
144,280,18560,1,2,2:0:0:0:
112,248,18800,2,0,L|152:248,1,35.9999989013672,10|0,1:2|0:0,0:0:0:0:
64,248,19280,5,2,1:2:0:0:
64,248,19520,1,2,2:0:0:0:
32,272,19760,2,0,L|32:232,1,35.9999989013672,10|2,1:2|2:0,0:0:0:0:
64,248,20240,1,2,1:2:0:0:
64,248,20480,1,2,2:0:0:0:
88,216,20720,2,0,L|88:168,1,35.9999989013672,10|0,1:2|0:0,0:0:0:0:
64,144,21200,1,2,1:2:0:0:
64,144,21440,1,2,2:0:0:0:
32,168,21680,2,0,L|32:120,1,35.9999989013672,10|0,1:2|0:0,0:0:0:0:
64,144,22160,1,2,1:2:0:0:
64,144,22400,1,2,2:0:0:0:
88,112,22640,2,0,L|88:64,1,35.9999989013672,10|0,1:2|0:0,0:0:0:0:
16,32,23120,6,0,L|88:32,1,60,2|2,1:2|2:0,0:0:0:0:
176,32,23600,2,0,L|160:32,1,15,10|0,1:2|0:0,0:0:0:0:
392,88,24080,2,0,L|320:88,1,60,2|2,1:2|2:0,0:0:0:0:
232,88,24560,2,0,L|248:88,1,15,10|0,1:2|0:0,0:0:0:0:
16,144,25040,2,0,L|88:144,1,60,2|2,1:2|2:0,0:0:0:0:
176,144,25520,2,0,L|160:144,1,15,10|0,1:2|0:0,0:0:0:0:
256,144,26000,6,0,L|256:200,1,38.9999982147218,2|2,1:2|2:0,0:0:0:0:
256,248,26480,2,0,L|256:304,1,38.9999982147218,10|2,1:2|2:0,0:0:0:0:
256,352,26960,2,0,L|296:352,1,38.9999982147218,2|0,1:2|0:0,0:0:0:0:
384,352,27440,5,10,1:2:0:0:
384,240,27680,1,2,2:0:0:0:
384,352,27920,2,0,L|384:304,1,38.9999982147218,2|0,1:2|0:0,0:0:0:0:
384,240,28400,1,10,1:2:0:0:
384,352,28640,1,2,2:0:0:0:
384,240,28880,2,0,L|384:288,1,38.9999982147218,2|0,1:2|0:0,0:0:0:0:
384,352,29360,1,10,1:2:0:0:
384,240,29600,1,2,2:0:0:0:
384,352,29840,1,2,1:2:0:0:
384,240,30080,1,2,2:0:0:0:
384,352,30320,2,0,L|384:304,1,38.9999982147218,10|2,1:2|2:0,0:0:0:0:
472,288,30800,5,6,1:2:0:0:
472,288,31040,1,2,2:0:0:0:
472,232,31280,2,0,L|432:232,1,38.9999982147218,10|2,1:2|2:0,0:0:0:0:
360,232,31760,1,2,1:2:0:0:
360,232,32000,1,2,2:0:0:0:
321,176,32240,2,0,L|360:176,1,38.9999982147218,10|0,1:2|0:0,0:0:0:0:
448,176,32720,1,2,1:2:0:0:
448,176,32960,1,2,2:0:0:0:
487,120,33200,2,0,L|448:120,1,38.9999982147218,10|0,1:2|0:0,0:0:0:0:
448,176,33680,1,2,1:2:0:0:
448,176,33920,1,2,2:0:0:0:
487,120,34160,2,0,L|448:120,1,38.9999982147218,10|0,1:2|0:0,0:0:0:0:
488,40,34640,5,2,1:2:0:0:
488,40,34880,1,2,2:0:0:0:
432,40,35120,2,0,L|384:40,1,38.9999982147218,10|2,1:2|2:0,0:0:0:0:
336,40,35600,1,2,1:2:0:0:
336,40,35840,1,2,2:0:0:0:
280,40,36080,2,0,L|232:40,1,38.9999982147218,10|0,1:2|0:0,0:0:0:0:
184,88,36560,1,2,1:2:0:0:
184,88,36800,1,2,2:0:0:0:
240,88,37040,2,0,L|288:88,1,38.9999982147218,10|0,1:2|0:0,0:0:0:0:
240,136,37520,1,2,1:2:0:0:
240,136,37760,1,2,2:0:0:0:
184,136,38000,2,0,L|136:136,1,38.9999982147218,10|0,1:2|0:0,0:0:0:0:
176,200,38480,6,0,B|176:232|176:232|232:232,1,60,2|2,1:2|2:0,0:0:0:0:
176,296,38960,2,0,L|176:280,1,15,10|0,1:2|0:0,0:0:0:0:
256,296,39440,2,0,B|288:296|288:296|288:352,1,60,2|2,1:2|2:0,0:0:0:0:
352,296,39920,2,0,L|336:296,1,15,10|0,1:2|0:0,0:0:0:0:
432,360,40400,2,0,B|400:360|400:360|400:304,1,60,2|2,1:2|2:0,0:0:0:0:
336,360,40880,2,0,L|352:360,1,15,10|0,1:2|0:0,0:0:0:0:
256,360,41360,6,0,L|256:304,1,38.9999982147218,2|2,1:2|2:0,0:0:0:0:
256,264,41840,2,0,L|256:208,1,38.9999982147218,10|2,1:2|2:0,0:0:0:0:
256,136,42320,2,0,L|256:184,1,38.9999982147218,2|0,1:2|0:0,0:0:0:0:
328,192,42800,5,10,1:2:0:0:
456,192,43040,1,2,2:0:0:0:
328,192,43280,2,0,L|368:192,1,38.9999982147218,2|0,1:2|0:0,0:0:0:0:
456,192,43760,1,10,1:2:0:0:
328,192,44000,1,2,2:0:0:0:
456,192,44240,2,0,L|416:192,1,38.9999982147218,2|0,1:2|0:0,0:0:0:0:
328,192,44720,1,10,1:2:0:0:
456,192,44960,1,2,2:0:0:0:
328,192,45200,1,2,1:2:0:0:
456,192,45440,1,2,2:0:0:0:
328,192,45680,2,0,L|368:192,1,38.9999982147218,10|2,1:2|2:0,0:0:0:0:
408,104,46160,6,0,L|408:128,2,19.4999991073609,6|0|0,1:2|0:0|0:0,0:0:0:0:
408,48,46640,2,0,L|352:48,1,38.9999982147218,8|0,1:2|0:0,0:0:0:0:
408,104,47120,2,0,L|408:128,2,19.4999991073609,0|0|0,1:2|0:0|0:0,0:0:0:0:
369,48,47600,2,0,L|408:48,1,38.9999982147218,8|0,1:2|0:0,0:0:0:0:
408,104,48080,2,0,L|408:128,2,19.4999991073609,0|0|0,1:2|0:0|0:0,0:0:0:0:
408,48,48560,2,0,L|369:48,1,38.9999982147218,8|0,1:2|0:0,0:0:0:0:
360,48,48920,1,0,3:2:0:0:
352,48,49040,1,0,1:2:0:0:
344,48,49160,1,0,0:0:0:0:
336,48,49280,1,0,0:0:0:0:
296,48,49520,2,0,L|296:96,1,38.9999982147218,8|0,1:2|0:0,0:0:0:0:
296,152,50000,6,0,L|296:176,2,19.4999991073609,2|0|0,1:2|0:0|0:0,0:0:0:0:
296,240,50480,2,0,L|256:240,1,38.9999982147218,8|0,1:2|0:0,0:0:0:0:
296,152,50960,2,0,L|296:176,2,19.4999991073609,0|0|0,1:2|0:0|0:0,0:0:0:0:
257,240,51440,2,0,L|296:240,1,38.9999982147218,8|0,1:2|0:0,0:0:0:0:
296,152,51920,2,0,L|296:176,2,19.4999991073609,0|0|0,1:2|0:0|0:0,0:0:0:0:
296,240,52400,2,0,L|256:240,1,38.9999982147218,8|0,1:2|0:0,0:0:0:0:
248,240,52760,1,0,3:2:0:0:
240,240,52880,1,0,1:2:0:0:
232,240,53000,1,0,3:2:0:0:
224,240,53120,1,0,0:0:0:0:
168,240,53360,2,0,L|168:280,1,38.9999982147218,8|0,1:2|0:0,0:0:0:0:
248,312,53840,6,0,L|280:312,2,19.4999991073609,2|0|0,1:2|0:0|0:0,0:0:0:0:
296,360,54320,2,0,L|336:360,1,38.9999982147218,8|0,1:2|0:0,0:0:0:0:
248,312,54800,2,0,L|280:312,2,19.4999991073609,0|0|0,1:2|0:0|0:0,0:0:0:0:
335,360,55280,2,0,L|296:360,1,38.9999982147218,8|0,1:2|0:0,0:0:0:0:
248,312,55760,2,0,L|280:312,2,19.4999991073609,0|0|0,1:2|0:0|0:0,0:0:0:0:
296,360,56240,2,0,L|336:360,1,38.9999982147218,8|0,1:2|0:0,0:0:0:0:
344,360,56600,1,0,3:2:0:0:
344,352,56720,1,0,1:2:0:0:
344,344,56840,1,0,0:0:0:0:
344,336,56960,1,0,0:0:0:0:
344,280,57200,2,0,L|384:280,1,38.9999982147218,8|0,1:2|0:0,0:0:0:0:
432,352,57680,6,0,L|432:328,2,19.4999991073609,2|0|0,1:2|0:0|0:0,0:0:0:0:
472,288,58160,2,0,L|432:288,1,38.9999982147218,8|0,1:2|0:0,0:0:0:0:
432,352,58640,2,0,L|432:328,2,19.4999991073609,0|0|0,1:2|0:0|0:0,0:0:0:0:
433,288,59120,2,0,L|472:288,1,38.9999982147218,8|0,1:2|0:0,0:0:0:0:
384,288,59600,2,0,L|344:288,1,38.9999982147218,0|0,1:2|0:0,0:0:0:0:
296,336,60080,5,10,1:2:0:0:
296,264,60320,1,2,2:0:0:0:
240,280,60560,2,0,L|240:328,1,38.9999982147218,2|0,1:2|0:0,0:0:0:0:
296,264,61040,1,10,1:2:0:0:
296,336,61280,1,2,2:0:0:0:
240,319,61520,2,0,L|240:280,1,38.9999982147218,6|0,1:2|0:0,0:0:0:0:
296,336,62000,1,10,1:2:0:0:
296,264,62240,1,2,2:0:0:0:
240,280,62480,2,0,L|240:328,1,38.9999982147218,2|0,1:2|0:0,0:0:0:0:
296,264,62960,1,10,1:2:0:0:
296,336,63200,1,2,2:0:0:0:
240,319,63440,2,0,L|240:280,1,38.9999982147218,2|0,1:2|0:0,0:0:0:0:
296,336,63920,1,10,1:2:0:0:
296,264,64160,1,2,2:0:0:0:
240,280,64400,2,0,L|240:328,1,38.9999982147218,2|0,1:2|0:0,0:0:0:0:
184,336,64880,5,10,1:2:0:0:
184,264,65120,1,2,2:0:0:0:
240,280,65360,2,0,L|240:328,1,38.9999982147218,2|0,1:2|0:0,0:0:0:0:
184,264,65840,1,10,1:2:0:0:
184,336,66080,1,2,2:0:0:0:
240,319,66320,2,0,L|240:280,1,38.9999982147218,2|0,1:2|0:0,0:0:0:0:
184,336,66800,1,10,1:2:0:0:
184,264,67040,1,2,2:0:0:0:
240,280,67280,2,0,L|240:328,1,38.9999982147218,2|0,1:2|0:0,0:0:0:0:
184,264,67760,1,10,1:2:0:0:
184,336,68000,1,2,2:0:0:0:
240,319,68240,2,0,L|240:280,1,38.9999982147218,2|0,1:2|0:0,0:0:0:0:
240,192,68720,5,10,1:2:0:0:
144,192,68960,1,2,2:0:0:0:
192,104,69200,2,0,L|192:160,1,41.9999987182618,2|0,1:2|0:0,0:0:0:0:
144,192,69680,1,10,1:2:0:0:
240,192,69920,1,2,2:0:0:0:
192,146,70160,2,0,L|192:104,1,41.9999987182618,2|0,1:2|0:0,0:0:0:0:
240,192,70640,1,10,1:2:0:0:
144,192,70880,1,2,2:0:0:0:
192,104,71120,2,0,L|192:160,1,41.9999987182618,2|0,1:2|0:0,0:0:0:0:
144,192,71600,1,10,1:2:0:0:
240,192,71840,1,2,2:0:0:0:
192,146,72080,2,0,L|192:104,1,41.9999987182618,2|0,1:2|0:0,0:0:0:0:
192,48,72560,6,0,L|168:48,1,22.5000008583069,10|2,1:2|2:0,0:0:0:0:
112,48,73040,1,2,1:2:0:0:
248,48,73280,1,2,2:0:0:0:
169,48,73520,2,0,L|192:48,1,22.5000008583069,10|0,1:2|0:0,0:0:0:0:
248,48,74000,1,2,1:2:0:0:
112,48,74240,1,2,2:0:0:0:
192,48,74480,2,0,L|169:48,1,22.5000008583069,10|0,1:2|0:0,0:0:0:0:
112,48,74960,1,2,1:2:0:0:
248,48,75200,1,2,2:0:0:0:
169,48,75440,2,0,L|192:48,1,22.5000008583069,10|0,1:2|0:0,0:0:0:0:
112,48,75920,1,2,1:2:0:0:
248,48,76160,1,2,2:0:0:0:
320,136,76400,6,0,L|320:88,1,41.9999987182618,10|2,1:2|2:0,0:0:0:0:
224,96,76880,2,0,L|224:144,1,41.9999987182618,6|2,1:2|2:0,0:0:0:0:
272,176,77360,1,10,1:2:0:0:
272,176,77600,1,2,2:0:0:0:
208,224,77840,2,0,L|256:224,1,41.9999987182618,2|2,1:2|2:0,0:0:0:0:
320,224,78320,1,10,1:2:0:0:
320,280,78800,2,0,L|272:280,1,41.9999987182618,2|2,1:2|2:0,0:0:0:0:
208,280,79280,1,10,1:2:0:0:
208,336,79760,2,0,L|256:336,1,41.9999987182618,2|2,1:2|2:0,0:0:0:0:
320,336,80240,1,10,1:2:0:0:
136,336,80720,5,2,1:2:0:0:
64,336,80960,1,2,2:0:0:0:
64,264,81200,1,10,1:2:0:0:
136,264,81440,1,2,2:0:0:0:
64,336,81680,1,2,1:2:0:0:
64,264,81920,1,2,2:0:0:0:
136,264,82160,1,10,1:2:0:0:
64,264,82640,5,2,1:2:0:0:
64,336,82880,1,2,2:0:0:0:
136,336,83120,1,10,1:2:0:0:
64,336,83600,1,2,1:2:0:0:
136,336,83840,1,2,2:0:0:0:
136,264,84080,1,10,1:2:0:0:
216,360,84560,6,0,L|261:360,1,45.0000017166138,2|2,1:2|2:0,0:0:0:0:
261,312,85040,2,0,L|216:312,1,45.0000017166138,10|0,1:2|0:0,0:0:0:0:
216,264,85520,2,0,L|261:264,1,45.0000017166138,2|2,1:2|2:0,0:0:0:0:
261,216,86000,2,0,L|216:216,1,45.0000017166138,10|0,1:2|0:0,0:0:0:0:
216,168,86480,2,0,L|261:168,1,45.0000017166138,2|2,1:2|2:0,0:0:0:0:
261,120,86960,2,0,L|216:120,1,45.0000017166138,10|0,1:2|0:0,0:0:0:0:
216,72,87440,2,0,L|261:72,1,45.0000017166138,2|2,1:2|2:0,0:0:0:0:
261,24,87920,2,0,L|216:24,1,45.0000017166138,10|2,1:2|2:0,0:0:0:0:
216,72,88400,2,0,L|261:72,1,45.0000017166138,2|0,1:2|0:0,0:0:0:0:
261,120,88880,2,0,L|216:120,1,45.0000017166138,10|2,1:2|2:0,0:0:0:0:
216,168,89360,2,0,L|261:168,1,45.0000017166138,2|0,1:2|0:0,0:0:0:0:
261,216,89840,2,0,L|216:216,1,45.0000017166138,10|2,1:2|2:0,0:0:0:0:
216,264,90320,2,0,L|261:264,1,45.0000017166138,2|0,1:2|0:0,0:0:0:0:
261,312,90800,2,0,L|216:312,1,45.0000017166138,10|2,1:2|2:0,0:0:0:0:
216,360,91280,2,0,L|261:360,1,45.0000017166138,2|2,1:2|2:0,0:0:0:0:
261,312,91760,2,0,L|216:312,1,45.0000017166138,10|2,1:2|2:0,0:0:0:0:
160,312,92240,5,6,1:2:0:0:
96,312,92480,1,2,2:0:0:0:
40,312,92720,2,0,L|40:256,1,45.0000017166138,10|2,1:2|2:0,0:0:0:0:
40,192,93200,1,2,1:2:0:0:
40,192,93440,1,2,2:0:0:0:
72,104,93680,2,0,L|72:152,1,45.0000017166138,10|0,1:2|0:0,0:0:0:0:
40,192,94160,1,2,1:2:0:0:
40,192,94400,1,2,2:0:0:0:
88,240,94640,2,0,L|136:240,1,45.0000017166138,10|0,1:2|0:0,0:0:0:0:
184,192,95120,1,2,1:2:0:0:
184,192,95360,1,2,2:0:0:0:
240,240,95600,2,0,L|288:240,1,45.0000017166138,10|0,1:2|0:0,0:0:0:0:
256,152,96080,6,0,L|256:96,1,45.0000017166138,2|2,1:2|2:0,0:0:0:0:
256,40,96560,1,10,1:2:0:0:
192,40,96800,1,2,2:0:0:0:
192,104,97040,1,2,1:2:0:0:
192,104,97280,1,2,2:0:0:0:
256,104,97520,2,0,L|312:104,1,45.0000017166138,10|0,1:2|0:0,0:0:0:0:
344,40,98000,1,2,1:2:0:0:
344,40,98240,1,2,2:0:0:0:
416,104,98480,2,0,L|368:104,1,45.0000017166138,10|0,1:2|0:0,0:0:0:0:
344,40,98960,1,2,1:2:0:0:
344,40,99200,1,2,2:0:0:0:
256,104,99440,2,0,L|312:104,1,45.0000017166138,10|0,1:2|0:0,0:0:0:0:
176,40,99920,6,0,B|176:64|176:64|136:64,1,45.0000017166138,2|2,1:2|2:0,0:0:0:0:
88,64,100400,2,0,B|64:64|64:64|64:88,1,45.0000017166138,10|0,1:2|0:0,0:0:0:0:
64,160,100880,2,0,B|64:184|64:184|104:184,1,45.0000017166138,2|2,1:2|2:0,0:0:0:0:
160,184,101360,2,0,B|181:184|181:184|181:160,1,45.0000017166138,10|0,1:2|0:0,0:0:0:0:
256,184,101840,2,0,B|256:160|256:160|296:160,1,45.0000017166138,2|2,1:2|2:0,0:0:0:0:
344,160,102320,2,0,L|400:160,1,45.0000017166138,10|0,1:2|0:0,0:0:0:0:
440,224,102800,6,0,L|440:272,1,45.0000017166138,2|2,1:2|2:0,0:0:0:0:
440,224,103280,2,0,L|392:224,1,45.0000017166138,10|2,1:2|2:0,0:0:0:0:
440,224,103760,2,0,L|440:184,1,30,2|0,1:2|0:0,0:0:0:0:
480,328,104240,5,10,1:2:0:0:
424,328,104480,1,2,2:0:0:0:
368,328,104720,2,0,L|320:328,1,45.0000017166138,2|0,1:2|0:0,0:0:0:0:
264,328,105200,2,0,L|216:328,1,45.0000017166138,10|2,1:2|2:0,0:0:0:0:
104,280,105680,2,0,L|152:280,1,45.0000017166138,2|0,1:2|0:0,0:0:0:0:
208,280,106160,2,0,L|256:280,1,45.0000017166138,10|2,1:2|2:0,0:0:0:0:
304,280,106640,1,2,1:2:0:0:
368,280,106880,1,2,2:0:0:0:
336,312,107120,1,10,1:2:0:0:
336,248,107360,1,2,2:0:0:0:
336,168,107600,6,0,L|336:104,1,48,6|0,1:2|0:0,0:0:0:0:
280,80,108080,1,10,1:2:0:0:
392,80,108320,1,2,2:0:0:0:
336,120,108560,2,0,L|336:168,1,48,2|0,1:2|0:0,0:0:0:0:
280,224,109040,1,10,1:2:0:0:
392,224,109280,1,2,2:0:0:0:
336,168,109520,2,0,L|336:104,1,48,2|0,1:2|0:0,0:0:0:0:
280,80,110000,1,10,1:2:0:0:
392,80,110240,1,2,2:0:0:0:
336,120,110480,2,0,L|336:168,1,48,2|0,1:2|0:0,0:0:0:0:
240,144,110960,5,10,1:2:0:0:
240,40,111200,1,2,2:0:0:0:
192,96,111440,2,0,B|168:96|168:96|168:72,1,48,2|0,1:2|0:0,0:0:0:0:
96,144,111920,1,10,1:2:0:0:
96,40,112160,1,2,2:0:0:0:
168,72,112400,2,0,B|168:96|168:96|192:96,1,48,2|0,1:2|0:0,0:0:0:0:
240,144,112880,1,10,1:2:0:0:
240,40,113120,1,2,2:0:0:0:
192,96,113360,2,0,B|168:96|168:96|168:72,1,48,2|0,1:2|0:0,0:0:0:0:
96,144,113840,1,10,1:2:0:0:
96,40,114080,1,2,2:0:0:0:
168,72,114320,2,0,B|168:96|168:96|192:96,1,48,2|0,1:2|0:0,0:0:0:0:
168,192,114800,5,10,1:2:0:0:
104,264,115040,1,2,2:0:0:0:
176,288,115280,2,0,L|216:240,1,48,2|0,1:2|0:0,0:0:0:0:
200,344,115760,1,10,1:2:0:0:
272,264,116000,1,2,2:0:0:0:
206,251,116240,2,0,L|176:288,1,48,2|0,1:2|0:0,0:0:0:0:
168,192,116720,1,10,1:2:0:0:
104,264,116960,1,2,2:0:0:0:
176,288,117200,2,0,L|216:240,1,48,2|0,1:2|0:0,0:0:0:0:
200,344,117680,1,10,1:2:0:0:
272,264,117920,1,2,2:0:0:0:
206,251,118160,2,0,L|176:288,1,48,2|0,1:2|0:0,0:0:0:0:
168,192,118640,1,10,1:2:0:0:
104,264,118880,1,2,2:0:0:0:
176,288,119120,2,0,L|216:240,1,48,2|0,1:2|0:0,0:0:0:0:
200,344,119600,1,10,1:2:0:0:
272,264,119840,1,2,2:0:0:0:
206,251,120080,2,0,L|176:288,1,48,2|0,1:2|0:0,0:0:0:0:
168,192,120560,1,10,1:2:0:0:
104,264,120800,1,2,2:0:0:0:
176,288,121040,2,0,L|216:240,1,48,2|0,1:2|0:0,0:0:0:0:
176,96,121520,2,0,L|216:144,1,48,10|2,1:2|2:0,0:0:0:0:
336,96,122000,2,0,L|296:144,1,48,2|2,1:2|2:0,0:0:0:0:
256,192,122480,5,10,1:2:0:0:
256,192,122600,1,0,0:0:0:0:
256,192,122720,1,2,2:0:0:0:
352,215,122960,5,6,1:2:0:0:
352,356,123200,1,2,2:0:0:0:
256,260,123440,2,0,L|256:316,1,48,10|0,1:2|0:0,0:0:0:0:
160,216,123920,1,2,1:2:0:0:
160,357,124160,1,2,2:0:0:0:
256,309,124400,2,0,L|256:261,1,48,10|0,1:2|0:0,0:0:0:0:
352,215,124880,1,2,1:2:0:0:
352,356,125120,1,2,2:0:0:0:
256,260,125360,2,0,L|256:316,1,48,10|0,1:2|0:0,0:0:0:0:
160,216,125840,1,2,1:2:0:0:
160,357,126080,1,2,2:0:0:0:
256,309,126320,2,0,L|256:261,1,48,10|0,1:2|0:0,0:0:0:0:
352,215,126800,1,2,1:2:0:0:
352,356,127040,1,2,2:0:0:0:
256,260,127280,2,0,L|256:316,1,48,10|0,1:2|0:0,0:0:0:0:
160,216,127760,1,2,1:2:0:0:
160,357,128000,1,2,2:0:0:0:
256,309,128240,2,0,L|256:261,1,48,10|0,1:2|0:0,0:0:0:0:
352,215,128720,1,2,1:2:0:0:
352,356,128960,1,2,2:0:0:0:
256,260,129200,2,0,L|256:316,1,48,10|0,1:2|0:0,0:0:0:0:
160,216,129680,1,2,1:2:0:0:
160,357,129920,1,2,2:0:0:0:
256,309,130160,2,0,L|256:261,1,48,10|0,1:2|0:0,0:0:0:0:
352,215,130640,1,2,1:2:0:0:
352,356,130880,1,2,2:0:0:0:
256,260,131120,2,0,L|256:316,1,48,10|0,1:2|0:0,0:0:0:0:
160,216,131600,1,2,1:2:0:0:
160,357,131840,1,2,2:0:0:0:
256,309,132080,2,0,L|256:261,1,48,10|0,1:2|0:0,0:0:0:0:
352,215,132560,1,2,1:2:0:0:
352,356,132800,1,2,2:0:0:0:
256,260,133040,2,0,L|256:316,1,48,10|0,1:2|0:0,0:0:0:0:
160,216,133520,1,2,1:2:0:0:
160,357,133760,1,2,2:0:0:0:
256,309,134000,2,0,L|256:261,1,48,10|0,1:2|0:0,0:0:0:0:
352,215,134480,1,2,1:2:0:0:
352,356,134720,1,2,2:0:0:0:
256,260,134960,2,0,L|256:316,1,48,10|0,1:2|0:0,0:0:0:0:
160,216,135440,1,2,1:2:0:0:
160,357,135680,1,2,2:0:0:0:
256,309,135920,2,0,L|256:261,1,48,10|0,1:2|0:0,0:0:0:0:
352,215,136400,1,2,1:2:0:0:
352,356,136640,1,2,2:0:0:0:
256,260,136880,2,0,L|256:316,1,48,10|0,1:2|0:0,0:0:0:0:
160,216,137360,1,2,1:2:0:0:
160,357,137600,1,2,2:0:0:0:
256,309,137840,2,0,L|256:261,1,48,10|0,1:2|0:0,0:0:0:0:
256,192,138320,6,0,L|300:192,1,38.9999982147218,6|0,1:2|0:0,0:0:0:0:
336,192,138800,1,8,1:2:0:0:
376,192,139040,1,0,0:0:0:0:
416,192,139280,2,0,L|416:136,1,38.9999982147218,0|0,1:2|0:0,0:0:0:0:
416,112,139760,1,8,1:2:0:0:
416,72,140000,1,0,0:0:0:0:
376,72,140240,2,0,L|328:72,1,38.9999982147218,0|0,1:2|0:0,0:0:0:0:
296,72,140720,1,8,1:2:0:0:
256,72,140960,1,0,0:0:0:0:
256,72,141080,1,0,3:2:0:0:
256,72,141200,1,0,1:2:0:0:
256,72,141320,1,0,0:0:0:0:
256,72,141440,1,0,0:0:0:0:
216,72,141680,1,8,1:2:0:0:
176,72,141920,1,0,0:0:0:0:
72,112,142160,6,0,P|72:152|72:152,1,38.9999982147218,2|0,1:2|0:0,0:0:0:0:
72,192,142640,1,8,1:2:0:0:
112,192,142880,1,0,0:0:0:0:
152,192,143120,2,0,L|152:240,1,38.9999982147218,0|0,1:2|0:0,0:0:0:0:
112,232,143600,1,8,1:2:0:0:
72,232,143840,1,0,0:0:0:0:
72,272,144080,2,0,L|72:312,1,38.9999982147218,0|0,1:2|0:0,0:0:0:0:
112,312,144560,1,8,1:2:0:0:
152,312,144800,1,0,0:0:0:0:
152,312,144920,1,0,3:2:0:0:
152,312,145040,1,0,1:2:0:0:
152,312,145160,1,0,3:2:0:0:
152,312,145280,1,0,0:0:0:0:
192,312,145520,1,8,1:2:0:0:
232,312,145760,1,0,0:0:0:0:
312,368,146000,6,0,L|352:368,1,38.9999982147218,2|0,1:2|0:0,0:0:0:0:
392,368,146480,1,8,1:2:0:0:
432,368,146720,1,0,0:0:0:0:
432,328,146960,2,0,L|376:328,1,38.9999982147218,0|0,1:2|0:0,0:0:0:0:
352,328,147440,1,8,1:2:0:0:
312,328,147680,1,0,0:0:0:0:
312,288,147920,2,0,L|360:288,1,38.9999982147218,0|0,1:2|0:0,0:0:0:0:
392,288,148400,1,8,1:2:0:0:
432,288,148640,1,0,0:0:0:0:
432,288,148760,1,0,3:2:0:0:
432,288,148880,1,0,1:2:0:0:
432,288,149000,1,0,0:0:0:0:
432,288,149120,1,0,0:0:0:0:
432,248,149360,1,8,1:2:0:0:
392,248,149600,1,0,0:0:0:0:
256,248,149840,6,0,L|200:248,1,38.9999982147218,2|0,1:2|0:0,0:0:0:0:
176,248,150320,1,8,1:2:0:0:
136,248,150560,1,0,0:0:0:0:
96,248,150800,2,0,L|96:192,1,38.9999982147218,0|0,1:2|0:0,0:0:0:0:
96,168,151280,1,8,1:2:0:0:
96,128,151520,1,0,0:0:0:0:
96,88,151760,2,0,L|144:88,1,38.9999982147218,0|0,1:2|0:0,0:0:0:0:
176,88,152240,1,8,1:2:0:0:
216,88,152480,1,0,0:0:0:0:
216,88,152600,1,0,3:2:0:0:
216,88,152720,1,0,1:2:0:0:
216,88,152840,1,0,3:2:0:0:
216,88,152960,1,0,0:0:0:0:
216,128,153200,1,8,1:2:0:0:
256,128,153440,1,0,0:0:0:0:
256,88,153680,6,0,L|347:88,1,90,6|0,1:2|0:0,0:0:0:0:
492,144,157520,2,0,L|402:144,1,90,2|0,1:2|0:0,0:0:0:0:
256,192,161360,2,0,L|347:192,1,90,2|0,1:2|0:0,0:0:0:0:
492,248,165200,2,0,L|402:248,1,90,2|0,1:2|0:0,0:0:0:0:
256,296,169040,6,0,L|256:284,1,12,6|10,1:2|1:2,0:0:0:0:
256,248,169760,1,0,0:0:0:0:
256,296,170000,2,0,L|268:296,1,12,2|10,1:2|1:2,0:0:0:0:
304,296,170720,1,0,0:0:0:0:
256,296,170960,2,0,L|256:308,1,12,2|10,1:2|1:2,0:0:0:0:
256,344,171680,1,0,0:0:0:0:
256,296,171920,2,0,L|244:296,1,12,2|10,1:2|1:2,0:0:0:0:
208,296,172640,1,0,0:0:0:0:
88,304,172880,6,0,L|102:289,1,17.9999994506836,2|10,1:2|1:2,0:0:0:0:
127,264,173600,1,0,0:0:0:0:
88,304,173840,2,0,L|102:318,1,17.9999994506836,2|10,1:2|1:2,0:0:0:0:
127,343,174560,1,0,0:0:0:0:
88,304,174800,2,0,L|73:318,1,17.9999994506836,2|10,1:2|1:2,0:0:0:0:
45,346,175520,1,0,0:0:0:0:
88,304,175760,2,0,L|73:289,1,17.9999994506836,2|10,1:2|1:2,0:0:0:0:
48,264,176480,1,0,0:0:0:0:
204,163,176720,6,0,L|204:139,1,24,2|10,1:2|1:2,0:0:0:0:
204,92,177440,1,0,0:0:0:0:
204,163,177680,2,0,L|176:163,1,24,2|10,1:2|1:2,0:0:0:0:
134,162,178400,1,0,0:0:0:0:
204,163,178640,2,0,L|204:187,1,24,2|10,1:2|1:2,0:0:0:0:
204,234,179360,1,0,0:0:0:0:
204,163,179600,2,0,L|228:163,1,24,2|10,1:2|1:2,0:0:0:0:
275,162,180320,1,0,0:0:0:0:
368,206,180560,6,0,L|390:183,1,30,2|10,1:2|1:2,0:0:0:0:
418,155,181280,1,0,0:0:0:0:
368,206,181520,2,0,L|345:183,1,30,2|10,1:2|1:2,0:0:0:0:
319,155,182240,1,0,0:0:0:0:
368,206,182480,2,0,L|345:228,1,30,0|8,1:2|1:2,0:0:0:0:
317,256,183200,1,0,0:0:0:0:
368,206,183440,2,0,L|393:231,1,30,0|8,1:2|1:2,0:0:0:0:
418,255,184160,1,0,0:0:0:0:
472,328,184400,6,0,L|428:328,1,45,6|0,2:0|0:0,0:0:0:0:
376,360,188240,2,0,L|420:360,1,45
364,328,192080,2,0,L|320:328,1,45
256,192,195920,12,0,209360,0:0:0:0:
