osu file format v14

[General]
AudioFilename: audio1.mp3
AudioLeadIn: 0
PreviewTime: 60080
Countdown: 0
SampleSet: Soft
StackLeniency: 0.1
Mode: 0
LetterboxInBreaks: 0
WidescreenStoryboard: 1

[Editor]
Bookmarks: 209360
DistanceSpacing: 0.7
BeatDivisor: 4
GridSize: 4
TimelineZoom: 1

[Metadata]
Title:Piyala
TitleUnicode:Пыяла
Artist:AIGEL
ArtistUnicode:АИГЕЛ
Creator:RoseYoshino
Version:Normal
Source:Слово пацана. Кровь на асфальте
Tags:Russian Tatar Electronic Pop TV Show Series The Boy's Word: Blood on the Asphalt Slovo patsana Krov' na asfal'te Celektus
BeatmapID:4566784
BeatmapSetID:2163702

[Difficulty]
HPDrainRate:3
CircleSize:4.5
OverallDifficulty:5
ApproachRate:5
SliderMultiplier:1.2
SliderTickRate:1

[Events]
//Background and Video events
0,0,"w1500_52136448.jpg",0,0
//Break Periods
//Storyboard Layer 0 (Background)
//Storyboard Layer 1 (Fail)
//Storyboard Layer 2 (Pass)
//Storyboard Layer 3 (Foreground)
//Storyboard Layer 4 (Overlay)
//Storyboard Sound Samples

[TimingPoints]
80,480,4,2,1,60,1,0
15440,-83.3333333333333,4,2,1,60,0,0
23120,-76.9230769230769,4,2,1,60,0,0
46160,-181.818181818181,4,2,1,60,0,0
60080,-76.9230769230769,4,2,1,60,0,0
61520,-76.9230769230769,4,2,1,70,0,1
69120,-71.4285714285714,4,2,1,70,0,1
76400,-71.4285714285714,4,2,1,60,0,0
84560,-66.6666666666667,4,2,1,60,0,0
107600,-62.5,4,2,1,80,0,1
136400,-62.5,4,2,1,70,0,1
136880,-62.5,4,2,1,60,0,1
137360,-62.5,4,2,1,50,0,1
137840,-62.5,4,2,1,50,0,0
138320,-500,4,2,1,50,0,0
153680,-500,4,2,1,60,0,0
172880,-333.333333333333,4,2,1,60,0,0
176720,-250,4,2,1,60,0,0
180560,-200,4,2,1,60,0,0
184400,-1000,4,2,1,60,0,0
187760,-1000,4,2,1,5,0,0
188240,-1000,4,2,1,60,0,0
191600,-1000,4,2,1,5,0,0
192080,-1000,4,2,1,60,0,0
195440,-1000,4,2,1,5,0,0
195920,-1000,4,2,1,60,0,0
199760,-1000,4,2,1,5,0,0

[Colours]
Combo1 : 255,128,0
Combo2 : 255,0,0
Combo3 : 64,128,128

[HitObjects]
48,336,80,6,0,L|48:208,3,120,2|8|0|8,1:2|1:2|1:2|1:2,0:0:0:0:
136,208,2000,2,0,L|136:80,3,120,0|8|0|8,1:2|1:2|1:2|1:2,0:0:0:0:
216,80,3920,6,0,L|352:80,3,120,2|8|0|8,1:2|1:2|1:2|1:2,0:0:0:0:
344,160,5840,2,0,L|208:160,3,120,0|8|0|8,1:2|1:2|1:2|1:2,0:0:0:0:
216,240,7760,6,0,B|216:304|216:304|280:304,3,120,2|8|0|8,1:2|1:2|1:2|1:2,0:0:0:0:
344,256,9680,2,0,B|344:192|344:192|280:192,3,120,0|8|0|8,1:2|1:2|1:2|1:2,0:0:0:0:
224,144,11600,6,0,L|88:144,3,120,2|8|0|8,1:2|1:2|1:2|1:2,0:0:0:0:
48,208,13520,2,0,L|48:344,3,120,0|8|0|8,1:2|1:2|1:2|1:2,0:0:0:0:
152,328,15440,5,6,1:2:0:0:
200,328,15680,1,2,2:0:0:0:
248,328,15920,1,10,1:2:0:0:
296,328,16160,1,2,2:0:0:0:
344,328,16400,2,0,L|432:328,2,71.9999978027345,2|2|10,1:2|2:0|1:2,0:0:0:0:
344,224,17360,2,0,L|432:224,2,71.9999978027345,2|2|10,1:2|2:0|1:2,0:0:0:0:
344,120,18320,2,0,L|432:120,2,71.9999978027345,2|2|10,1:2|2:0|1:2,0:0:0:0:
280,40,19280,5,2,1:2:0:0:
232,40,19520,1,2,2:0:0:0:
184,40,19760,1,10,1:2:0:0:
136,40,20000,1,2,2:0:0:0:
88,40,20240,2,0,L|88:120,2,71.9999978027345,2|2|10,1:2|2:0|1:2,0:0:0:0:
160,112,21200,2,0,L|160:192,2,71.9999978027345,2|2|10,1:2|2:0|1:2,0:0:0:0:
88,184,22160,2,0,L|88:264,2,71.9999978027345,2|2|10,1:2|2:0|1:2,0:0:0:0:
168,256,23120,6,0,B|168:336|168:336|88:336,1,155.999992858887,2|10,1:2|1:2,0:0:0:0:
40,240,24080,2,0,B|40:160|40:160|120:160,1,155.999992858887,2|10,1:2|1:2,0:0:0:0:
224,160,25040,2,0,B|300:160|300:160|300:80,1,155.999992858887,2|10,1:2|1:2,0:0:0:0:
408,56,26000,2,0,L|488:56,1,77.9999964294435,2|2,1:2|2:0,0:0:0:0:
480,112,26480,2,0,L|480:200,1,77.9999964294435,10|2,1:2|2:0,0:0:0:0:
480,248,26960,2,0,B|480:352,1,77.9999964294435,2|0,1:2|0:0,0:0:0:0:
424,328,27440,5,10,1:2:0:0:
368,328,27680,1,2,2:0:0:0:
312,328,27920,2,0,L|312:240,1,77.9999964294435,2|0,1:2|0:0,0:0:0:0:
256,248,28400,1,10,1:2:0:0:
200,248,28640,1,2,2:0:0:0:
144,248,28880,2,0,L|144:160,1,77.9999964294435,2|0,1:2|0:0,0:0:0:0:
200,168,29360,5,10,1:2:0:0:
256,168,29600,1,2,2:0:0:0:
312,168,29840,2,0,L|312:80,1,77.9999964294435,2|2,1:2|2:0,0:0:0:0:
368,88,30320,2,0,L|368:166,1,77.9999964294435,10|2,1:2|2:0,0:0:0:0:
368,224,30800,5,6,1:2:0:0:
368,280,31040,1,2,2:0:0:0:
368,336,31280,1,10,1:2:0:0:
312,336,31520,1,2,2:0:0:0:
256,336,31760,2,0,L|160:336,2,77.9999964294435,2|2|10,1:2|2:0|1:2,0:0:0:0:
256,224,32720,2,0,L|160:224,2,77.9999964294435,2|2|10,1:2|2:0|1:2,0:0:0:0:
256,112,33680,2,0,L|160:112,2,77.9999964294435,2|2|10,1:2|2:0|1:2,0:0:0:0:
256,24,34640,5,2,1:2:0:0:
200,24,34880,1,2,2:0:0:0:
144,24,35120,1,10,1:2:0:0:
88,24,35360,1,2,2:0:0:0:
88,80,35600,2,0,L|176:80,2,77.9999964294435,2|2|10,1:2|2:0|1:2,0:0:0:0:
88,192,36560,2,0,L|0:192,2,77.9999964294435,2|2|10,1:2|2:0|1:2,0:0:0:0:
88,304,37520,2,0,L|176:304,2,77.9999964294435,2|2|10,1:2|2:0|1:2,0:0:0:0:
16,224,38480,6,0,L|184:224,1,155.999992858887,2|10,1:2|1:2,0:0:0:0:
248,144,39440,2,0,L|80:144,1,155.999992858887,2|10,1:2|1:2,0:0:0:0:
32,56,40400,2,0,L|200:56,1,155.999992858887,2|10,1:2|1:2,0:0:0:0:
296,56,41360,5,2,1:2:0:0:
352,56,41600,1,2,2:0:0:0:
408,56,41840,1,10,1:2:0:0:
464,56,42080,1,2,2:0:0:0:
464,112,42320,2,0,L|360:112,1,77.9999964294435,2|0,1:2|0:0,0:0:0:0:
328,112,42800,5,10,1:2:0:0:
328,168,43040,1,2,2:0:0:0:
384,168,43280,2,0,L|384:256,1,77.9999964294435,2|0,1:2|0:0,0:0:0:0:
384,304,43760,1,10,1:2:0:0:
328,304,44000,1,2,2:0:0:0:
272,304,44240,2,0,L|272:208,1,77.9999964294435,2|0,1:2|0:0,0:0:0:0:
216,232,44720,5,10,1:2:0:0:
160,232,44960,1,2,2:0:0:0:
160,288,45200,1,2,1:2:0:0:
104,288,45440,1,2,2:0:0:0:
48,288,45680,1,10,1:2:0:0:
48,232,45920,1,2,2:0:0:0:
48,176,46160,6,0,B|48:72|48:72|416:72,1,462.000014099122,6|8,1:2|1:2,0:0:0:0:
408,152,50000,2,0,B|408:256|408:256|40:256,1,462.000014099122,2|8,1:2|1:2,0:0:0:0:
48,176,53840,2,0,B|48:72|48:72|416:72,1,462.000014099122,2|8,1:2|1:2,0:0:0:0:
408,152,57680,2,0,B|408:256|408:256|248:256,1,264.000008056641,2|0,1:2|1:2,0:0:0:0:
176,256,60080,5,10,1:2:0:0:
120,256,60320,1,2,2:0:0:0:
64,256,60560,2,0,L|64:160,1,77.9999964294435,2|0,1:2|0:0,0:0:0:0:
64,120,61040,1,10,1:2:0:0:
120,120,61280,1,2,2:0:0:0:
176,120,61520,2,0,L|176:216,1,77.9999964294435,6|0,1:2|0:0,0:0:0:0:
176,256,62000,1,10,1:2:0:0:
120,256,62240,1,2,2:0:0:0:
64,256,62480,2,0,L|64:160,1,77.9999964294435,2|0,1:2|0:0,0:0:0:0:
64,120,62960,1,10,1:2:0:0:
120,120,63200,1,2,2:0:0:0:
176,120,63440,2,0,L|176:216,1,77.9999964294435,2|0,1:2|0:0,0:0:0:0:
176,256,63920,1,10,1:2:0:0:
120,256,64160,1,2,2:0:0:0:
64,256,64400,2,0,L|64:160,1,77.9999964294435,2|0,1:2|0:0,0:0:0:0:
64,120,64880,5,10,1:2:0:0:
64,64,65120,1,2,2:0:0:0:
120,64,65360,2,0,L|208:64,1,77.9999964294435,2|0,1:2|0:0,0:0:0:0:
256,64,65840,1,10,1:2:0:0:
312,64,66080,1,2,2:0:0:0:
312,120,66320,2,0,L|312:208,1,77.9999964294435,2|0,1:2|0:0,0:0:0:0:
312,256,66800,1,10,1:2:0:0:
312,312,67040,1,2,2:0:0:0:
368,312,67280,2,0,L|456:312,1,77.9999964294435,2|0,1:2|0:0,0:0:0:0:
448,256,67760,1,10,1:2:0:0:
448,200,68000,1,2,2:0:0:0:
448,144,68240,2,0,L|448:56,1,77.9999964294435,2|0,1:2|0:0,0:0:0:0:
392,72,68720,5,10,1:2:0:0:
336,72,68960,1,2,2:0:0:0:
280,72,69200,2,0,L|280:168,1,83.9999974365235,2|0,1:2|0:0,0:0:0:0:
280,216,69680,1,10,1:2:0:0:
336,216,69920,1,2,2:0:0:0:
392,216,70160,2,0,L|392:120,1,83.9999974365235,2|0,1:2|0:0,0:0:0:0:
392,72,70640,1,10,1:2:0:0:
336,72,70880,1,2,2:0:0:0:
280,72,71120,2,0,L|280:168,1,83.9999974365235,2|0,1:2|0:0,0:0:0:0:
280,216,71600,1,10,1:2:0:0:
336,216,71840,1,2,2:0:0:0:
392,216,72080,2,0,L|392:120,1,83.9999974365235,2|0,1:2|0:0,0:0:0:0:
448,128,72560,6,0,L|448:240,1,83.9999974365235,10|2,1:2|2:0,0:0:0:0:
448,272,73040,1,2,1:2:0:0:
448,328,73280,1,2,2:0:0:0:
392,328,73520,2,0,L|304:328,1,83.9999974365235,10|0,1:2|0:0,0:0:0:0:
248,328,74000,1,2,1:2:0:0:
248,272,74240,1,2,2:0:0:0:
192,272,74480,2,0,L|104:272,1,83.9999974365235,10|0,1:2|0:0,0:0:0:0:
48,272,74960,1,2,1:2:0:0:
48,216,75200,1,2,2:0:0:0:
48,160,75440,2,0,L|144:160,1,83.9999974365235,10|0,1:2|0:0,0:0:0:0:
192,160,75920,1,2,1:2:0:0:
248,160,76160,1,2,2:0:0:0:
304,160,76400,2,0,L|392:160,1,83.9999974365235,10|2,1:2|2:0,0:0:0:0:
392,216,76880,2,0,L|308:216,1,83.9999974365235,6|2,1:2|2:0,0:0:0:0:
248,216,77360,5,10,1:2:0:0:
248,160,77600,1,2,2:0:0:0:
248,104,77840,1,2,1:2:0:0:
248,48,78080,1,2,2:0:0:0:
304,48,78320,1,10,1:2:0:0:
424,48,78800,2,0,L|424:144,2,83.9999974365235,2|2|10,1:2|2:0|1:2,0:0:0:0:
488,144,79760,2,0,L|488:240,2,83.9999974365235,2|2|10,1:2|2:0|1:2,0:0:0:0:
328,232,80720,5,2,1:2:0:0:
272,232,80960,1,2,2:0:0:0:
216,232,81200,1,10,1:2:0:0:
160,232,81440,1,2,2:0:0:0:
104,232,81680,2,0,L|104:320,2,83.9999974365235,2|2|10,1:2|2:0|1:2,0:0:0:0:
104,112,82640,2,0,L|104:16,2,83.9999974365235,2|2|10,1:2|2:0|1:2,0:0:0:0:
224,112,83600,2,0,L|328:112,2,83.9999974365235,2|2|10,1:2|2:0|1:2,0:0:0:0:
256,232,84560,6,0,L|256:344,1,90.0000034332277,2|2,1:2|2:0,0:0:0:0:
320,320,85040,2,0,L|320:208,1,90.0000034332277,10|0,1:2|0:0,0:0:0:0:
256,232,85520,2,0,L|256:344,1,90.0000034332277,2|2,1:2|2:0,0:0:0:0:
320,320,86000,2,0,L|320:208,1,90.0000034332277,10|0,1:2|0:0,0:0:0:0:
256,232,86480,2,0,L|256:344,1,90.0000034332277,2|2,1:2|2:0,0:0:0:0:
320,320,86960,2,0,L|320:208,1,90.0000034332277,10|0,1:2|0:0,0:0:0:0:
256,232,87440,2,0,L|256:344,1,90.0000034332277,2|2,1:2|2:0,0:0:0:0:
320,320,87920,2,0,L|320:208,1,90.0000034332277,10|2,1:2|2:0,0:0:0:0:
256,232,88400,2,0,L|256:344,1,90.0000034332277,2|0,1:2|0:0,0:0:0:0:
320,320,88880,2,0,L|320:208,1,90.0000034332277,10|2,1:2|2:0,0:0:0:0:
256,232,89360,2,0,L|256:344,1,90.0000034332277,2|0,1:2|0:0,0:0:0:0:
320,320,89840,2,0,L|320:208,1,90.0000034332277,10|2,1:2|2:0,0:0:0:0:
256,232,90320,2,0,L|256:344,1,90.0000034332277,2|0,1:2|0:0,0:0:0:0:
320,320,90800,2,0,L|320:208,1,90.0000034332277,10|2,1:2|2:0,0:0:0:0:
256,232,91280,2,0,L|256:344,1,90.0000034332277,2|2,1:2|2:0,0:0:0:0:
320,320,91760,2,0,L|320:208,1,90.0000034332277,10|2,1:2|2:0,0:0:0:0:
320,168,92240,5,6,1:2:0:0:
320,104,92480,1,2,2:0:0:0:
256,104,92720,1,10,1:2:0:0:
192,104,92960,1,2,2:0:0:0:
128,104,93200,2,0,L|128:208,2,90.0000034332277,2|2|10,1:2|2:0|1:2,0:0:0:0:
256,104,94160,2,0,L|256:0,2,90.0000034332277,2|2|10,1:2|2:0|1:2,0:0:0:0:
384,104,95120,2,0,L|384:208,2,90.0000034332277,2|2|10,1:2|2:0|1:2,0:0:0:0:
440,360,96080,5,2,1:2:0:0:
376,360,96320,1,2,2:0:0:0:
312,360,96560,1,10,1:2:0:0:
248,360,96800,1,2,2:0:0:0:
184,360,97040,2,0,L|60:360,2,90.0000034332277,2|2|10,1:2|2:0|1:2,0:0:0:0:
248,240,98000,2,0,L|124:240,2,90.0000034332277,2|2|10,1:2|2:0|1:2,0:0:0:0:
360,172,98960,2,0,L|360:268,2,90.0000034332277,2|2|10,1:2|2:0|1:2,0:0:0:0:
480,104,99920,6,0,B|480:48|480:48|432:48,1,90.0000034332277,2|2,1:2|2:0,0:0:0:0:
384,48,100400,2,0,B|384:104|384:104|432:104,1,90.0000034332277,10|0,1:2|0:0,0:0:0:0:
480,104,100880,2,0,B|480:48|480:48|432:48,1,90.0000034332277,2|2,1:2|2:0,0:0:0:0:
384,48,101360,2,0,B|384:104|384:104|432:104,1,90.0000034332277,10|0,1:2|0:0,0:0:0:0:
480,104,101840,2,0,B|480:48|480:48|432:48,1,90.0000034332277,2|2,1:2|2:0,0:0:0:0:
384,48,102320,2,0,B|384:144,1,90.0000034332277,10|0,1:2|0:0,0:0:0:0:
384,200,102800,5,2,1:2:0:0:
320,200,103040,1,2,2:0:0:0:
256,200,103280,1,10,1:2:0:0:
192,200,103520,1,2,2:0:0:0:
128,200,103760,2,0,L|128:96,1,90.0000034332277,2|0,1:2|0:0,0:0:0:0:
128,48,104240,1,10,1:2:0:0:
192,48,104480,1,2,2:0:0:0:
256,48,104720,2,0,L|376:48,1,90.0000034332277,2|0,1:2|0:0,0:0:0:0:
344,112,105200,2,0,L|224:112,1,90.0000034332277,10|2,1:2|2:0,0:0:0:0:
256,176,105680,2,0,L|376:176,1,90.0000034332277,2|0,1:2|0:0,0:0:0:0:
352,240,106160,2,0,L|262:240,1,90.0000034332277,10|2,1:2|2:0,0:0:0:0:
200,240,106640,1,2,1:2:0:0:
200,304,106880,1,2,2:0:0:0:
264,304,107120,2,0,L|376:304,1,90.0000034332277,10|2,1:2|2:0,0:0:0:0:
424,304,107600,6,0,L|424:200,1,96,6|0,1:2|0:0,0:0:0:0:
424,144,108080,1,10,1:2:0:0:
424,80,108320,1,2,2:0:0:0:
360,80,108560,2,0,L|360:176,1,96,2|0,1:2|0:0,0:0:0:0:
296,184,109040,1,10,1:2:0:0:
296,248,109280,1,2,2:0:0:0:
232,248,109520,2,0,L|232:152,1,96,2|0,1:2|0:0,0:0:0:0:
168,152,110000,1,10,1:2:0:0:
168,88,110240,1,2,2:0:0:0:
104,88,110480,2,0,L|104:184,1,96,2|0,1:2|0:0,0:0:0:0:
104,248,110960,5,10,1:2:0:0:
168,248,111200,1,2,2:0:0:0:
232,248,111440,2,0,L|328:248,1,96,2|0,1:2|0:0,0:0:0:0:
328,312,111920,1,10,1:2:0:0:
264,312,112160,1,2,2:0:0:0:
200,312,112400,2,0,L|104:312,1,96,2|0,1:2|0:0,0:0:0:0:
104,248,112880,1,10,1:2:0:0:
168,248,113120,1,2,2:0:0:0:
232,248,113360,2,0,L|328:248,1,96,2|0,1:2|0:0,0:0:0:0:
328,312,113840,1,10,1:2:0:0:
264,312,114080,1,2,2:0:0:0:
200,312,114320,2,0,L|104:312,1,96,2|0,1:2|0:0,0:0:0:0:
40,312,114800,5,10,1:2:0:0:
40,248,115040,1,2,2:0:0:0:
40,184,115280,2,0,L|144:184,1,96,2|0,1:2|0:0,0:0:0:0:
200,184,115760,1,10,1:2:0:0:
200,120,116000,1,2,2:0:0:0:
200,56,116240,2,0,L|312:56,1,96,2|0,1:2|0:0,0:0:0:0:
360,56,116720,1,10,1:2:0:0:
360,120,116960,1,2,2:0:0:0:
424,120,117200,2,0,L|424:232,1,96,2|0,1:2|0:0,0:0:0:0:
424,280,117680,1,10,1:2:0:0:
360,280,117920,1,2,2:0:0:0:
296,280,118160,2,0,L|296:152,1,96,2|0,1:2|0:0,0:0:0:0:
288,120,118640,1,10,1:2:0:0:
224,120,118880,1,2,2:0:0:0:
160,120,119120,2,0,L|160:224,1,96,2|0,1:2|0:0,0:0:0:0:
160,280,119600,1,10,1:2:0:0:
224,280,119840,1,2,2:0:0:0:
288,280,120080,2,0,L|384:280,1,96,2|0,1:2|0:0,0:0:0:0:
448,280,120560,1,10,1:2:0:0:
448,216,120800,1,2,2:0:0:0:
448,152,121040,2,0,L|448:40,1,96,2|0,1:2|0:0,0:0:0:0:
384,48,121520,2,0,L|384:160,1,96,10|2,1:2|2:0,0:0:0:0:
320,144,122000,2,0,L|320:32,1,96,2|2,1:2|2:0,0:0:0:0:
256,48,122480,2,0,L|256:160,1,96,10|2,1:2|2:0,0:0:0:0:
256,208,122960,5,6,1:2:0:0:
256,272,123200,1,2,2:0:0:0:
192,272,123440,2,0,L|80:272,1,96,10|0,1:2|0:0,0:0:0:0:
96,208,123920,1,2,1:2:0:0:
96,144,124160,1,2,2:0:0:0:
160,144,124400,2,0,L|264:144,1,96,10|0,1:2|0:0,0:0:0:0:
256,208,124880,1,2,1:2:0:0:
256,272,125120,1,2,2:0:0:0:
192,272,125360,2,0,L|80:272,1,96,10|0,1:2|0:0,0:0:0:0:
96,208,125840,1,2,1:2:0:0:
96,144,126080,1,2,2:0:0:0:
160,144,126320,2,0,L|264:144,1,96,10|0,1:2|0:0,0:0:0:0:
256,208,126800,1,2,1:2:0:0:
256,272,127040,1,2,2:0:0:0:
192,272,127280,2,0,L|80:272,1,96,10|0,1:2|0:0,0:0:0:0:
96,208,127760,1,2,1:2:0:0:
96,144,128000,1,2,2:0:0:0:
160,144,128240,2,0,L|264:144,1,96,10|0,1:2|0:0,0:0:0:0:
256,208,128720,1,2,1:2:0:0:
256,272,128960,1,2,2:0:0:0:
192,272,129200,2,0,L|80:272,1,96,10|0,1:2|0:0,0:0:0:0:
96,208,129680,1,2,1:2:0:0:
96,144,129920,1,2,2:0:0:0:
160,144,130160,2,0,L|264:144,1,96,10|0,1:2|0:0,0:0:0:0:
256,208,130640,1,2,1:2:0:0:
256,272,130880,1,2,2:0:0:0:
192,272,131120,2,0,L|80:272,1,96,10|0,1:2|0:0,0:0:0:0:
96,208,131600,1,2,1:2:0:0:
96,144,131840,1,2,2:0:0:0:
160,144,132080,2,0,L|264:144,1,96,10|0,1:2|0:0,0:0:0:0:
256,208,132560,1,2,1:2:0:0:
256,272,132800,1,2,2:0:0:0:
192,272,133040,2,0,L|80:272,1,96,10|0,1:2|0:0,0:0:0:0:
96,208,133520,1,2,1:2:0:0:
96,144,133760,1,2,2:0:0:0:
160,144,134000,2,0,L|264:144,1,96,10|0,1:2|0:0,0:0:0:0:
256,208,134480,1,2,1:2:0:0:
256,272,134720,1,2,2:0:0:0:
192,272,134960,2,0,L|80:272,1,96,10|0,1:2|0:0,0:0:0:0:
96,208,135440,1,2,1:2:0:0:
96,144,135680,1,2,2:0:0:0:
160,144,135920,2,0,L|264:144,1,96,10|0,1:2|0:0,0:0:0:0:
256,208,136400,1,2,1:2:0:0:
256,272,136640,1,2,2:0:0:0:
192,272,136880,2,0,L|80:272,1,96,10|0,1:2|0:0,0:0:0:0:
96,208,137360,1,2,1:2:0:0:
96,144,137600,1,2,2:0:0:0:
160,144,137840,2,0,L|264:144,1,96,10|0,1:2|0:0,0:0:0:0:
312,144,138320,6,0,B|312:32|312:32|368:32,1,168,6|8,1:2|1:2,0:0:0:0:
440,32,142160,2,0,L|440:200,1,168,2|8,1:2|1:2,0:0:0:0:
440,272,146000,2,0,B|368:272|368:272|368:224|368:224|320:224,1,168,2|8,1:2|1:2,0:0:0:0:
248,224,149840,2,0,B|112:224|112:224|112:192,1,168,2|8,1:2|1:2,0:0:0:0:
32,192,153680,6,0,B|32:96|32:96|104:96,1,168,6|8,1:2|1:2,0:0:0:0:
176,96,157520,2,0,L|344:96,1,168,2|8,1:2|1:2,0:0:0:0:
344,176,161360,2,0,L|176:176,1,168,2|8,1:2|1:2,0:0:0:0:
176,256,165200,2,0,L|344:256,1,168,2|8,1:2|1:2,0:0:0:0:
424,256,169040,6,0,L|424:88,1,168,6|10,1:2|1:2,0:0:0:0:
344,88,172880,2,0,B|288:88|288:88|288:160|288:160|216:160|216:160|216:216,1,251.999992309571,2|10,1:2|1:2,0:0:0:0:
144,216,176720,2,0,B|88:216|88:216|88:144|88:144|88:64|88:64|224:64,1,336,2|10,1:2|1:2,0:0:0:0:
296,64,180560,2,0,B|296:264|296:264|456:264|456:264|456:200,1,420,2|8,1:2|1:2,0:0:0:0:
448,136,184400,6,0,L|364:136,1,84,6|0,2:0|0:0,0:0:0:0:
292,136,188240,2,0,L|208:136,1,84
136,136,192080,2,0,L|52:136,1,84
256,192,195920,12,0,209360,0:0:0:0:
