osu file format v14

[General]
AudioFilename: audio1.mp3
AudioLeadIn: 0
PreviewTime: 60080
Countdown: 0
SampleSet: Soft
StackLeniency: 0.2
Mode: 0
LetterboxInBreaks: 0
WidescreenStoryboard: 1

[Editor]
Bookmarks: 80,15440,23120,30800,38480,46160,60080,61520,68720,72560,76400,84560,92240,96080,99920,102800,106640,107600,110960,114800,122480,138320,153680,169040,184400,209360
DistanceSpacing: 0.7
BeatDivisor: 4
GridSize: 8
TimelineZoom: 1

[Metadata]
Title:Piyala
TitleUnicode:Пыяла
Artist:AIGEL
ArtistUnicode:АИГЕЛ
Creator:RoseYoshino
Version:Hard
Source:Слово пацана. Кровь на асфальте
Tags:Russian Tatar Electronic Pop TV Show Series The Boy's Word: Blood on the Asphalt Slovo patsana Krov' na asfal'te Celektus
BeatmapID:4564598
BeatmapSetID:2163702

[Difficulty]
HPDrainRate:5
CircleSize:6.5
OverallDifficulty:8
ApproachRate:8
SliderMultiplier:1.5
SliderTickRate:1

[Events]
//Background and Video events
0,0,"w1500_52136448.jpg",0,0
//Break Periods
//Storyboard Layer 0 (Background)
//Storyboard Layer 1 (Fail)
//Storyboard Layer 2 (Pass)
//Storyboard Layer 3 (Foreground)
//Storyboard Layer 4 (Overlay)
//Storyboard Sound Samples

[TimingPoints]
80,480,4,2,1,60,1,0
15440,-83.3333333333333,4,2,1,60,0,0
23120,-76.9230769230769,4,2,1,60,0,0
61520,-76.9230769230769,4,2,1,70,0,1
69120,-71.4285714285714,4,2,1,70,0,1
76400,-71.4285714285714,4,2,1,60,0,0
84560,-66.6666666666667,4,2,1,60,0,0
107600,-62.5,4,2,1,80,0,1
136400,-62.5,4,2,1,70,0,1
136880,-62.5,4,2,1,60,0,1
137360,-62.5,4,2,1,50,0,1
137840,-62.5,4,2,1,50,0,0
138320,-500,4,2,1,50,0,0
153680,-500,4,2,1,60,0,0
172880,-333.333333333333,4,2,1,60,0,0
176720,-250,4,2,1,60,0,0
180560,-200,4,2,1,60,0,0
184400,-1000,4,2,1,60,0,0
188000,-1000,4,2,1,5,0,0
188240,-1000,4,2,1,60,0,0
191840,-1000,4,2,1,5,0,0
192080,-1000,4,2,1,60,0,0
195680,-1000,4,2,1,5,0,0
195920,-1000,4,2,1,60,0,0
199760,-1000,4,2,1,5,0,0

[Colours]
Combo1 : 255,128,0
Combo2 : 255,0,0
Combo3 : 64,128,128

[HitObjects]
40,24,80,6,0,B|40:80|40:80|112:80,1,112.5,2|0,1:2|0:0,0:0:0:0:
96,24,560,1,8,1:2:0:0:
40,24,1040,2,0,B|40:80|40:80|112:80,1,112.5,0|0,1:2|0:0,0:0:0:0:
96,24,1520,1,8,1:2:0:0:
40,24,2000,2,0,B|40:80|40:80|112:80,1,112.5,0|0,1:2|0:0,0:0:0:0:
96,24,2480,1,8,1:2:0:0:
40,24,2840,1,0,3:2:0:0:
40,24,2960,2,0,B|40:80|40:80|112:80,1,112.5,0|0,1:2|0:0,0:0:0:0:
96,24,3440,1,8,1:2:0:0:
200,40,3920,6,0,B|256:24|256:24|328:40,1,112.5,2|0,1:2|0:0,0:0:0:0:
256,80,4400,1,8,1:2:0:0:
200,40,4880,2,0,B|256:24|256:24|328:40,1,112.5,0|0,1:2|0:0,0:0:0:0:
256,80,5360,1,8,1:2:0:0:
200,40,5840,2,0,B|256:24|256:24|328:40,1,112.5,0|0,1:2|0:0,0:0:0:0:
256,80,6320,1,8,1:2:0:0:
200,40,6680,1,0,3:2:0:0:
200,40,6800,2,0,B|256:24|256:24|328:40,1,112.5,0|0,1:2|0:0,0:0:0:0:
256,80,7280,1,8,1:2:0:0:
352,112,7760,6,0,L|352:224,1,112.5,2|0,1:2|0:0,0:0:0:0:
296,192,8240,1,8,1:2:0:0:
352,112,8720,2,0,L|352:224,1,112.5,0|0,1:2|0:0,0:0:0:0:
296,192,9200,1,8,1:2:0:0:
352,112,9680,2,0,L|352:224,1,112.5,0|0,1:2|0:0,0:0:0:0:
296,192,10160,1,8,1:2:0:0:
352,112,10520,1,0,3:2:0:0:
352,112,10640,2,0,L|352:224,1,112.5,0|0,1:2|0:0,0:0:0:0:
296,192,11120,1,8,1:2:0:0:
216,264,11600,6,0,B|216:216|216:216|136:216,1,112.5,2|0,1:2|0:0,0:0:0:0:
160,272,12080,1,8,1:2:0:0:
216,264,12560,2,0,B|216:216|216:216|136:216,1,112.5,0|0,1:2|0:0,0:0:0:0:
160,272,13040,1,8,1:2:0:0:
216,264,13520,2,0,B|216:216|216:216|136:216,1,112.5,0|0,1:2|0:0,0:0:0:0:
160,272,14000,1,8,1:2:0:0:
216,264,14360,1,0,3:2:0:0:
216,264,14480,2,0,B|216:216|216:216|136:216,1,112.5,0|0,1:2|0:0,0:0:0:0:
160,272,14960,1,8,1:2:0:0:
304,326,15440,5,6,1:2:0:0:
304,232,15680,1,2,2:0:0:0:
392,232,15920,1,10,1:2:0:0:
392,328,16160,1,2,2:0:0:0:
304,326,16400,1,2,1:2:0:0:
304,232,16640,1,2,2:0:0:0:
392,232,16880,1,10,1:2:0:0:
392,232,17360,5,2,1:2:0:0:
304,232,17600,1,2,2:0:0:0:
304,326,17840,1,10,1:2:0:0:
304,232,18320,1,2,1:2:0:0:
304,326,18560,1,2,2:0:0:0:
392,328,18800,1,10,1:2:0:0:
264,280,19280,5,2,1:2:0:0:
264,186,19520,1,2,2:0:0:0:
352,186,19760,1,10,1:2:0:0:
352,282,20000,1,2,2:0:0:0:
264,280,20240,1,2,1:2:0:0:
264,186,20480,1,2,2:0:0:0:
352,186,20720,1,10,1:2:0:0:
352,186,21200,5,2,1:2:0:0:
264,186,21440,1,2,2:0:0:0:
264,280,21680,1,10,1:2:0:0:
264,186,22160,1,2,1:2:0:0:
264,280,22400,1,2,2:0:0:0:
352,282,22640,1,10,1:2:0:0:
384,120,23120,5,2,1:2:0:0:
448,120,23360,1,2,2:0:0:0:
448,64,23600,2,0,B|400:48|400:48|352:64,1,97.4999955368044,10|0,1:2|0:0,0:0:0:0:
384,120,24080,1,2,1:2:0:0:
448,120,24320,1,2,2:0:0:0:
448,64,24560,2,0,B|400:48|400:48|352:64,1,97.4999955368044,10|0,1:2|0:0,0:0:0:0:
448,120,25040,1,2,1:2:0:0:
384,120,25280,1,2,2:0:0:0:
448,64,25520,2,0,B|400:48|400:48|352:64,1,97.4999955368044,10|0,1:2|0:0,0:0:0:0:
304,104,26000,6,0,B|256:120|256:120|200:104,1,97.4999955368044,2|2,1:2|2:0,0:0:0:0:
160,64,26480,2,0,B|144:112|144:112|160:160,1,97.4999955368044,10|2,1:2|2:0,0:0:0:0:
88,160,26960,2,0,B|88:200|88:200|112:232|112:232|112:280,1,97.4999955368044,2|0,1:2|0:0,0:0:0:0:
56,288,27440,5,10,1:2:0:0:
56,360,27680,1,2,2:0:0:0:
128,360,27920,2,0,B|176:360|176:360|176:304,1,97.4999955368044,2|0,1:2|0:0,0:0:0:0:
56,288,28400,1,10,1:2:0:0:
56,360,28640,1,2,2:0:0:0:
128,360,28880,2,0,B|176:360|176:360|176:304,1,97.4999955368044,2|0,1:2|0:0,0:0:0:0:
56,288,29360,1,10,1:2:0:0:
56,360,29600,1,2,2:0:0:0:
56,288,29840,1,2,1:2:0:0:
56,360,30080,1,2,2:0:0:0:
128,360,30320,2,0,B|176:360|176:360|176:304,1,97.4999955368044,10|2,1:2|2:0,0:0:0:0:
240,344,30800,6,0,L|240:224,1,97.4999955368044,6|2,1:2|2:0,0:0:0:0:
176,240,31280,1,10,1:2:0:0:
104,240,31520,1,2,2:0:0:0:
104,168,31760,1,2,1:2:0:0:
176,168,32000,1,2,2:0:0:0:
104,104,32240,2,0,B|152:88|152:88|200:104,1,97.4999955368044,10|0,1:2|0:0,0:0:0:0:
104,168,32720,1,2,1:2:0:0:
176,168,32960,1,2,2:0:0:0:
104,104,33200,2,0,B|152:88|152:88|200:104,1,97.4999955368044,10|0,1:2|0:0,0:0:0:0:
176,168,33680,1,2,1:2:0:0:
104,168,33920,1,2,2:0:0:0:
104,104,34160,2,0,B|152:88|152:88|200:104,1,97.4999955368044,10|0,1:2|0:0,0:0:0:0:
248,136,34640,5,2,1:2:0:0:
248,208,34880,1,2,2:0:0:0:
320,208,35120,1,10,1:2:0:0:
320,136,35360,1,2,2:0:0:0:
248,136,35600,1,2,1:2:0:0:
248,208,35840,1,2,2:0:0:0:
248,280,36080,2,0,B|352:280,1,97.4999955368044,10|0,1:2|0:0,0:0:0:0:
416,280,36560,1,2,1:2:0:0:
416,208,36800,1,2,2:0:0:0:
472,248,37040,2,0,B|480:200|480:200|472:152,1,97.4999955368044,10|0,1:2|0:0,0:0:0:0:
416,280,37520,1,2,1:2:0:0:
416,208,37760,1,2,2:0:0:0:
472,248,38000,2,0,B|480:200|480:200|472:152,1,97.4999955368044,10|0,1:2|0:0,0:0:0:0:
488,88,38480,5,2,1:2:0:0:
416,88,38720,1,2,2:0:0:0:
368,40,38960,2,0,B|352:88|352:88|368:144,1,97.4999955368044,10|0,1:2|0:0,0:0:0:0:
488,88,39440,1,2,1:2:0:0:
416,88,39680,1,2,2:0:0:0:
368,40,39920,2,0,B|352:88|352:88|368:144,1,97.4999955368044,10|0,1:2|0:0,0:0:0:0:
488,88,40400,1,2,1:2:0:0:
416,88,40640,1,2,2:0:0:0:
368,40,40880,2,0,B|352:88|352:88|368:144,1,97.4999955368044,10|0,1:2|0:0,0:0:0:0:
488,88,41360,1,2,1:2:0:0:
416,88,41600,1,2,2:0:0:0:
416,160,41840,1,10,1:2:0:0:
416,88,42080,1,2,2:0:0:0:
472,128,42320,2,0,B|488:176|488:176|472:224,1,97.4999955368044,2|0,1:2|0:0,0:0:0:0:
480,288,42800,5,10,1:2:0:0:
480,360,43040,1,2,2:0:0:0:
408,360,43280,2,0,B|352:360|352:360|304:360,1,97.4999955368044,2|0,1:2|0:0,0:0:0:0:
480,288,43760,1,10,1:2:0:0:
480,360,44000,1,2,2:0:0:0:
408,360,44240,2,0,B|352:360|352:360|304:360,1,97.4999955368044,2|0,1:2|0:0,0:0:0:0:
480,288,44720,1,10,1:2:0:0:
480,360,44960,1,2,2:0:0:0:
480,288,45200,1,2,1:2:0:0:
408,288,45440,1,2,2:0:0:0:
408,360,45680,1,10,1:2:0:0:
480,360,45920,1,2,2:0:0:0:
408,288,46160,6,0,B|376:256|376:256|376:144,1,146.249993305207,6|0,1:2|0:0,0:0:0:0:
432,192,46640,1,8,1:2:0:0:
408,288,47120,2,0,B|376:256|376:256|376:144,1,146.249993305207,0|0,1:2|0:0,0:0:0:0:
432,192,47600,1,8,1:2:0:0:
408,288,48080,2,0,B|376:256|376:256|376:144,1,146.249993305207,0|0,1:2|0:0,0:0:0:0:
432,192,48560,1,8,1:2:0:0:
408,288,48920,1,0,3:2:0:0:
408,288,49040,2,0,B|376:256|376:256|376:144,1,146.249993305207,0|0,1:2|0:0,0:0:0:0:
432,192,49520,1,8,1:2:0:0:
320,112,50000,6,0,B|248:128|248:128|176:112,1,146.249993305207,2|0,1:2|0:0,0:0:0:0:
208,176,50480,1,8,1:2:0:0:
320,112,50960,2,0,B|248:128|248:128|176:112,1,146.249993305207,0|0,1:2|0:0,0:0:0:0:
208,176,51440,1,8,1:2:0:0:
320,112,51920,2,0,B|248:128|248:128|176:112,1,146.249993305207,0|0,1:2|0:0,0:0:0:0:
208,176,52400,1,8,1:2:0:0:
320,112,52760,1,0,3:2:0:0:
320,112,52880,2,0,B|248:128|248:128|176:112,1,146.249993305207,0|0,1:2|0:0,0:0:0:0:
208,176,53360,1,8,1:2:0:0:
72,176,53840,6,0,L|72:328,1,146.249993305207,2|0,1:2|0:0,0:0:0:0:
128,280,54320,1,8,1:2:0:0:
72,176,54800,2,0,L|72:328,1,146.249993305207,0|0,1:2|0:0,0:0:0:0:
128,280,55280,1,8,1:2:0:0:
72,176,55760,2,0,L|72:328,1,146.249993305207,0|0,1:2|0:0,0:0:0:0:
128,280,56240,1,8,1:2:0:0:
72,176,56600,1,0,3:2:0:0:
72,176,56720,2,0,L|72:328,1,146.249993305207,0|0,1:2|0:0,0:0:0:0:
128,280,57200,1,8,1:2:0:0:
192,328,57680,6,0,B|240:328|240:328|240:264|240:264|288:264,1,146.249993305207,2|0,1:2|0:0,0:0:0:0:
296,312,58160,1,8,1:2:0:0:
192,328,58640,2,0,B|240:328|240:328|240:264|240:264|288:264,1,146.249993305207,0|0,1:2|0:0,0:0:0:0:
296,312,59120,1,8,1:2:0:0:
192,328,59600,2,0,B|240:328|240:328|240:264|240:264,1,97.4999955368044,0|0,1:2|0:0,0:0:0:0:
296,312,60080,5,10,1:2:0:0:
296,240,60320,1,2,2:0:0:0:
240,262,60560,2,0,L|240:136,1,97.4999955368044,2|0,1:2|0:0,0:0:0:0:
296,312,61040,1,10,1:2:0:0:
296,240,61280,1,2,2:0:0:0:
240,262,61520,2,0,L|240:136,1,97.4999955368044,6|0,1:2|0:0,0:0:0:0:
296,312,62000,1,10,1:2:0:0:
296,240,62240,1,2,2:0:0:0:
240,262,62480,2,0,L|240:136,1,97.4999955368044,2|0,1:2|0:0,0:0:0:0:
296,312,62960,1,10,1:2:0:0:
296,240,63200,1,2,2:0:0:0:
240,262,63440,2,0,L|240:136,1,97.4999955368044,2|0,1:2|0:0,0:0:0:0:
296,240,63920,1,10,1:2:0:0:
296,312,64160,1,2,2:0:0:0:
240,262,64400,2,0,L|240:136,1,97.4999955368044,2|0,1:2|0:0,0:0:0:0:
176,192,64880,5,10,1:2:0:0:
104,192,65120,1,2,2:0:0:0:
144,136,65360,2,0,B|96:136|96:136|96:72,1,97.4999955368044,2|0,1:2|0:0,0:0:0:0:
176,192,65840,1,10,1:2:0:0:
104,192,66080,1,2,2:0:0:0:
144,136,66320,2,0,B|96:136|96:136|96:72,1,97.4999955368044,2|0,1:2|0:0,0:0:0:0:
176,192,66800,1,10,1:2:0:0:
104,192,67040,1,2,2:0:0:0:
144,136,67280,2,0,B|96:136|96:136|96:72,1,97.4999955368044,2|0,1:2|0:0,0:0:0:0:
104,192,67760,1,10,1:2:0:0:
176,192,68000,1,2,2:0:0:0:
144,136,68240,2,0,B|96:136|96:136|96:72,1,97.4999955368044,2|0,1:2|0:0,0:0:0:0:
40,40,68720,5,10,1:2:0:0:
112,40,68960,1,2,2:0:0:0:
184,40,69200,2,0,L|296:40,1,104.999996795654,2|0,1:2|0:0,0:0:0:0:
40,40,69680,1,10,1:2:0:0:
112,40,69920,1,2,2:0:0:0:
184,40,70160,2,0,L|296:40,1,104.999996795654,2|0,1:2|0:0,0:0:0:0:
40,40,70640,1,10,1:2:0:0:
112,40,70880,1,2,2:0:0:0:
184,40,71120,2,0,L|296:40,1,104.999996795654,2|0,1:2|0:0,0:0:0:0:
40,40,71600,1,10,1:2:0:0:
112,40,71840,1,2,2:0:0:0:
184,40,72080,2,0,L|296:40,1,104.999996795654,2|0,1:2|0:0,0:0:0:0:
296,112,72560,6,0,B|352:120|352:120|408:112,1,104.999996795654,10|2,1:2|2:0,0:0:0:0:
464,80,73040,1,2,1:2:0:0:
464,152,73280,1,2,2:0:0:0:
392,176,73520,2,0,B|392:232|392:232|392:280,1,104.999996795654,10|0,1:2|0:0,0:0:0:0:
464,80,74000,1,2,1:2:0:0:
464,152,74240,1,2,2:0:0:0:
392,176,74480,2,0,B|392:232|392:232|392:280,1,104.999996795654,10|0,1:2|0:0,0:0:0:0:
464,80,74960,1,2,1:2:0:0:
464,152,75200,1,2,2:0:0:0:
392,176,75440,2,0,B|392:232|392:232|392:280,1,104.999996795654,10|0,1:2|0:0,0:0:0:0:
464,80,75920,1,2,1:2:0:0:
464,152,76160,1,2,2:0:0:0:
464,224,76400,6,0,B|464:280|464:280|408:280,1,104.999996795654,10|2,1:2|2:0,0:0:0:0:
464,224,76880,2,0,B|464:280|464:280|408:280,1,104.999996795654,6|2,1:2|2:0,0:0:0:0:
464,224,77360,2,0,B|464:280|464:280|408:280,1,104.999996795654,10|2,1:2|2:0,0:0:0:0:
352,240,77840,1,2,1:2:0:0:
320,304,78080,1,2,2:0:0:0:
280,240,78320,1,10,1:2:0:0:
280,240,78800,1,2,1:2:0:0:
320,304,79040,1,2,2:0:0:0:
352,240,79280,1,10,1:2:0:0:
352,240,79760,1,2,1:2:0:0:
320,304,80000,1,2,2:0:0:0:
280,240,80240,1,10,1:2:0:0:
136,248,80720,5,2,1:2:0:0:
48,248,80960,1,2,2:0:0:0:
48,336,81200,1,10,1:2:0:0:
136,336,81440,1,2,2:0:0:0:
136,248,81680,1,2,1:2:0:0:
48,248,81920,1,2,2:0:0:0:
48,336,82160,1,10,1:2:0:0:
48,336,82640,5,2,1:2:0:0:
48,248,82880,1,2,2:0:0:0:
136,248,83120,1,10,1:2:0:0:
48,248,83600,1,2,1:2:0:0:
136,248,83840,1,2,2:0:0:0:
136,336,84080,1,10,1:2:0:0:
296,336,84560,5,2,1:2:0:0:
376,336,84800,1,2,2:0:0:0:
448,312,85040,2,0,B|448:200,1,112.500004291535,10|0,1:2|0:0,0:0:0:0:
400,176,85520,2,0,B|400:288,1,112.500004291535,2|2,1:2|2:0,0:0:0:0:
448,312,86000,2,0,B|448:200,1,112.500004291535,10|0,1:2|0:0,0:0:0:0:
400,176,86480,2,0,B|400:288,1,112.500004291535,2|2,1:2|2:0,0:0:0:0:
448,312,86960,2,0,B|448:200,1,112.500004291535,10|0,1:2|0:0,0:0:0:0:
400,176,87440,2,0,B|400:288,1,112.500004291535,2|2,1:2|2:0,0:0:0:0:
448,312,87920,2,0,B|448:200,1,112.500004291535,10|2,1:2|2:0,0:0:0:0:
400,176,88400,2,0,B|400:288,1,112.500004291535,2|0,1:2|0:0,0:0:0:0:
448,312,88880,2,0,B|448:200,1,112.500004291535,10|2,1:2|2:0,0:0:0:0:
400,176,89360,2,0,B|400:288,1,112.500004291535,2|0,1:2|0:0,0:0:0:0:
448,312,89840,2,0,B|448:200,1,112.500004291535,10|2,1:2|2:0,0:0:0:0:
400,176,90320,2,0,B|400:288,1,112.500004291535,2|0,1:2|0:0,0:0:0:0:
448,312,90800,2,0,B|448:200,1,112.500004291535,10|2,1:2|2:0,0:0:0:0:
400,176,91280,2,0,B|400:288,1,112.500004291535,2|2,1:2|2:0,0:0:0:0:
448,312,91760,2,0,B|448:200,1,112.500004291535,10|2,1:2|2:0,0:0:0:0:
456,120,92240,5,6,1:2:0:0:
456,40,92480,1,2,2:0:0:0:
376,40,92720,1,10,1:2:0:0:
376,120,92960,1,2,2:0:0:0:
376,120,93080,1,0,0:0:0:0:
376,120,93200,1,2,1:2:0:0:
296,120,93440,1,2,2:0:0:0:
232,80,93680,2,0,B|232:40|232:40|116:39,1,112.500004291535,10|0,1:2|0:0,0:0:0:0:
296,120,94160,1,2,1:2:0:0:
296,40,94400,1,2,2:0:0:0:
232,80,94640,2,0,B|232:40|232:40|116:39,1,112.500004291535,10|0,1:2|0:0,0:0:0:0:
296,120,95120,1,2,1:2:0:0:
296,40,95360,1,2,2:0:0:0:
232,80,95600,2,0,B|232:40|232:40|116:39,1,112.500004291535,10|0,1:2|0:0,0:0:0:0:
80,40,96080,5,2,1:2:0:0:
80,120,96320,1,2,2:0:0:0:
160,120,96560,1,10,1:2:0:0:
160,200,96800,1,2,2:0:0:0:
80,200,97040,1,2,1:2:0:0:
160,200,97280,1,2,2:0:0:0:
216,144,97520,2,0,B|272:160|272:160|336:144,1,112.500004291535,10|0,1:2|0:0,0:0:0:0:
392,104,98000,1,2,1:2:0:0:
392,24,98240,1,2,2:0:0:0:
472,24,98480,2,0,L|472:144,1,112.500004291535,10|0,1:2|0:0,0:0:0:0:
392,184,98960,1,2,1:2:0:0:
392,264,99200,1,2,2:0:0:0:
320,184,99440,2,0,L|320:304,1,112.500004291535,10|0,1:2|0:0,0:0:0:0:
256,336,99920,6,0,B|200:352|200:352|144:336,1,112.500004291535,2|2,1:2|2:0,0:0:0:0:
148,337,100400,2,0,B|200:352|200:352|256:336,1,112.500004291535,10|0,1:2|0:0,0:0:0:0:
256,336,100880,2,0,B|200:352|200:352|144:336,1,112.500004291535,2|2,1:2|2:0,0:0:0:0:
148,337,101360,2,0,B|200:352|200:352|256:336,1,112.500004291535,10|0,1:2|0:0,0:0:0:0:
256,336,101840,2,0,B|200:352|200:352|144:336,1,112.500004291535,2|2,1:2|2:0,0:0:0:0:
148,337,102320,2,0,B|200:352|200:352|256:336,1,112.500004291535,10|0,1:2|0:0,0:0:0:0:
56,344,102800,5,2,1:2:0:0:
56,280,103040,1,2,2:0:0:0:
128,280,103280,1,10,1:2:0:0:
128,208,103520,1,2,2:0:0:0:
192,208,103760,2,0,L|192:72,1,112.500004291535,2|0,1:2|0:0,0:0:0:0:
112,96,104240,1,10,1:2:0:0:
32,96,104480,1,2,2:0:0:0:
80,160,104720,2,0,B|24:160|24:160|24:232,1,112.500004291535,2|0,1:2|0:0,0:0:0:0:
24,216,105200,2,0,B|24:159|24:159|80:159,1,112.500004291535,10|2,1:2|2:0,0:0:0:0:
80,159,105680,2,0,B|24:159|24:159|24:231,1,112.500004291535,2|0,1:2|0:0,0:0:0:0:
24,215,106160,2,0,B|24:158|24:158|80:158,1,112.500004291535,10|2,1:2|2:0,0:0:0:0:
160,160,106640,5,2,1:2:0:0:
232,128,106880,1,2,2:0:0:0:
304,160,107120,1,10,1:2:0:0:
232,200,107360,1,2,2:0:0:0:
304,248,107600,6,0,B|304:304|304:304|304:368,1,120,6|0,1:2|0:0,0:0:0:0:
216,368,108080,1,10,1:2:0:0:
216,288,108320,1,2,2:0:0:0:
152,344,108560,2,0,B|96:328|96:328|32:344,1,120,2|0,1:2|0:0,0:0:0:0:
216,368,109040,1,10,1:2:0:0:
216,288,109280,1,2,2:0:0:0:
152,344,109520,2,0,B|96:328|96:328|32:344,1,120,2|0,1:2|0:0,0:0:0:0:
216,288,110000,1,10,1:2:0:0:
216,368,110240,1,2,2:0:0:0:
152,344,110480,2,0,B|96:328|96:328|32:344,1,120,2|0,1:2|0:0,0:0:0:0:
56,264,110960,5,10,1:2:0:0:
136,264,111200,1,2,2:0:0:0:
88,200,111440,2,0,B|48:160|48:160|48:88,1,120,2|0,1:2|0:0,0:0:0:0:
56,264,111920,1,10,1:2:0:0:
136,264,112160,1,2,2:0:0:0:
88,200,112400,2,0,B|48:160|48:160|48:88,1,120,2|0,1:2|0:0,0:0:0:0:
56,264,112880,1,10,1:2:0:0:
136,264,113120,1,2,2:0:0:0:
88,200,113360,2,0,B|48:160|48:160|48:88,1,120,2|0,1:2|0:0,0:0:0:0:
136,264,113840,1,10,1:2:0:0:
56,264,114080,1,2,2:0:0:0:
88,200,114320,2,0,B|48:160|48:160|48:88,1,120,2|0,1:2|0:0,0:0:0:0:
128,112,114800,5,10,1:2:0:0:
128,32,115040,1,2,2:0:0:0:
208,32,115280,2,0,B|240:88|240:88|240:144,1,120,2|0,1:2|0:0,0:0:0:0:
128,112,115760,1,10,1:2:0:0:
128,32,116000,1,2,2:0:0:0:
208,32,116240,2,0,B|240:88|240:88|240:144,1,120,2|0,1:2|0:0,0:0:0:0:
128,112,116720,1,10,1:2:0:0:
128,32,116960,1,2,2:0:0:0:
208,32,117200,2,0,B|240:88|240:88|240:144,1,120,2|0,1:2|0:0,0:0:0:0:
128,32,117680,1,10,1:2:0:0:
128,112,117920,1,2,2:0:0:0:
208,32,118160,2,0,B|240:88|240:88|240:144,1,120,2|0,1:2|0:0,0:0:0:0:
128,112,118640,1,10,1:2:0:0:
128,32,118880,1,2,2:0:0:0:
208,32,119120,2,0,B|240:88|240:88|240:144,1,120,2|0,1:2|0:0,0:0:0:0:
128,112,119600,1,10,1:2:0:0:
128,32,119840,1,2,2:0:0:0:
208,32,120080,2,0,B|240:88|240:88|240:144,1,120,2|0,1:2|0:0,0:0:0:0:
128,112,120560,1,10,1:2:0:0:
128,32,120800,1,2,2:0:0:0:
208,32,121040,2,0,B|240:88|240:88|240:144,1,120,2|0,1:2|0:0,0:0:0:0:
240,144,121520,2,0,B|240:88|240:88|208:32,1,120,10|2,1:2|2:0,0:0:0:0:
208,32,122000,2,0,B|240:88|240:88|240:144,1,120,2|2,1:2|2:0,0:0:0:0:
216,224,122480,6,0,B|280:240|280:240|336:224,1,120,10|2,1:2|2:0,0:0:0:0:
416,224,122960,1,6,1:2:0:0:
331,225,123200,1,2,2:0:0:0:
288,304,123440,2,0,B|352:320|352:320|408:304,1,120,10|0,1:2|0:0,0:0:0:0:
416,224,123920,1,2,1:2:0:0:
331,225,124160,1,2,2:0:0:0:
288,304,124400,2,0,B|352:320|352:320|408:304,1,120,10|0,1:2|0:0,0:0:0:0:
416,224,124880,1,2,1:2:0:0:
331,225,125120,1,2,2:0:0:0:
288,304,125360,2,0,B|352:320|352:320|408:304,1,120,10|0,1:2|0:0,0:0:0:0:
331,225,125840,1,2,1:2:0:0:
416,224,126080,1,2,2:0:0:0:
288,304,126320,2,0,B|352:320|352:320|408:304,1,120,10|0,1:2|0:0,0:0:0:0:
416,224,126800,1,2,1:2:0:0:
331,225,127040,1,2,2:0:0:0:
288,304,127280,2,0,B|352:320|352:320|408:304,1,120,10|0,1:2|0:0,0:0:0:0:
472,360,127760,1,2,1:2:0:0:
472,272,128000,1,2,2:0:0:0:
392,272,128240,2,0,L|392:144,1,120,10|0,1:2|0:0,0:0:0:0:
472,360,128720,1,2,1:2:0:0:
472,272,128960,1,2,2:0:0:0:
392,272,129200,2,0,L|392:144,1,120,10|0,1:2|0:0,0:0:0:0:
472,360,129680,1,2,1:2:0:0:
472,272,129920,1,2,2:0:0:0:
392,272,130160,2,0,L|392:144,1,120,10|0,1:2|0:0,0:0:0:0:
472,360,130640,1,2,1:2:0:0:
472,272,130880,1,2,2:0:0:0:
392,272,131120,2,0,L|392:144,1,120,10|0,1:2|0:0,0:0:0:0:
472,360,131600,1,2,1:2:0:0:
472,272,131840,1,2,2:0:0:0:
392,272,132080,2,0,L|392:144,1,120,10|0,1:2|0:0,0:0:0:0:
448,72,132560,1,2,1:2:0:0:
368,72,132800,1,2,2:0:0:0:
288,72,133040,2,0,B|232:120|232:120|232:176,1,120,10|0,1:2|0:0,0:0:0:0:
448,72,133520,1,2,1:2:0:0:
368,72,133760,1,2,2:0:0:0:
288,72,134000,2,0,B|232:120|232:120|232:176,1,120,10|0,1:2|0:0,0:0:0:0:
448,72,134480,1,2,1:2:0:0:
368,72,134720,1,2,2:0:0:0:
288,72,134960,2,0,B|232:120|232:120|232:176,1,120,10|0,1:2|0:0,0:0:0:0:
448,72,135440,1,2,1:2:0:0:
368,72,135680,1,2,2:0:0:0:
288,72,135920,2,0,B|232:120|232:120|232:176,1,120,10|0,1:2|0:0,0:0:0:0:
448,72,136400,1,2,1:2:0:0:
368,72,136640,1,2,2:0:0:0:
288,72,136880,2,0,B|232:120|232:120|232:176,1,120,10|0,1:2|0:0,0:0:0:0:
448,72,137360,1,2,1:2:0:0:
368,72,137600,1,2,2:0:0:0:
288,72,137840,2,0,B|232:120|232:120|232:176,1,120,10|0,1:2|0:0,0:0:0:0:
192,48,138320,6,0,B|88:48|88:48|88:160,1,210,6|8,1:2|1:2,0:0:0:0:
107,224,142160,2,0,B|56:224|56:224|56:296|56:296|144:296|144:296,1,210,2|8,1:2|1:2,0:0:0:0:
216,344,146000,2,0,B|328:344|328:344|392:264,1,210,2|8,1:2|1:2,0:0:0:0:
336,240,149840,2,0,B|304:240|304:240|304:192|304:192|336:192|336:192|336:152|336:152|368:152|368:152|368:120|368:120,1,210,2|8,1:2|1:2,0:0:0:0:
328,80,153680,6,0,B|112:80|112:80,1,210,6|8,1:2|1:2,0:0:0:0:
24,168,157520,2,0,B|240:168|240:168,1,210,2|8,1:2|1:2,0:0:0:0:
376,112,161360,2,0,B|376:224|376:224|336:224|336:224|336:288|336:288,1,210,2|8,1:2|1:2,0:0:0:0:
368,336,165200,2,0,B|256:336|256:336|160:304,1,210,2|8,1:2|1:2,0:0:0:0:
64,296,169040,6,0,B|64:216|64:216|144:216|144:216|144:160,1,210,6|10,1:2|1:2,0:0:0:0:
80,152,172880,2,0,B|24:152|24:152|24:64|24:64|152:64|152:64|152:112,1,314.999990386963,2|10,1:2|1:2,0:0:0:0:
216,160,176720,2,0,B|256:96|256:96|216:32|216:32|328:32|328:32|328:152|328:152|368:152,1,420,2|10,1:2|1:2,0:0:0:0:
432,232,180560,2,0,B|432:72|432:72|288:72|288:72|288:224|288:224|208:224,1,525,2|8,1:2|1:2,0:0:0:0:
64,56,184400,6,0,L|64:168,1,112.5,6|0,2:0|0:0,0:0:0:0:
120,224,188240,2,0,L|120:112,1,112.5
176,56,192080,2,0,L|176:168,1,112.5
256,192,195920,12,0,209360,0:0:0:0:
