osu file format v14

[General]
AudioFilename: audio1.mp3
AudioLeadIn: 0
PreviewTime: 60080
Countdown: 0
SampleSet: Soft
StackLeniency: 0.6
Mode: 0
LetterboxInBreaks: 0
WidescreenStoryboard: 1

[Editor]
Bookmarks: 209360
DistanceSpacing: 1.1
BeatDivisor: 4
GridSize: 8
TimelineZoom: 1

[Metadata]
Title:Piyala
TitleUnicode:Пыяла
Artist:AIGEL
ArtistUnicode:АИГЕЛ
Creator:RoseYoshino
Version:Easy
Source:Слово пацана. Кровь на асфальте
Tags:Russian Tatar Electronic Pop TV Show Series The Boy's Word: Blood on the Asphalt Slovo patsana Krov' na asfal'te Celektus
BeatmapID:4564534
BeatmapSetID:2163702

[Difficulty]
HPDrainRate:2
CircleSize:4
OverallDifficulty:2
ApproachRate:2
SliderMultiplier:1.2
SliderTickRate:1

[Events]
//Background and Video events
0,0,"w1500_52136448.jpg",0,0
//Break Periods
//Storyboard Layer 0 (Background)
//Storyboard Layer 1 (Fail)
//Storyboard Layer 2 (Pass)
//Storyboard Layer 3 (Foreground)
//Storyboard Layer 4 (Overlay)
//Storyboard Sound Samples

[TimingPoints]
80,480,4,2,1,60,1,0
15440,-133.333333333333,4,2,1,60,0,0
23120,-100,4,2,1,60,0,0
61520,-100,4,2,1,70,0,1
69200,-100,4,2,1,70,0,1
76400,-100,4,2,1,60,0,0
84560,-100,4,2,1,60,0,0
107600,-100,4,2,1,80,0,1
136400,-100,4,2,1,70,0,1
136880,-100,4,2,1,60,0,1
137360,-100,4,2,1,50,0,1
137840,-100,4,2,1,50,0,0
138320,-500,4,2,1,50,0,0
153680,-500,4,2,1,60,0,0
172880,-500,4,2,1,60,0,0
176720,-500,4,2,1,60,0,0
180560,-500,4,2,1,60,0,0
184400,-500,4,2,1,60,0,0
187760,-500,4,2,1,5,0,0
188240,-500,4,2,1,60,0,0
191600,-500,4,2,1,5,0,0
192080,-500,4,2,1,60,0,0
195440,-500,4,2,1,5,0,0
195920,-500,4,2,1,60,0,0
199760,-500,4,2,1,5,0,0

[Colours]
Combo1 : 255,128,0
Combo2 : 255,0,0
Combo3 : 64,128,128

[HitObjects]
268,78,15440,6,0,P|221:39|130:176,1,270.000010299683,6|10,1:2|1:2,0:0:0:0:
208,186,17360,1,2,1:2:0:0:
290,149,17840,1,10,1:2:0:0:
336,225,18320,1,2,1:2:0:0:
411,175,18800,1,10,1:2:0:0:
408,264,19280,6,0,B|387:302|344:321|301:312|272:286|272:286|238:250|201:226|170:246,1,270.000010299683,2|10,1:2|1:2,0:0:0:0:
121,312,21200,1,2,1:2:0:0:
61,244,21680,1,10,1:2:0:0:
126,182,22160,1,2,1:2:0:0:
37,163,22640,1,10,1:2:0:0:
100,104,23120,6,0,P|106:62|195:44,1,120,2|10,1:2|1:2,0:0:0:0:
246,110,24080,1,2,1:2:0:0:
353,113,24560,1,10,1:2:0:0:
439,48,25040,2,0,P|494:85|482:147,1,120,2|10,1:2|1:2,0:0:0:0:
403,195,26000,2,0,B|355:206|328:258|349:309|388:327|388:327|435:320|469:282,1,240,2|2,1:2|1:2,0:0:0:0:
497,190,27440,6,0,P|459:126|403:106,1,120,10|2,1:2|1:2,0:0:0:0:
321,153,28400,1,10,1:2:0:0:
213,153,28880,1,2,1:2:0:0:
136,77,29360,2,0,P|71:95|48:151,2,120,10|2|10,1:2|1:2|1:2,0:0:0:0:
240,98,30800,6,0,L|208:239,1,120,6|10,1:2|1:2,0:0:0:0:
107,272,31760,2,0,L|45:314,2,60,2|2|10,1:2|2:0|1:2,0:0:0:0:
220,312,32720,2,0,L|280:352,2,60,2|2|10,1:2|2:0|1:2,0:0:0:0:
299,221,33680,2,0,L|365:238,2,60,2|2|10,1:2|2:0|1:2,0:0:0:0:
180,204,34640,2,0,B|130:202|90:167|79:121|79:121|79:121|79:121|123:144|175:135|210:104|210:104|210:104|210:104|238:75|282:70|306:79,1,360,2|10,1:2|1:2,0:0:0:0:
394,114,36560,6,0,L|445:62,2,60,2|2|10,1:2|2:0|1:2,0:0:0:0:
413,212,37520,2,0,L|461:258,2,60,2|2|10,1:2|2:0|1:2,0:0:0:0:
355,314,38480,1,2,1:2:0:0:
236,332,38960,1,10,1:2:0:0:
163,252,39440,1,2,1:2:0:0:
279,238,39920,1,10,1:2:0:0:
306,145,40400,1,2,1:2:0:0:
196,155,40880,1,10,1:2:0:0:
182,60,41360,6,0,P|144:29|39:153,1,240,2|2,1:2|1:2,0:0:0:0:
132,191,42800,2,0,P|166:167|183:129,2,60,10|2|2,1:2|2:0|1:2,0:0:0:0:
61,288,43760,2,0,P|27:312|15:345,2,60,10|2|2,1:2|2:0|1:2,0:0:0:0:
165,324,44720,2,0,B|304:343|304:343|304:343|304:343|345:352|387:328|401:287,1,240,10|10,1:2|1:2,0:0:0:0:
320,264,46160,6,0,B|333:210|333:210|364:77|364:77|414:37|414:37|414:37|414:37|291:39|291:39|252:189|252:189|202:234|202:234|160:93|160:93|64:112|64:112,1,840,6|8,1:2|1:2,0:0:0:0:
63,197,50000,2,0,B|19:252|50:337|130:356|187:319|202:268|202:268|199:198|268:147|343:168|377:224|369:276|369:276|362:347|459:396|533:311|499:234|443:222|443:222|428:201,1,840,2|8,1:2|1:2,0:0:0:0:
464,144,53840,2,0,B|363:147|285:223|271:316|271:316|271:316|271:316|192:255|100:228|10:233|10:233|10:233|10:233|86:218|143:160|161:86|142:22|142:22|142:22|142:22,1,840,2|8,1:2|1:2,0:0:0:0:
229,74,57680,2,0,B|172:32|84:77|90:171|151:211|204:198|204:198|204:198|204:198|242:135|339:139|381:219,1,480,2|0,1:2|1:2,0:0:0:0:
490,214,60080,6,0,L|431:320,1,120,10|2,1:2|1:2,0:0:0:0:
327,321,61040,1,10,1:2:0:0:
374,224,61520,1,6,1:2:0:0:
346,119,62000,2,0,L|269:225,1,120,10|2,1:2|1:2,0:0:0:0:
190,263,62960,1,10,1:2:0:0:
82,250,63440,1,2,1:2:0:0:
127,152,63920,2,0,P|89:127|97:38,1,120,10|2,1:2|1:2,0:0:0:0:
190,58,64880,6,0,P|228:83|225:157,1,120,10|2,1:2|1:2,0:0:0:0:
279,247,65840,1,10,1:2:0:0:
376,201,66320,1,2,1:2:0:0:
376,309,66800,2,0,P|351:347|265:340,1,120,10|2,1:2|1:2,0:0:0:0:
186,300,67760,1,10,1:2:0:0:
85,261,68240,1,2,1:2:0:0:
113,173,68720,6,0,B|173:186|173:186|250:164,1,120,10|2,1:2|1:2,0:0:0:0:
283,75,69680,1,10,1:2:0:0:
390,82,70160,1,2,1:2:0:0:
505,131,70640,2,0,B|518:191|518:191|496:265,1,120,10|2,1:2|1:2,0:0:0:0:
399,284,71600,1,10,1:2:0:0:
291,278,72080,1,2,1:2:0:0:
208,207,72560,1,10,1:2:0:0:
170,98,73040,6,0,L|104:56,2,60,2|2|10,1:2|2:0|1:2,0:0:0:0:
279,48,74000,2,0,L|342:6,2,60,2|2|10,1:2|2:0|1:2,0:0:0:0:
254,165,74960,2,0,L|285:237,2,60,2|2|10,1:2|2:0|1:2,0:0:0:0:
136,191,75920,2,0,B|87:203|60:254|76:300|76:300|76:300|76:300|133:294|188:316,1,240,2|6,1:2|1:2,0:0:0:0:
293,330,77360,6,0,B|339:350|391:325|404:277|404:277|404:277|404:277|365:239|383:178,1,240,10|10,1:2|1:2,0:0:0:0:
454,104,78800,1,2,1:2:0:0:
348,79,79280,1,10,1:2:0:0:
281,154,79760,2,0,B|216:144|216:144|174:87,1,120,2|10,1:2|1:2,0:0:0:0:
110,59,80720,2,0,B|61:70|31:117|39:164|39:164|39:164|39:164|4:182|-13:221|-4:259|21:282|21:282|21:282|21:282|73:280|114:245,1,360,2|10,1:2|1:2,0:0:0:0:
187,199,82640,5,2,1:2:0:0:
268,127,83120,1,10,1:2:0:0:
383,74,83600,2,0,P|374:121|394:209,1,120,2|10,1:2|1:2,0:0:0:0:
464,281,84560,5,2,1:2:0:0:
363,320,85040,1,10,1:2:0:0:
255,332,85520,1,2,1:2:0:0:
151,302,86000,1,10,1:2:0:0:
67,234,86480,1,2,1:2:0:0:
157,175,86960,1,10,1:2:0:0:
264,169,87440,1,2,1:2:0:0:
365,207,87920,1,10,1:2:0:0:
440,130,88400,1,2,1:2:0:0:
340,88,88880,1,10,1:2:0:0:
234,65,89360,1,2,1:2:0:0:
132,102,89840,1,10,1:2:0:0:
51,173,90320,1,2,1:2:0:0:
68,279,90800,1,10,1:2:0:0:
168,318,91280,1,2,1:2:0:0:
157,210,91760,1,10,1:2:0:0:
174,103,92240,1,6,1:2:0:0:
269,29,92720,6,0,L|293:127|293:127|284:196|284:196|307:286,1,240,10|10,1:2|1:2,0:0:0:0:
379,337,94160,1,2,1:2:0:0:
452,258,94640,1,10,1:2:0:0:
345,237,95120,1,2,1:2:0:0:
417,156,95600,1,10,1:2:0:0:
505,94,96080,2,0,B|501:55|470:25|432:21|401:35|401:35|401:35|401:35|365:70|316:81|272:70|271:70|271:70|271:70|271:70|271:70|271:70|245:103|202:114|180:105,1,360,2|10,1:2|1:2,0:0:0:0:
96,86,98000,5,2,1:2:0:0:
72,191,98480,1,10,1:2:0:0:
148,267,98960,1,2,1:2:0:0:
162,160,99440,1,10,1:2:0:0:
187,55,99920,5,2,1:2:0:0:
293,74,100400,1,10,1:2:0:0:
307,174,100880,2,0,P|370:199|423:180,1,120,2|10,1:2|1:2,0:0:0:0:
482,284,101840,1,2,1:2:0:0:
394,347,102320,1,10,1:2:0:0:
309,284,102800,2,0,B|291:249|247:237|211:257|197:289|197:289|197:289|197:289|177:327|128:338|90:310,1,240,2|2,1:2|1:2,0:0:0:0:
7,260,104240,6,0,B|21:195|21:195|11:130,1,120,10|2,1:2|1:2,0:0:0:0:
70,50,105200,1,10,1:2:0:0:
134,136,105680,1,2,1:2:0:0:
173,35,106160,1,10,1:2:0:0:
268,98,106640,2,0,B|299:138|300:190|276:229|276:229|276:229|276:229|231:235|202:285|218:322,1,240,2|6,1:2|1:2,0:0:0:0:
316,359,108080,5,10,1:2:0:0:
422,341,108560,1,2,1:2:0:0:
494,247,109040,2,0,L|351:239,1,120,10|2,1:2|1:2,0:0:0:0:
272,176,110000,1,10,1:2:0:0:
379,165,110480,1,2,1:2:0:0:
462,96,110960,2,0,L|319:86,1,120,10|2,1:2|1:2,0:0:0:0:
254,24,111920,1,10,1:2:0:0:
148,47,112400,1,2,1:2:0:0:
25,66,112880,2,0,P|39:138|21:205,1,120,10|2,1:2|1:2,0:0:0:0:
108,257,113840,1,10,1:2:0:0:
124,150,114320,1,2,1:2:0:0:
209,57,114800,6,0,P|223:129|202:198,1,120,10|2,1:2|1:2,0:0:0:0:
290,250,115760,1,10,1:2:0:0:
301,142,116240,1,2,1:2:0:0:
392,63,116720,2,0,P|406:135|392:201,1,120,10|2,1:2|1:2,0:0:0:0:
428,284,117680,1,10,1:2:0:0:
320,293,118160,1,2,1:2:0:0:
218,330,118640,2,0,B|152:335|152:335|81:323,1,120,10|2,1:2|1:2,0:0:0:0:
43,233,119600,1,10,1:2:0:0:
49,125,120080,1,2,1:2:0:0:
120,24,120560,2,0,B|195:17|195:17|257:36,1,120,10|2,1:2|1:2,0:0:0:0:
298,119,121520,1,10,1:2:0:0:
369,38,122000,1,2,1:2:0:0:
442,117,122480,1,10,1:2:0:0:
493,211,122960,5,6,1:2:0:0:
397,260,123440,1,10,1:2:0:0:
291,235,123920,2,0,P|256:203|169:196,1,120,2|10,1:2|1:2,0:0:0:0:
82,222,124880,1,2,1:2:0:0:
82,330,125360,1,10,1:2:0:0:
184,336,125840,2,0,P|238:308|302:335,1,120,2|10,1:2|1:2,0:0:0:0:
399,334,126800,1,2,1:2:0:0:
391,226,127280,1,10,1:2:0:0:
285,248,127760,2,0,L|155:212,1,120,2|10,1:2|1:2,0:0:0:0:
157,108,128720,1,2,1:2:0:0:
264,117,129200,1,10,1:2:0:0:
351,62,129680,2,0,L|388:200,1,120,2|10,1:2|1:2,0:0:0:0:
437,270,130640,1,2,1:2:0:0:
344,326,131120,1,10,1:2:0:0:
231,341,131600,2,0,P|261:303|231:219,1,120,2|10,1:2|1:2,0:0:0:0:
188,136,132560,1,2,1:2:0:0:
134,229,133040,1,10,1:2:0:0:
183,344,133520,2,0,P|229:352|313:319,1,120,2|10,1:2|1:2,0:0:0:0:
406,331,134480,1,2,1:2:0:0:
417,223,134960,1,10,1:2:0:0:
467,113,135440,2,0,P|449:59|378:69,1,120,2|10,1:2|1:2,0:0:0:0:
323,138,136400,1,2,1:2:0:0:
219,106,136880,1,10,1:2:0:0:
98,52,137360,2,0,P|77:102|117:180,1,120,2|10,1:2|1:2,0:0:0:0:
50,294,138320,6,0,L|220:315,1,168,6|8,1:2|1:2,0:0:0:0:
286,248,142160,2,0,L|116:227,1,168,2|8,1:2|1:2,0:0:0:0:
48,145,146000,2,0,L|218:166,1,168,2|8,1:2|1:2,0:0:0:0:
284,99,149840,2,0,L|114:78,1,168,2|8,1:2|1:2,0:0:0:0:
43,116,153680,6,0,P|29:164|116:221,1,168,6|8,1:2|1:2,0:0:0:0:
138,116,157520,2,0,P|227:119|238:187,1,168,2|8,1:2|1:2,0:0:0:0:
168,274,161360,2,0,P|217:348|285:331,1,168,2|8,1:2|1:2,0:0:0:0:
261,221,165200,2,0,P|340:179|388:229,1,168,2|8,1:2|1:2,0:0:0:0:
454,321,169040,6,0,B|464:244|464:244|482:205|482:205|486:155,1,168,6|10,1:2|1:2,0:0:0:0:
402,128,172880,2,0,B|392:205|392:205|374:244|374:244|366:292,1,168,2|10,1:2|1:2,0:0:0:0:
267,318,176720,2,0,B|277:241|277:241|295:202|295:202|300:155,1,168,2|10,1:2|1:2,0:0:0:0:
215,124,180560,2,0,B|205:201|205:201|187:240|187:240|183:289,1,168,2|8,1:2|1:2,0:0:0:0:
104,323,184400,6,0,P|58:317|42:213,1,168,6|0,2:0|0:0,0:0:0:0:
148,232,188240,2,0,P|198:246|313:242,1,168
407,299,192080,2,0,P|455:287|464:183,1,168
256,192,195920,12,0,209360,0:0:0:0:
