osu file format v14

[General]
AudioFilename: audio1.mp3
AudioLeadIn: 0
PreviewTime: 60080
Countdown: 0
SampleSet: None
StackLeniency: 0.1
Mode: 0
LetterboxInBreaks: 0
WidescreenStoryboard: 1

[Editor]
Bookmarks: 15440,46160,122960,153680,169040,184400,209360
DistanceSpacing: 0.8
BeatDivisor: 4
GridSize: 32
TimelineZoom: 1

[Metadata]
Title:Piyala
TitleUnicode:Пыяла
Artist:AIGEL
ArtistUnicode:АИГЕЛ
Creator:RoseYoshino
Version:Celektus' HS
Source:Слово пацана. Кровь на асфальте
Tags:Russian Tatar Electronic Pop TV Show Series The Boy's Word: Blood on the Asphalt Slovo patsana Krov' na asfal'te
BeatmapID:4571751
BeatmapSetID:2163702

[Difficulty]
HPDrainRate:0
CircleSize:2
OverallDifficulty:10
ApproachRate:10
SliderMultiplier:0.8
SliderTickRate:1

[Events]
//Background and Video events
0,0,"w1500_52136448.jpg",0,0
//Break Periods
//Storyboard Layer 0 (Background)
//Storyboard Layer 1 (Fail)
//Storyboard Layer 2 (Pass)
//Storyboard Layer 3 (Foreground)
//Storyboard Layer 4 (Overlay)
//Storyboard Sound Samples

[TimingPoints]
80,480,4,2,1,60,1,0
61520,-100,4,2,1,70,0,1
76400,-100,4,2,1,60,0,0
107600,-100,4,2,1,80,0,1
136400,-100,4,2,1,70,0,1
136880,-100,4,2,1,60,0,1
137360,-100,4,2,1,50,0,1
137840,-100,4,2,1,50,0,0
153680,-100,4,2,1,60,0,0

[HitObjects]
0,192,80,5,2,1:2:0:0:
96,192,560,1,8,1:2:0:0:
0,192,1040,1,0,1:2:0:0:
96,192,1520,1,8,1:2:0:0:
0,192,2000,1,0,1:2:0:0:
96,192,2480,1,8,1:2:0:0:
192,192,2840,1,0,3:2:0:0:
0,192,2960,1,0,1:2:0:0:
96,192,3440,1,8,1:2:0:0:
0,192,3920,5,2,1:2:0:0:
96,192,4400,1,8,1:2:0:0:
0,192,4880,1,0,1:2:0:0:
96,192,5360,1,8,1:2:0:0:
0,192,5840,1,0,1:2:0:0:
96,192,6320,1,8,1:2:0:0:
192,192,6680,1,0,3:2:0:0:
0,192,6800,1,0,1:2:0:0:
192,192,6920,1,0,3:2:0:0:
96,192,7280,1,8,1:2:0:0:
0,192,7760,5,2,1:2:0:0:
96,192,8240,1,8,1:2:0:0:
0,192,8720,1,0,1:2:0:0:
96,192,9200,1,8,1:2:0:0:
0,192,9680,1,0,1:2:0:0:
96,192,10160,1,8,1:2:0:0:
192,192,10520,1,0,3:2:0:0:
0,192,10640,1,0,1:2:0:0:
96,192,11120,1,8,1:2:0:0:
0,192,11600,5,2,1:2:0:0:
96,192,12080,1,8,1:2:0:0:
0,192,12560,1,0,1:2:0:0:
96,192,13040,1,8,1:2:0:0:
0,192,13520,1,0,1:2:0:0:
96,192,14000,1,8,1:2:0:0:
192,192,14360,1,0,3:2:0:0:
0,192,14480,1,0,1:2:0:0:
192,192,14600,1,0,3:2:0:0:
96,192,14960,1,8,1:2:0:0:
0,192,15440,5,6,1:2:0:0:
288,192,15680,1,2,2:0:0:0:
96,192,15920,1,10,1:2:0:0:
288,192,16160,1,2,2:0:0:0:
0,192,16400,1,2,1:2:0:0:
288,192,16640,1,2,2:0:0:0:
96,192,16880,1,10,1:2:0:0:
0,192,17360,5,2,1:2:0:0:
288,192,17600,1,2,2:0:0:0:
96,192,17840,1,10,1:2:0:0:
192,192,18200,1,0,3:2:0:0:
0,192,18320,1,2,1:2:0:0:
288,192,18560,1,2,2:0:0:0:
96,192,18800,1,10,1:2:0:0:
0,192,19280,5,2,1:2:0:0:
288,192,19520,1,2,2:0:0:0:
96,192,19760,1,10,1:2:0:0:
288,192,20000,1,2,2:0:0:0:
0,192,20240,1,2,1:2:0:0:
288,192,20480,1,2,2:0:0:0:
96,192,20720,1,10,1:2:0:0:
0,192,21200,5,2,1:2:0:0:
288,192,21440,1,2,2:0:0:0:
96,192,21680,1,10,1:2:0:0:
192,192,22040,1,0,3:2:0:0:
0,192,22160,1,2,1:2:0:0:
288,192,22400,1,2,2:0:0:0:
96,192,22640,1,10,1:2:0:0:
0,192,23120,5,2,1:2:0:0:
288,192,23360,1,2,2:0:0:0:
96,192,23600,1,10,1:2:0:0:
0,192,24080,1,2,1:2:0:0:
288,192,24320,1,2,2:0:0:0:
96,192,24560,1,10,1:2:0:0:
0,192,25040,5,2,1:2:0:0:
288,192,25280,1,2,2:0:0:0:
96,192,25520,1,10,1:2:0:0:
192,192,25880,1,0,3:2:0:0:
0,192,26000,1,2,1:2:0:0:
288,192,26240,1,2,2:0:0:0:
96,192,26480,1,10,1:2:0:0:
288,192,26720,1,2,2:0:0:0:
0,192,26960,5,2,1:2:0:0:
96,192,27440,1,10,1:2:0:0:
288,192,27680,1,2,2:0:0:0:
0,192,27920,1,2,1:2:0:0:
96,192,28400,1,10,1:2:0:0:
288,192,28640,1,2,2:0:0:0:
0,192,28880,5,2,1:2:0:0:
96,192,29360,1,10,1:2:0:0:
288,192,29600,1,2,2:0:0:0:
192,192,29720,1,0,3:2:0:0:
0,192,29840,1,2,1:2:0:0:
288,192,30080,1,2,2:0:0:0:
96,192,30320,1,10,1:2:0:0:
288,192,30560,1,2,2:0:0:0:
0,192,30800,5,6,1:2:0:0:
288,192,31040,1,2,2:0:0:0:
96,192,31280,1,10,1:2:0:0:
288,192,31520,1,2,2:0:0:0:
0,192,31760,1,2,1:2:0:0:
288,192,32000,1,2,2:0:0:0:
96,192,32240,1,10,1:2:0:0:
0,192,32720,5,2,1:2:0:0:
288,192,32960,1,2,2:0:0:0:
96,192,33200,1,10,1:2:0:0:
192,192,33560,1,0,3:2:0:0:
0,192,33680,1,2,1:2:0:0:
288,192,33920,1,2,2:0:0:0:
96,192,34160,1,10,1:2:0:0:
0,192,34640,5,2,1:2:0:0:
288,192,34880,1,2,2:0:0:0:
96,192,35120,1,10,1:2:0:0:
288,192,35360,1,2,2:0:0:0:
0,192,35600,1,2,1:2:0:0:
288,192,35840,1,2,2:0:0:0:
96,192,36080,1,10,1:2:0:0:
0,192,36560,5,2,1:2:0:0:
288,192,36800,1,2,2:0:0:0:
96,192,37040,1,10,1:2:0:0:
192,192,37400,1,0,3:2:0:0:
0,192,37520,1,2,1:2:0:0:
288,192,37760,1,2,2:0:0:0:
96,192,38000,1,10,1:2:0:0:
0,192,38480,5,2,1:2:0:0:
288,192,38720,1,2,2:0:0:0:
96,192,38960,1,10,1:2:0:0:
0,192,39440,1,2,1:2:0:0:
288,192,39680,1,2,2:0:0:0:
96,192,39920,1,10,1:2:0:0:
0,192,40400,5,2,1:2:0:0:
288,192,40640,1,2,2:0:0:0:
96,192,40880,1,10,1:2:0:0:
192,192,41240,1,0,3:2:0:0:
0,192,41360,1,2,1:2:0:0:
288,192,41600,1,2,2:0:0:0:
96,192,41840,1,10,1:2:0:0:
288,192,42080,1,2,2:0:0:0:
0,192,42320,5,2,1:2:0:0:
96,192,42800,1,10,1:2:0:0:
288,192,43040,1,2,2:0:0:0:
0,192,43280,1,2,1:2:0:0:
96,192,43760,1,10,1:2:0:0:
288,192,44000,1,2,2:0:0:0:
0,192,44240,5,2,1:2:0:0:
96,192,44720,1,10,1:2:0:0:
288,192,44960,1,2,2:0:0:0:
192,192,45080,1,0,3:2:0:0:
0,192,45200,1,2,1:2:0:0:
288,192,45440,1,2,2:0:0:0:
96,192,45680,1,10,1:2:0:0:
288,192,45920,1,2,2:0:0:0:
0,192,46160,5,6,1:2:0:0:
96,192,46640,1,8,1:2:0:0:
0,192,47120,1,0,1:2:0:0:
96,192,47600,1,8,1:2:0:0:
0,192,48080,1,0,1:2:0:0:
96,192,48560,1,8,1:2:0:0:
192,192,48920,1,0,3:2:0:0:
0,192,49040,1,0,1:2:0:0:
96,192,49520,1,8,1:2:0:0:
0,192,50000,5,2,1:2:0:0:
96,192,50480,1,8,1:2:0:0:
0,192,50960,1,0,1:2:0:0:
96,192,51440,1,8,1:2:0:0:
0,192,51920,1,0,1:2:0:0:
96,192,52400,1,8,1:2:0:0:
192,192,52760,1,0,3:2:0:0:
0,192,52880,1,0,1:2:0:0:
192,192,53000,1,0,3:2:0:0:
96,192,53360,1,8,1:2:0:0:
0,192,53840,5,2,1:2:0:0:
96,192,54320,1,8,1:2:0:0:
0,192,54800,1,0,1:2:0:0:
96,192,55280,1,8,1:2:0:0:
0,192,55760,1,0,1:2:0:0:
96,192,56240,1,8,1:2:0:0:
192,192,56600,1,0,3:2:0:0:
0,192,56720,1,0,1:2:0:0:
96,192,57200,1,8,1:2:0:0:
0,192,57680,5,2,1:2:0:0:
96,192,58160,1,8,1:2:0:0:
0,192,58640,1,0,1:2:0:0:
96,192,59120,1,8,1:2:0:0:
0,192,59600,1,0,1:2:0:0:
96,192,60080,1,10,1:2:0:0:
288,192,60320,1,2,2:0:0:0:
192,192,60440,1,0,3:2:0:0:
0,192,60560,1,2,1:2:0:0:
192,192,60680,1,0,3:2:0:0:
96,192,61040,1,10,1:2:0:0:
288,192,61280,1,2,2:0:0:0:
0,192,61520,5,6,1:2:0:0:
96,192,62000,1,10,1:2:0:0:
288,192,62240,1,2,2:0:0:0:
0,192,62480,1,2,1:2:0:0:
96,192,62960,1,10,1:2:0:0:
288,192,63200,1,2,2:0:0:0:
0,192,63440,5,2,1:2:0:0:
96,192,63920,1,10,1:2:0:0:
288,192,64160,1,2,2:0:0:0:
192,192,64280,1,0,3:2:0:0:
0,192,64400,1,2,1:2:0:0:
96,192,64880,1,10,1:2:0:0:
288,192,65120,1,2,2:0:0:0:
0,192,65360,5,2,1:2:0:0:
96,192,65840,1,10,1:2:0:0:
288,192,66080,1,2,2:0:0:0:
0,192,66320,1,2,1:2:0:0:
96,192,66800,1,10,1:2:0:0:
288,192,67040,1,2,2:0:0:0:
0,192,67280,5,2,1:2:0:0:
96,192,67760,1,10,1:2:0:0:
288,192,68000,1,2,2:0:0:0:
192,192,68120,1,0,3:2:0:0:
0,192,68240,1,2,1:2:0:0:
192,192,68360,1,0,3:2:0:0:
96,192,68720,1,10,1:2:0:0:
288,192,68960,1,2,2:0:0:0:
0,192,69200,5,2,1:2:0:0:
96,192,69680,1,10,1:2:0:0:
288,192,69920,1,2,2:0:0:0:
0,192,70160,1,2,1:2:0:0:
96,192,70640,1,10,1:2:0:0:
288,192,70880,1,2,2:0:0:0:
0,192,71120,5,2,1:2:0:0:
96,192,71600,1,10,1:2:0:0:
288,192,71840,1,2,2:0:0:0:
192,192,71960,1,0,3:2:0:0:
0,192,72080,1,2,1:2:0:0:
96,192,72560,1,10,1:2:0:0:
288,192,72800,1,2,2:0:0:0:
0,192,73040,5,2,1:2:0:0:
288,192,73280,1,2,2:0:0:0:
96,192,73520,1,10,1:2:0:0:
0,192,74000,1,2,1:2:0:0:
288,192,74240,1,2,2:0:0:0:
96,192,74480,1,10,1:2:0:0:
0,192,74960,5,2,1:2:0:0:
288,192,75200,1,2,2:0:0:0:
96,192,75440,1,10,1:2:0:0:
192,192,75800,1,0,3:2:0:0:
0,192,75920,1,2,1:2:0:0:
192,192,76040,1,0,3:2:0:0:
288,192,76160,1,2,2:0:0:0:
96,192,76400,1,10,1:2:0:0:
288,192,76640,1,2,2:0:0:0:
0,192,76880,5,6,1:2:0:0:
288,192,77120,1,2,2:0:0:0:
96,192,77360,1,10,1:2:0:0:
288,192,77600,1,2,2:0:0:0:
0,192,77840,1,2,1:2:0:0:
288,192,78080,1,2,2:0:0:0:
96,192,78320,1,10,1:2:0:0:
0,192,78800,5,2,1:2:0:0:
288,192,79040,1,2,2:0:0:0:
96,192,79280,1,10,1:2:0:0:
0,192,79760,1,2,1:2:0:0:
192,192,79880,1,0,3:2:0:0:
288,192,80000,1,2,2:0:0:0:
96,192,80240,1,10,1:2:0:0:
0,192,80720,5,2,1:2:0:0:
288,192,80960,1,2,2:0:0:0:
96,192,81200,1,10,1:2:0:0:
288,192,81440,1,2,2:0:0:0:
0,192,81680,1,2,1:2:0:0:
288,192,81920,1,2,2:0:0:0:
96,192,82160,1,10,1:2:0:0:
0,192,82640,5,2,1:2:0:0:
288,192,82880,1,2,2:0:0:0:
96,192,83120,1,10,1:2:0:0:
0,192,83600,1,2,1:2:0:0:
192,192,83720,1,0,3:2:0:0:
288,192,83840,1,2,2:0:0:0:
96,192,84080,1,10,1:2:0:0:
0,192,84560,5,2,1:2:0:0:
288,192,84800,1,2,2:0:0:0:
96,192,85040,1,10,1:2:0:0:
0,192,85520,1,2,1:2:0:0:
288,192,85760,1,2,2:0:0:0:
96,192,86000,1,10,1:2:0:0:
0,192,86480,5,2,1:2:0:0:
288,192,86720,1,2,2:0:0:0:
96,192,86960,1,10,1:2:0:0:
0,192,87440,1,2,1:2:0:0:
192,192,87560,1,0,3:2:0:0:
288,192,87680,1,2,2:0:0:0:
96,192,87920,1,10,1:2:0:0:
288,192,88160,1,2,2:0:0:0:
0,192,88400,5,2,1:2:0:0:
96,192,88880,1,10,1:2:0:0:
288,192,89120,1,2,2:0:0:0:
0,192,89360,1,2,1:2:0:0:
96,192,89840,1,10,1:2:0:0:
288,192,90080,1,2,2:0:0:0:
0,192,90320,5,2,1:2:0:0:
96,192,90800,1,10,1:2:0:0:
288,192,91040,1,2,2:0:0:0:
0,192,91280,1,2,1:2:0:0:
192,192,91400,1,0,3:2:0:0:
288,192,91520,1,2,2:0:0:0:
96,192,91760,1,10,1:2:0:0:
288,192,92000,1,2,2:0:0:0:
0,192,92240,5,6,1:2:0:0:
288,192,92480,1,2,2:0:0:0:
96,192,92720,1,10,1:2:0:0:
288,192,92960,1,2,2:0:0:0:
0,192,93200,1,2,1:2:0:0:
288,192,93440,1,2,2:0:0:0:
96,192,93680,1,10,1:2:0:0:
0,192,94160,5,2,1:2:0:0:
288,192,94400,1,2,2:0:0:0:
96,192,94640,1,10,1:2:0:0:
0,192,95120,1,2,1:2:0:0:
192,192,95240,1,0,3:2:0:0:
288,192,95360,1,2,2:0:0:0:
96,192,95600,1,10,1:2:0:0:
0,192,96080,5,2,1:2:0:0:
288,192,96320,1,2,2:0:0:0:
96,192,96560,1,10,1:2:0:0:
288,192,96800,1,2,2:0:0:0:
0,192,97040,1,2,1:2:0:0:
288,192,97280,1,2,2:0:0:0:
96,192,97520,1,10,1:2:0:0:
0,192,98000,5,2,1:2:0:0:
288,192,98240,1,2,2:0:0:0:
96,192,98480,1,10,1:2:0:0:
0,192,98960,1,2,1:2:0:0:
192,192,99080,1,0,3:2:0:0:
288,192,99200,1,2,2:0:0:0:
96,192,99440,1,10,1:2:0:0:
0,192,99920,5,2,1:2:0:0:
288,192,100160,1,2,2:0:0:0:
96,192,100400,1,10,1:2:0:0:
0,192,100880,1,2,1:2:0:0:
288,192,101120,1,2,2:0:0:0:
96,192,101360,1,10,1:2:0:0:
0,192,101840,5,2,1:2:0:0:
288,192,102080,1,2,2:0:0:0:
96,192,102320,1,10,1:2:0:0:
0,192,102800,1,2,1:2:0:0:
192,192,102920,1,0,3:2:0:0:
288,192,103040,1,2,2:0:0:0:
96,192,103280,1,10,1:2:0:0:
288,192,103520,1,2,2:0:0:0:
0,192,103760,5,2,1:2:0:0:
96,192,104240,1,10,1:2:0:0:
288,192,104480,1,2,2:0:0:0:
0,192,104720,1,2,1:2:0:0:
96,192,105200,1,10,1:2:0:0:
288,192,105440,1,2,2:0:0:0:
0,192,105680,5,2,1:2:0:0:
96,192,106160,1,10,1:2:0:0:
288,192,106400,1,2,2:0:0:0:
0,192,106640,1,2,1:2:0:0:
192,192,106760,1,0,3:2:0:0:
288,192,106880,1,2,2:0:0:0:
96,192,107120,1,10,1:2:0:0:
288,192,107360,1,2,2:0:0:0:
0,192,107600,5,6,1:2:0:0:
96,192,108080,1,10,1:2:0:0:
288,192,108320,1,2,2:0:0:0:
0,192,108560,1,2,1:2:0:0:
96,192,109040,1,10,1:2:0:0:
288,192,109280,1,2,2:0:0:0:
0,192,109520,5,2,1:2:0:0:
96,192,110000,1,10,1:2:0:0:
288,192,110240,1,2,2:0:0:0:
192,192,110360,1,2,3:2:0:0:
0,192,110480,1,2,1:2:0:0:
96,192,110960,1,10,1:2:0:0:
288,192,111200,1,2,2:0:0:0:
0,192,111440,5,2,1:2:0:0:
96,192,111920,1,10,1:2:0:0:
288,192,112160,1,2,2:0:0:0:
0,192,112400,1,2,1:2:0:0:
96,192,112880,1,10,1:2:0:0:
288,192,113120,1,2,2:0:0:0:
0,192,113360,5,2,1:2:0:0:
96,192,113840,1,10,1:2:0:0:
288,192,114080,1,2,2:0:0:0:
192,192,114200,1,2,3:2:0:0:
0,192,114320,1,2,1:2:0:0:
192,192,114440,1,2,3:2:0:0:
96,192,114800,1,10,1:2:0:0:
288,192,115040,1,2,2:0:0:0:
0,192,115280,5,2,1:2:0:0:
96,192,115760,1,10,1:2:0:0:
288,192,116000,1,2,2:0:0:0:
0,192,116240,1,2,1:2:0:0:
96,192,116720,1,10,1:2:0:0:
288,192,116960,1,2,2:0:0:0:
0,192,117200,5,2,1:2:0:0:
96,192,117680,1,10,1:2:0:0:
288,192,117920,1,2,2:0:0:0:
192,192,118040,1,2,3:2:0:0:
0,192,118160,1,2,1:2:0:0:
96,192,118640,1,10,1:2:0:0:
288,192,118880,1,2,2:0:0:0:
0,192,119120,5,2,1:2:0:0:
96,192,119600,1,10,1:2:0:0:
288,192,119840,1,2,2:0:0:0:
0,192,120080,1,2,1:2:0:0:
96,192,120560,1,10,1:2:0:0:
288,192,120800,1,2,2:0:0:0:
0,192,121040,5,2,1:2:0:0:
96,192,121520,1,10,1:2:0:0:
288,192,121760,1,2,2:0:0:0:
192,192,121880,1,2,3:2:0:0:
0,192,122000,1,2,1:2:0:0:
288,192,122240,1,2,2:0:0:0:
96,192,122480,1,10,1:2:0:0:
288,192,122720,1,2,2:0:0:0:
0,192,122960,5,6,1:2:0:0:
288,192,123200,1,2,2:0:0:0:
96,192,123440,1,10,1:2:0:0:
0,192,123920,1,2,1:2:0:0:
288,192,124160,1,2,2:0:0:0:
96,192,124400,1,10,1:2:0:0:
0,192,124880,5,2,1:2:0:0:
288,192,125120,1,2,2:0:0:0:
96,192,125360,1,10,1:2:0:0:
192,192,125720,1,0,3:2:0:0:
0,192,125840,1,2,1:2:0:0:
288,192,126080,1,2,2:0:0:0:
96,192,126320,1,10,1:2:0:0:
0,192,126800,5,2,1:2:0:0:
288,192,127040,1,2,2:0:0:0:
96,192,127280,1,10,1:2:0:0:
0,192,127760,1,2,1:2:0:0:
288,192,128000,1,2,2:0:0:0:
96,192,128240,1,10,1:2:0:0:
0,192,128720,5,2,1:2:0:0:
288,192,128960,1,2,2:0:0:0:
96,192,129200,1,10,1:2:0:0:
192,192,129560,1,0,3:2:0:0:
0,192,129680,1,2,1:2:0:0:
192,192,129800,1,0,3:2:0:0:
288,192,129920,1,2,2:0:0:0:
96,192,130160,1,10,1:2:0:0:
0,192,130640,5,2,1:2:0:0:
288,192,130880,1,2,2:0:0:0:
96,192,131120,1,10,1:2:0:0:
0,192,131600,1,2,1:2:0:0:
288,192,131840,1,2,2:0:0:0:
96,192,132080,1,10,1:2:0:0:
0,192,132560,5,2,1:2:0:0:
288,192,132800,1,2,2:0:0:0:
96,192,133040,1,10,1:2:0:0:
192,192,133400,1,0,3:2:0:0:
0,192,133520,1,2,1:2:0:0:
288,192,133760,1,2,2:0:0:0:
96,192,134000,1,10,1:2:0:0:
0,192,134480,5,2,1:2:0:0:
288,192,134720,1,2,2:0:0:0:
96,192,134960,1,10,1:2:0:0:
0,192,135440,1,2,1:2:0:0:
288,192,135680,1,2,2:0:0:0:
96,192,135920,1,10,1:2:0:0:
0,192,136400,5,2,1:2:0:0:
288,192,136640,1,2,2:0:0:0:
96,192,136880,1,10,1:2:0:0:
192,192,137240,1,0,3:2:0:0:
0,192,137360,1,2,1:2:0:0:
192,192,137480,1,0,3:2:0:0:
288,192,137600,1,2,2:0:0:0:
96,192,137840,1,10,1:2:0:0:
0,192,138320,5,6,1:2:0:0:
96,192,138800,1,8,1:2:0:0:
0,192,139280,1,0,1:2:0:0:
96,192,139760,1,8,1:2:0:0:
0,192,140240,1,0,1:2:0:0:
96,192,140720,1,8,1:2:0:0:
192,192,141080,1,0,3:2:0:0:
0,192,141200,1,0,1:2:0:0:
96,192,141680,1,8,1:2:0:0:
0,192,142160,5,2,1:2:0:0:
96,192,142640,1,8,1:2:0:0:
0,192,143120,1,0,1:2:0:0:
96,192,143600,1,8,1:2:0:0:
0,192,144080,1,0,1:2:0:0:
96,192,144560,1,8,1:2:0:0:
192,192,144920,1,0,3:2:0:0:
0,192,145040,1,0,1:2:0:0:
192,192,145160,1,0,3:2:0:0:
96,192,145520,1,8,1:2:0:0:
0,192,146000,5,2,1:2:0:0:
96,192,146480,1,8,1:2:0:0:
0,192,146960,1,0,1:2:0:0:
96,192,147440,1,8,1:2:0:0:
0,192,147920,1,0,1:2:0:0:
96,192,148400,1,8,1:2:0:0:
192,192,148760,1,0,3:2:0:0:
0,192,148880,1,0,1:2:0:0:
96,192,149360,1,8,1:2:0:0:
0,192,149840,5,2,1:2:0:0:
96,192,150320,1,8,1:2:0:0:
0,192,150800,1,0,1:2:0:0:
96,192,151280,1,8,1:2:0:0:
0,192,151760,1,0,1:2:0:0:
96,192,152240,1,8,1:2:0:0:
192,192,152600,1,0,3:2:0:0:
0,192,152720,1,0,1:2:0:0:
192,192,152840,1,0,3:2:0:0:
96,192,153200,1,8,1:2:0:0:
0,192,153680,5,6,1:2:0:0:
96,192,154160,1,8,1:2:0:0:
0,192,154640,1,0,1:2:0:0:
96,192,155120,1,8,1:2:0:0:
0,192,155600,1,0,1:2:0:0:
96,192,156080,1,8,1:2:0:0:
192,192,156440,1,0,3:2:0:0:
0,192,156560,1,0,1:2:0:0:
96,192,157040,1,8,1:2:0:0:
0,192,157520,5,2,1:2:0:0:
96,192,158000,1,8,1:2:0:0:
0,192,158480,1,0,1:2:0:0:
96,192,158960,1,8,1:2:0:0:
0,192,159440,1,0,1:2:0:0:
96,192,159920,1,8,1:2:0:0:
192,192,160280,1,0,3:2:0:0:
0,192,160400,1,0,1:2:0:0:
192,192,160520,1,0,3:2:0:0:
96,192,160880,1,8,1:2:0:0:
0,192,161360,5,2,1:2:0:0:
96,192,161840,1,8,1:2:0:0:
0,192,162320,1,0,1:2:0:0:
96,192,162800,1,8,1:2:0:0:
0,192,163280,1,0,1:2:0:0:
96,192,163760,1,8,1:2:0:0:
192,192,164120,1,0,3:2:0:0:
0,192,164240,1,0,1:2:0:0:
96,192,164720,1,8,1:2:0:0:
0,192,165200,5,2,1:2:0:0:
96,192,165680,1,8,1:2:0:0:
0,192,166160,1,0,1:2:0:0:
96,192,166640,1,8,1:2:0:0:
0,192,167120,1,0,1:2:0:0:
96,192,167600,1,8,1:2:0:0:
192,192,167960,1,0,3:2:0:0:
0,192,168080,1,0,1:2:0:0:
192,192,168200,1,0,3:2:0:0:
96,192,168560,1,8,1:2:0:0:
0,192,169040,5,6,1:2:0:0:
96,192,169520,1,10,1:2:0:0:
0,192,170000,1,2,1:2:0:0:
96,192,170480,1,10,1:2:0:0:
0,192,170960,1,2,1:2:0:0:
96,192,171440,1,10,1:2:0:0:
192,192,171800,1,0,3:2:0:0:
0,192,171920,1,2,1:2:0:0:
96,192,172400,1,10,1:2:0:0:
0,192,172880,5,2,1:2:0:0:
96,192,173360,1,10,1:2:0:0:
0,192,173840,1,2,1:2:0:0:
96,192,174320,1,10,1:2:0:0:
0,192,174800,1,2,1:2:0:0:
96,192,175280,1,10,1:2:0:0:
192,192,175640,1,0,3:2:0:0:
0,192,175760,1,2,1:2:0:0:
192,192,175880,1,0,3:2:0:0:
96,192,176240,1,10,1:2:0:0:
0,192,176720,5,2,1:2:0:0:
96,192,177200,1,10,1:2:0:0:
0,192,177680,1,2,1:2:0:0:
96,192,178160,1,10,1:2:0:0:
0,192,178640,1,2,1:2:0:0:
96,192,179120,1,10,1:2:0:0:
192,192,179480,1,0,3:2:0:0:
0,192,179600,1,2,1:2:0:0:
96,192,180080,1,10,1:2:0:0:
0,192,180560,5,2,1:2:0:0:
96,192,181040,1,10,1:2:0:0:
0,192,181520,1,2,1:2:0:0:
96,192,182000,1,10,1:2:0:0:
0,192,182480,1,0,1:2:0:0:
96,192,182960,1,8,1:2:0:0:
192,192,183320,1,0,3:2:0:0:
0,192,183440,1,0,1:2:0:0:
192,192,183560,1,0,3:2:0:0:
96,192,183920,1,8,1:2:0:0:
288,192,184400,5,6,2:0:0:0:
