osu file format v14

[General]
AudioFilename: audio.mp3
AudioLeadIn: 0
PreviewTime: -1
Countdown: 0
SampleSet: None
StackLeniency: 0.6
Mode: 0
LetterboxInBreaks: 0
WidescreenStoryboard: 0

[Editor]
Bookmarks: 21847,27983,32642,32756,43665,49119,51847,52528,54574,73665,75710,76392,95483,97528,98210,117301,120028,139119,141165,141847,163665,185483,204574,206619,207301,226392,228438,229119,250938,272074
DistanceSpacing: 0.6
BeatDivisor: 6
GridSize: 4
TimelineZoom: 3.4

[Metadata]
Title:Clouds
TitleUnicode:Clouds
Artist:AFK & Anna Yvette
ArtistUnicode:AFK & Anna Yvette
Creator:MicroClock64
Version:Extra
Source:
Tags:AFK & Anna Yvette Clouds Dub step
BeatmapID:1370271
BeatmapSetID:646771

[Difficulty]
HPDrainRate:6
CircleSize:3.8
OverallDifficulty:7
ApproachRate:8.4
SliderMultiplier:1.6
SliderTickRate:1

[Events]
//Background and Video events
0,0,"maxresdefault.jpg",0,0
//Break Periods
2,52728,53884
//Storyboard Layer 0 (Background)
//Storyboard Layer 1 (Fail)
//Storyboard Layer 2 (Pass)
//Storyboard Layer 3 (Foreground)
//Storyboard Sound Samples

[TimingPoints]
10938,340.909090909091,4,3,0,90,1,0
10938,-100,4,3,0,38,0,0
11165,-100,4,3,0,5,0,0
11278,-100,4,3,0,38,0,0
11506,-100,4,3,0,5,0,0
11619,-100,4,3,0,38,0,0
11847,-100,4,3,0,5,0,0
12301,-100,4,3,0,38,0,0
12528,-100,4,3,0,5,0,0
12642,-100,4,3,0,38,0,0
12869,-100,4,3,0,5,0,0
12983,-100,4,3,0,38,0,0
13210,-100,4,3,0,5,0,0
13665,-100,4,3,0,38,0,0
13892,-100,4,3,0,5,0,0
14006,-100,4,3,0,38,0,0
14233,-100,4,3,0,5,0,0
14347,-100,4,3,0,38,0,0
14574,-100,4,3,0,5,0,0
15028,-100,4,3,0,38,0,0
15256,-100,4,3,0,5,0,0
15369,-100,4,3,0,38,0,0
15597,-100,4,3,0,5,0,0
15710,-100,4,3,0,38,0,0
15938,-100,4,3,0,5,0,0
16392,-100,4,3,0,38,0,0
16619,-100,4,3,0,5,0,0
16733,-100,4,3,0,38,0,0
16960,-100,4,3,0,5,0,0
17074,-100,4,3,0,38,0,0
17301,-100,4,3,0,5,0,0
17756,-100,4,3,0,38,0,0
17983,-100,4,3,0,5,0,0
18097,-100,4,3,0,38,0,0
18324,-100,4,3,0,5,0,0
18437,-100,4,3,0,38,0,0
18665,-100,4,3,0,5,0,0
19119,-100,4,3,0,38,0,0
19347,-100,4,3,0,5,0,0
19460,-100,4,3,0,38,0,0
19687,-100,4,3,0,5,0,0
19801,-100,4,3,0,38,0,0
20028,-100,4,3,0,5,0,0
20483,-100,4,3,0,38,0,0
20710,-100,4,3,0,5,0,0
20824,-100,4,3,0,38,0,0
21051,-100,4,3,0,5,0,0
21165,-100,4,3,0,38,0,0
21392,-100,4,3,0,5,0,0
21847,-100,4,3,0,5,0,0
22187,-100,4,3,0,10,0,0
22528,-100,4,3,0,15,0,0
22869,-100,4,3,0,20,0,0
23210,-100,4,3,0,25,0,0
23551,-100,4,3,0,30,0,0
23892,-100,4,3,0,35,0,0
24233,-100,4,3,0,40,0,0
24574,-100,4,3,0,45,0,0
24915,-100,4,3,0,50,0,0
25256,-100,4,3,0,55,0,0
25597,-100,4,3,0,60,0,0
25937,-100,4,3,0,65,0,0
26278,-100,4,3,0,70,0,0
26619,-100,4,3,0,75,0,0
26960,-100,4,3,0,80,0,0
27301,-100,4,3,0,85,0,0
27642,-100,4,3,0,90,0,0
32642,-100,4,3,0,5,0,0
32756,-100,4,3,0,60,0,0
43665,-83.3333333333333,4,3,0,70,0,0
54574,-71.4285714285714,4,3,0,90,0,1
65483,-62.5,4,3,0,90,0,1
73665,-90.9090909090909,4,3,0,90,0,0
76392,-71.4285714285714,4,3,0,90,0,1
87301,-62.5,4,3,0,90,0,1
95483,-100,4,3,0,90,0,0
98210,-83.3333333333333,4,3,0,90,0,0
120028,-71.4285714285714,4,3,0,90,0,1
130938,-62.5,4,3,0,90,0,1
139119,-100,4,3,0,90,0,0
141847,-76.9230769230769,4,3,0,90,0,1
163665,-83.3333333333333,4,3,0,50,0,0
185483,-71.4285714285714,4,3,0,90,0,1
196392,-62.5,4,3,0,90,0,1
204574,-100,4,3,0,90,0,0
207301,-71.4285714285714,4,3,0,90,0,1
218210,-62.5,4,3,0,90,0,1
226392,-100,4,3,0,90,0,0
229119,-83.3333333333333,4,3,0,50,0,0
250938,-90.9090909090909,4,3,0,25,0,0

[Colours]
Combo1 : 0,0,128
Combo2 : 0,128,255
Combo3 : 0,128,192
Combo4 : 128,128,255
Combo5 : 0,0,160
Combo6 : 0,0,255

[HitObjects]
86,284,10938,6,0,P|99:241|151:193,1,106.666666666667,6|0,0:0|0:0,0:0:0:0:
122,38,11278,2,0,P|152:71|168:139,1,106.666666666667,6|0,0:0|0:0,0:0:0:0:
316,175,11619,2,0,P|274:191|204:183,1,106.666666666667,6|0,0:0|0:0,0:0:0:0:
214,183,12301,6,0,L|275:285,1,106.666666666667,6|0,0:0|0:0,0:0:0:0:
301,184,12642,2,0,L|246:92,1,106.666666666667,6|0,0:0|0:0,0:0:0:0:
341,105,12983,2,0,L|402:207,1,106.666666666667,6|0,0:0|0:0,0:0:0:0:
268,274,13665,6,0,P|346:311|384:304,1,106.666666666667,6|0,0:0|0:0,0:0:0:0:
415,256,14006,2,0,P|408:169|382:140,1,106.666666666667,6|0,0:0|0:0,0:0:0:0:
327,138,14347,2,0,P|255:187|243:223,1,106.666666666667,6|0,0:0|0:0,0:0:0:0:
248,202,15028,6,0,P|226:267|181:297,1,106.666666666667,6|0,0:0|0:0,0:0:0:0:
117,304,15369,2,0,P|142:235|183:211,1,106.666666666667,6|0,0:0|0:0,0:0:0:0:
248,202,15710,2,0,P|226:267|181:297,1,106.666666666667,6|0,0:0|0:0,0:0:0:0:
198,290,16392,6,0,L|305:343,1,106.666666666667,6|0,0:0|0:0,0:0:0:0:
385,299,16733,2,0,L|289:251,1,106.666666666667,6|0,0:0|0:0,0:0:0:0:
193,204,17074,2,0,L|300:257,1,106.666666666667,6|0,0:0|0:0,0:0:0:0:
288,250,17756,6,0,P|313:190|359:164,1,106.666666666667,6|0,0:0|0:0,0:0:0:0:
315,103,18097,2,0,P|250:111|205:84,1,106.666666666667,6|0,0:0|0:0,0:0:0:0:
172,152,18437,2,0,P|211:203|210:256,1,106.666666666667,6|0,0:0|0:0,0:0:0:0:
217,245,19119,6,0,L|95:278,1,106.666666666667,6|0,0:0|0:0,0:0:0:0:
66,218,19460,2,0,L|54:92,1,106.666666666667,6|0,0:0|0:0,0:0:0:0:
114,272,19801,2,0,L|216:244,1,106.666666666667,6|0,0:0|0:0,0:0:0:0:
219,246,20483,6,0,L|302:341,1,106.666666666667,6|0,0:0|0:0,0:0:0:0:
289,216,20824,2,0,L|372:311,1,106.666666666667,6|0,0:0|0:0,0:0:0:0:
355,183,21165,2,0,L|438:278,1,106.666666666667,6|0,0:0|0:0,0:0:0:0:
426,264,21847,5,2,0:0:0:0:
435,184,22017,1,0,0:0:0:0:
334,131,22187,1,2,0:0:0:0:
306,55,22358,1,0,0:0:0:0:
148,93,22528,2,0,L|172:178,1,80,2|0,0:0|0:0,0:0:0:0:
85,221,22869,2,0,L|61:306,1,80,2|0,0:0|0:0,0:0:0:0:
170,171,23210,5,2,0:0:0:0:
245,144,23381,1,0,0:0:0:0:
306,256,23551,1,2,0:0:0:0:
379,287,23722,1,0,0:0:0:0:
401,180,23892,2,0,L|377:100,1,80,2|0,0:0|0:0,0:0:0:0:
288,50,24233,2,0,L|195:84,1,80,2|0,0:0|0:0,0:0:0:0:
401,177,24574,5,2,0:0:0:0:
478,156,24744,1,0,0:0:0:0:
345,293,24915,1,2,0:0:0:0:
270,320,25085,1,0,0:0:0:0:
172,264,25256,2,0,L|80:258,1,80,2|0,0:0|0:0,0:0:0:0:
46,349,25597,2,0,L|-50:326,1,80,2|0,0:0|0:0,0:0:0:0:
34,141,25937,5,2,0:0:0:0:
93,87,26108,1,0,0:0:0:0:
238,129,26278,1,2,0:0:0:0:
301,80,26449,1,0,0:0:0:0:
429,169,26619,2,0,L|506:219,1,80,2|0,0:0|0:0,0:0:0:0:
424,300,26960,2,0,L|366:371,1,80,2|0,0:0|0:0,0:0:0:0:
112,244,27301,5,2,0:0:0:0:
239,170,27472,1,2,0:0:0:0:
239,317,27642,1,4,0:0:0:0:
256,192,27983,12,0,32642,0:0:0:0:
309,72,32756,5,4,0:0:0:0:
374,117,32926,1,2,0:0:0:0:
317,173,33097,1,2,0:0:0:0:
380,220,33267,1,2,0:0:0:0:
390,299,33438,2,2,P|345:346|242:347,1,160,6|2,0:0|0:0,0:0:0:0:
185,246,34119,5,4,0:0:0:0:
128,303,34290,1,2,0:0:0:0:
60,260,34460,1,2,0:0:0:0:
70,180,34631,1,2,0:0:0:0:
148,164,34801,2,2,P|192:100|181:22,1,160,6|2,0:0|0:0,0:0:0:0:
304,40,35483,5,4,0:0:0:0:
379,65,35653,1,2,0:0:0:0:
382,145,35824,1,2,0:0:0:0:
458,167,35994,1,2,0:0:0:0:
400,222,36165,2,2,P|395:300|450:361,1,160,6|2,0:0|0:0,0:0:0:0:
272,272,36847,5,4,0:0:0:0:
214,327,37017,1,2,0:0:0:0:
140,295,37188,1,2,0:0:0:0:
64,320,37358,1,2,0:0:0:0:
39,244,37528,2,2,P|86:173|166:162,1,160,6|2,0:0|0:0,0:0:0:0:
64,136,38210,5,4,0:0:0:0:
105,67,38381,1,2,0:0:0:0:
182,46,38551,1,2,0:0:0:0:
194,125,38722,1,2,0:0:0:0:
266,158,38892,2,2,P|277:222|351:301,1,160,6|2,0:0|0:0,0:0:0:0:
282,332,39574,5,4,0:0:0:0:
217,284,39744,1,2,0:0:0:0:
252,212,39915,1,2,0:0:0:0:
186,166,40085,1,2,0:0:0:0:
230,99,40256,2,2,P|310:93|359:24,1,160,6|2,0:0|0:0,0:0:0:0:
403,109,40938,5,4,0:0:0:0:
403,109,41108,1,2,0:0:0:0:
374,183,41278,1,2,0:0:0:0:
374,183,41449,1,2,0:0:0:0:
419,248,41619,2,2,P|344:270|294:342,1,160,6|2,0:0|0:0,0:0:0:0:
232,335,42301,5,4,0:0:0:0:
164,291,42472,1,2,0:0:0:0:
200,220,42642,1,2,0:0:0:0:
125,190,42813,1,2,0:0:0:0:
52,222,42983,2,2,P|90:158|87:69,1,160,6|2,0:0|0:0,0:0:0:0:
147,328,43665,6,2,L|94:215,1,95.9999970703126,10|2,0:0|0:0,0:0:0:0:
60,78,44006,1,10,0:0:0:0:
215,135,44176,1,2,0:0:0:0:
337,49,44347,2,2,L|373:149,1,95.9999970703126,10|2,0:0|0:0,0:0:0:0:
458,192,44688,2,2,L|415:302,1,95.9999970703126,10|2,0:0|0:0,0:0:0:0:
276,331,45028,5,10,0:0:0:0:
102,223,45199,1,2,0:0:0:0:
43,345,45369,1,10,0:0:0:0:
239,150,45540,1,2,0:0:0:0:
155,291,45710,2,2,P|90:272|43:285,1,95.9999970703126,10|2,0:0|0:0,0:0:0:0:
255,245,46051,2,2,P|328:248|363:228,1,95.9999970703126,10|2,0:0|0:0,0:0:0:0:
488,324,46392,1,10,0:0:0:0:
405,106,46563,5,2,0:0:0:0:
170,73,46733,2,2,P|239:60|288:74,1,95.9999970703126,10|2,0:0|0:0,0:0:0:0:
61,177,47074,1,10,0:0:0:0:
145,300,47244,1,2,0:0:0:0:
356,346,47415,6,2,P|276:347|243:333,1,95.9999970703126,10|2,0:0|0:0,0:0:0:0:
438,194,47756,2,2,P|394:228|370:278,1,95.9999970703126,10|2,0:0|0:0,0:0:0:0:
314,35,48097,1,10,0:0:0:0:
445,91,48267,1,2,0:0:0:0:
281,208,48438,1,10,0:0:0:0:
330,348,48608,1,2,0:0:0:0:
145,332,48778,2,2,P|181:307|254:296,1,95.9999970703126,10|2,0:0|0:0,0:0:0:0:
65,184,49119,5,8,0:0:0:0:
92,91,49290,1,8,0:0:0:0:
92,91,49460,1,8,0:0:0:0:
92,91,49631,1,8,0:0:0:0:
174,42,49801,1,8,0:0:0:0:
222,125,49972,1,8,0:0:0:0:
309,86,50142,1,8,0:0:0:0:
384,146,50313,1,8,0:0:0:0:
384,146,50483,1,8,0:0:0:0:
201,343,50653,5,8,0:0:0:0:
201,343,50824,1,8,0:0:0:0:
220,249,50994,1,8,0:0:0:0:
279,173,51165,1,8,0:0:0:0:
372,151,51335,1,8,0:0:0:0:
452,204,51506,1,8,0:0:0:0:
480,295,51676,1,8,0:0:0:0:
406,351,51847,5,14,0:0:0:0:
392,322,51903,1,4,0:0:0:0:
388,290,51960,1,4,0:0:0:0:
392,258,52017,1,4,0:0:0:0:
402,227,52074,1,4,0:0:0:0:
418,199,52131,1,4,0:0:0:0:
386,203,52188,1,14,0:0:0:0:
356,190,52244,1,4,0:0:0:0:
332,168,52301,1,4,0:0:0:0:
315,140,52358,1,4,0:0:0:0:
307,108,52415,1,4,0:0:0:0:
317,77,52472,1,4,0:0:0:0:
339,54,52528,1,14,0:0:0:0:
201,318,54574,5,2,0:0:0:0:
50,198,54744,1,2,0:0:0:0:
258,118,54915,1,2,0:0:0:0:
204,318,55085,1,2,0:0:0:0:
204,318,55256,2,2,P|276:336|409:274,1,223.999993164063,6|2,0:0|0:0,0:0:0:0:
341,161,55767,5,2,0:0:0:0:
448,34,55938,1,2,0:0:0:0:
405,275,56108,1,2,0:0:0:0:
261,336,56278,2,2,P|274:248|204:130,1,223.999993164063,6|6,0:0|0:0,0:0:0:0:
209,134,56790,1,2,0:0:0:0:
70,117,56960,1,2,0:0:0:0:
74,334,57131,1,2,0:0:0:0:
105,260,57301,6,2,P|225:295|320:266,1,223.999993164063,6|2,0:0|0:0,0:0:0:0:
407,334,57813,1,10,0:0:0:0:
203,94,57983,5,6,0:0:0:0:
39,58,58153,1,0,0:0:0:0:
88,216,58324,1,0,0:0:0:0:
201,94,58494,1,0,0:0:0:0:
137,331,58665,6,2,B|290:285|197:359|359:323,1,223.999993164063,2|10,0:0|0:0,0:0:0:0:
355,323,59176,1,8,0:0:0:0:
435,158,59347,1,8,0:0:0:0:
355,323,59517,1,8,0:0:0:0:
435,158,59688,1,8,0:0:0:0:
355,323,59858,1,8,0:0:0:0:
435,158,60028,6,2,P|321:234|279:313,1,223.999993164063,6|2,0:0|0:0,0:0:0:0:
280,308,60540,1,10,0:0:0:0:
28,193,60710,1,6,0:0:0:0:
197,84,60881,1,2,0:0:0:0:
87,302,61051,1,2,0:0:0:0:
111,36,61222,1,2,0:0:0:0:
245,336,61392,1,2,0:0:0:0:
245,336,61563,1,2,0:0:0:0:
480,187,61733,6,2,P|410:250|283:267,1,223.999993164063,6|6,0:0|0:0,0:0:0:0:
284,267,62244,1,2,0:0:0:0:
301,105,62415,1,2,0:0:0:0:
397,362,62585,1,2,0:0:0:0:
167,377,62756,2,2,P|193:268|150:162,1,223.999993164063,6|2,0:0|0:0,0:0:0:0:
75,243,63267,1,10,0:0:0:0:
263,33,63438,5,6,0:0:0:0:
362,183,63608,1,2,0:0:0:0:
472,25,63778,1,2,0:0:0:0:
216,163,63949,1,2,0:0:0:0:
216,163,64119,2,2,P|300:153|248:189,1,223.999993164063
166,283,64631,1,8,0:0:0:0:
72,360,64801,2,2,P|-5:351|75:315,1,223.999993164063
102,336,65313,1,0,0:0:0:0:
363,339,65483,5,8,0:0:0:0:
373,306,65540,2,2,P|408:239|463:208,1,128,6|2,0:0|0:0,0:0:0:0:
388,241,65824,2,2,P|359:180|296:146,1,128
333,49,66165,1,8,0:0:0:0:
301,36,66222,2,2,P|244:75|170:78,1,128,6|2,0:0|0:0,0:0:0:0:
254,92,66506,2,2,P|304:118|341:202,1,128
282,318,66847,6,0,P|205:305|129:330,1,128
61,277,67188,2,0,P|83:196|63:139,1,128
174,41,67528,5,8,0:0:0:0:
183,73,67585,2,2,P|161:145|179:206,1,128,6|2,0:0|0:0,0:0:0:0:
204,134,67869,2,2,P|243:110|331:109,1,128
402,217,68210,1,8,0:0:0:0:
373,236,68267,2,2,P|342:291|353:363,1,128,6|2,0:0|0:0,0:0:0:0:
316,292,68551,2,2,P|272:268|245:176,1,128
130,270,68892,1,8,0:0:0:0:
95,273,68949,2,2,P|24:287|-24:330,1,128,6|2,0:0|0:0,0:0:0:0:
14,261,69233,2,2,P|37:215|32:120,1,128
189,115,69574,6,0,P|268:114|325:82,1,128
428,182,69915,2,0,P|329:188|280:212,1,128
255,363,70256,1,8,0:0:0:0:
283,344,70313,2,2,P|348:320|432:333,1,128,6|2,0:0|0:0,0:0:0:0:
344,293,70597,2,2,P|350:233|329:162,1,128
422,33,70938,5,8,0:0:0:0:
432,65,70994,2,2,P|460:109|532:141,1,128,6|2,0:0|0:0,0:0:0:0:
458,141,71278,1,2,0:0:0:0:
397,314,71449,1,8,0:0:0:0:
199,337,71619,1,8,0:0:0:0:
164,336,71676,2,2,P|95:313|30:328,1,128,6|2,0:0|0:0,0:0:0:0:
103,292,71960,2,2,P|119:245|108:163,1,128
112,44,72301,6,2,P|182:64|256:48,1,128
359,132,72642,2,2,P|266:128|201:153,1,128
145,224,72983,1,2,0:0:0:0:
190,314,73153,1,2,0:0:0:0:
325,366,73324,1,2,0:0:0:0:
506,264,73494,1,2,0:0:0:0:
190,314,73665,1,6,0:0:0:0:
256,192,73722,12,4,75710,0:0:0:0:
81,332,76392,5,6,0:0:0:0:
26,200,76563,1,2,0:0:0:0:
89,59,76733,1,2,0:0:0:0:
234,22,76903,1,2,0:0:0:0:
82,333,77074,2,2,P|180:286|297:302,1,223.999993164063,6|2,0:0|0:0,0:0:0:0:
455,347,77585,5,2,0:0:0:0:
412,126,77756,1,2,0:0:0:0:
365,354,77926,1,2,0:0:0:0:
145,346,78097,2,2,P|181:247|163:118,1,223.999993164063,6|6,0:0|0:0,0:0:0:0:
168,131,78608,1,2,0:0:0:0:
217,309,78778,1,2,0:0:0:0:
390,361,78949,1,2,0:0:0:0:
381,115,79119,2,2,P|372:210|399:342,1,223.999993164063,6|2,0:0|0:0,0:0:0:0:
328,199,79631,5,10,0:0:0:0:
190,62,79801,1,6,0:0:0:0:
31,140,79972,1,2,0:0:0:0:
175,249,80142,1,2,0:0:0:0:
28,138,80313,1,2,0:0:0:0:
175,249,80483,6,2,B|321:251|254:324|378:328,1,223.999993164063,2|10,0:0|0:0,0:0:0:0:
66,289,80994,1,8,0:0:0:0:
373,326,81165,1,8,0:0:0:0:
66,289,81335,1,8,0:0:0:0:
373,326,81506,1,8,0:0:0:0:
66,289,81676,1,8,0:0:0:0:
372,324,81847,6,2,P|256:312|164:220,1,223.999993164063,6|2,0:0|0:0,0:0:0:0:
152,329,82358,1,10,0:0:0:0:
53,93,82528,1,6,0:0:0:0:
150,47,82699,1,2,0:0:0:0:
309,78,82869,1,2,0:0:0:0:
472,197,83040,1,2,0:0:0:0:
394,242,83210,1,2,0:0:0:0:
388,152,83381,1,2,0:0:0:0:
252,338,83551,6,2,P|290:207|383:150,1,223.999993164063,6|6,0:0|0:0,0:0:0:0:
250,199,84063,1,2,0:0:0:0:
103,312,84233,1,2,0:0:0:0:
48,148,84403,1,2,0:0:0:0:
172,98,84574,2,2,L|100:320,1,223.999993164063,6|2,0:0|0:0,0:0:0:0:
102,311,85085,1,10,0:0:0:0:
397,383,85256,5,6,0:0:0:0:
323,253,85426,1,2,0:0:0:0:
448,113,85597,1,2,0:0:0:0:
240,21,85767,1,2,0:0:0:0:
163,84,85938,2,2,P|77:69|134:126,1,223.999993164063
168,115,86449,1,2,0:0:0:0:
219,235,86619,2,2,P|213:313|186:236,1,223.999993164063
201,212,87131,1,2,0:0:0:0:
417,267,87301,5,10,0:0:0:0:
384,277,87358,2,2,P|314:306|253:298,1,128,6|2,0:0|0:0,0:0:0:0:
323,269,87642,2,2,P|277:193|227:165,1,128
90,331,87983,1,10,0:0:0:0:
78,298,88040,2,2,P|78:220|120:166,1,128,10|2,0:0|0:0,0:0:0:0:
44,213,88324,2,2,P|41:126|4:82,1,128
222,90,88665,6,0,P|290:85|383:108,1,128
419,155,89006,2,0,P|354:168|284:156,1,128
373,287,89347,1,10,0:0:0:0:
340,293,89403,2,2,P|280:295|205:323,1,128,10|2,0:0|0:0,0:0:0:0:
272,276,89688,2,2,P|264:216|287:147,1,128
56,75,90028,1,10,0:0:0:0:
85,57,90085,2,2,P|148:40|234:59,1,128,6|2,0:0|0:0,0:0:0:0:
143,68,90369,2,2,P|168:120|162:198,1,128
74,337,90710,5,10,0:0:0:0:
90,307,90767,2,2,P|156:292|222:245,1,128,6|2,0:0|0:0,0:0:0:0:
173,320,91051,2,2,P|223:344|304:339,1,128
494,215,91392,6,0,L|379:131,1,128
317,244,91733,2,0,L|394:136,1,128
267,44,92074,1,10,0:0:0:0:
281,74,92131,2,2,P|299:140|283:216,1,128,6|2,0:0|0:0,0:0:0:0:
318,135,92415,2,2,P|368:125|455:156,1,128
329,340,92756,5,10,0:0:0:0:
328,305,92813,2,2,P|285:255|268:173,1,128,6|2,0:0|0:0,0:0:0:0:
259,264,93097,2,2,P|199:271|137:307,1,128
63,131,93438,1,10,0:0:0:0:
94,142,93494,2,2,P|130:188|123:273,1,128,6|2,0:0|0:0,0:0:0:0:
148,189,93778,2,2,P|186:144|258:116,1,128
201,336,94119,5,2,0:0:0:0:
253,280,94290,1,2,0:0:0:0:
327,295,94460,1,10,0:0:0:0:
378,237,94631,1,2,0:0:0:0:
364,161,94801,1,10,0:0:0:0:
416,104,94972,1,2,0:0:0:0:
365,46,95142,1,2,0:0:0:0:
290,66,95313,1,2,0:0:0:0:
256,192,95483,12,4,97528,0:0:0:0:
70,295,98210,5,2,0:0:0:0:
174,248,98381,1,2,0:0:0:0:
159,353,98551,2,2,P|125:291|130:239,1,95.9999970703126,2|10,0:0|0:0,0:0:0:0:
36,27,98892,5,6,0:0:0:0:
108,97,99063,2,2,L|210:107,1,95.9999970703126
235,37,99403,2,2,L|337:47,1,95.9999970703126
125,169,99744,1,2,0:0:0:0:
54,353,99915,2,2,P|195:311|254:326,1,191.999994140625,6|6,0:0|0:0,0:0:0:0:
235,319,100426,1,2,0:0:0:0:
328,280,100597,1,2,0:0:0:0:
426,352,100767,1,2,0:0:0:0:
305,163,100938,2,0,L|331:264,1,95.9999970703126
221,269,101278,2,2,L|105:287,1,95.9999970703126,2|10,0:0|0:0,0:0:0:0:
475,315,101619,5,6,0:0:0:0:
415,193,101790,1,2,0:0:0:0:
428,43,101960,1,2,0:0:0:0:
300,60,102131,2,2,P|230:70|193:104,1,95.9999970703126
272,134,102472,1,2,0:0:0:0:
428,46,102642,2,2,P|412:162|434:253,1,191.999994140625,6|6,0:0|0:0,0:0:0:0:
331,345,103153,2,2,L|217:360,1,95.9999970703126
183,269,103494,2,2,L|85:260,1,95.9999970703126
40,150,103835,1,2,0:0:0:0:
147,45,104006,2,2,L|161:158,1,95.9999970703126,2|10,0:0|0:0,0:0:0:0:
228,359,104347,5,6,0:0:0:0:
312,356,104517,1,2,0:0:0:0:
267,286,104688,1,2,0:0:0:0:
267,286,104858,2,2,P|325:240|370:238,1,95.9999970703126
341,315,105199,1,2,0:0:0:0:
68,304,105369,2,2,P|65:162|85:89,1,191.999994140625,6|6,0:0|0:0,0:0:0:0:
74,35,105881,1,2,0:0:0:0:
166,64,106051,1,2,0:0:0:0:
272,33,106222,1,2,0:0:0:0:
399,103,106392,2,2,L|375:198,1,95.9999970703126
459,246,106733,2,2,L|470:366,1,95.9999970703126,2|10,0:0|0:0,0:0:0:0:
203,260,107074,5,6,0:0:0:0:
36,346,107244,2,2,L|61:228,1,95.9999970703126
128,152,107585,2,2,L|115:49,1,95.9999970703126
139,228,107926,1,2,0:0:0:0:
64,339,108097,2,2,P|163:355|267:325,1,191.999994140625,6|6,0:0|0:0,0:0:0:0:
465,306,108608,2,2,L|365:338,1,95.9999970703126
324,268,108949,2,2,L|415:238,1,95.9999970703126
235,352,109290,1,2,0:0:0:0:
235,352,109460,2,2,L|199:248,1,95.9999970703126,2|10,0:0|0:0,0:0:0:0:
39,70,109801,5,6,0:0:0:0:
141,34,109972,2,2,P|208:22|256:37,1,95.9999970703126
270,128,110313,2,2,P|329:139|384:113,1,95.9999970703126
317,64,110653,1,2,0:0:0:0:
193,97,110824,2,2,P|184:191|135:280,1,191.999994140625,6|6,0:0|0:0,0:0:0:0:
198,363,111335,2,2,L|295:344,1,95.9999970703126
319,245,111676,2,2,L|434:266,1,95.9999970703126
193,255,112017,1,2,0:0:0:0:
25,351,112188,2,2,L|115:302,1,95.9999970703126,2|10,0:0|0:0,0:0:0:0:
286,52,112528,5,6,0:0:0:0:
343,144,112699,2,2,L|362:245,1,95.9999970703126
457,273,113040,2,2,L|434:376,1,95.9999970703126
438,191,113381,1,2,0:0:0:0:
259,117,113551,2,2,P|207:109|106:13,1,191.999994140625,6|6,0:0|0:0,0:0:0:0:
57,131,114063,1,2,0:0:0:0:
77,269,114233,1,2,0:0:0:0:
192,354,114403,1,2,0:0:0:0:
398,337,114574,2,2,L|293:348,1,95.9999970703126
150,265,114915,2,0,L|245:254,1,95.9999970703126,2|8,0:0|0:0,0:0:0:0:
482,242,115256,5,6,0:0:0:0:
388,160,115426,2,2,L|327:77,1,95.9999970703126
225,130,115767,2,2,L|135:66,1,95.9999970703126
292,176,116108,1,2,0:0:0:0:
248,37,116278,2,2,P|191:104|79:139,1,191.999994140625,6|6,0:0|0:0,0:0:0:0:
195,117,116790,1,10,0:0:0:0:
42,35,116960,1,10,0:0:0:0:
61,230,117131,1,10,0:0:0:0:
256,192,117301,12,2,119858,0:0:0:0:
254,190,120028,5,10,0:0:0:0:
