osu file format v14

[General]
AudioFilename: audio.mp3
AudioLeadIn: 0
PreviewTime: 52945
Countdown: 0
SampleSet: Soft
StackLeniency: 0.7
Mode: 3
LetterboxInBreaks: 0
SpecialStyle: 0
WidescreenStoryboard: 0

[Editor]
Bookmarks: 881,13268,25655,38042,50429,53526,65913,78300,90687,106171,118558,130945,134042,146429,158816,171203,183590,195977,208364
DistanceSpacing: 2
BeatDivisor: 8
GridSize: 32
TimelineZoom: 2.799999

[Metadata]
Title:Magical Symphony
TitleUnicode:Magical Symphony
Artist:ADORA
ArtistUnicode:아도라
Creator:fvrex
Version:Magic Orchestra
Source:
Tags:xtrippin hytex 박수현 Park Soo-hyun soohyun Adorable REbirth aura entertainment Ultimate Rare Attractive 아우라 엔터테인먼트 사랑스러운 궁극의 희귀한 매력 kpop k-pop korean pop 1st mini album 문설리 Moon Seol-lee Strawberrybananaclub s2
BeatmapID:3829232
BeatmapSetID:1862341

[Difficulty]
HPDrainRate:8
CircleSize:4
OverallDifficulty:7.6
ApproachRate:5
SliderMultiplier:1.4
SliderTickRate:1

[Events]
//Background and Video events
0,0,"bg.jpg",0,0
//Break Periods
//Storyboard Layer 0 (Background)
//Storyboard Layer 1 (Fail)
//Storyboard Layer 2 (Pass)
//Storyboard Layer 3 (Foreground)
//Storyboard Layer 4 (Overlay)
//Storyboard Sound Samples

[TimingPoints]
863,387.096774193548,4,2,1,70,1,0
53508,-100,4,2,1,70,0,1
59701,-100,4,2,1,70,0,0
65895,-100,4,2,1,70,0,1
72088,-100,4,2,1,70,0,0
78282,-100,4,2,1,70,0,1
90669,-100,4,2,1,70,0,0
134024,-100,4,2,1,70,0,1
140217,-100,4,2,1,70,0,0
146411,-100,4,2,1,70,0,1
152604,-100,4,2,1,70,0,0
171185,-100,4,2,1,70,0,1
177379,-100,4,2,1,70,0,0
183572,-100,4,2,1,70,0,1
189766,-100,4,2,1,70,0,0
195959,-100,4,2,1,70,0,1
208346,-100,4,2,1,70,0,0

[HitObjects]
320,192,475,128,0,1056:0:0:0:0:
448,192,863,128,0,1153:0:0:0:0:
64,192,863,128,0,959:0:0:0:0:
192,192,1056,1,0,0:0:0:0:
192,192,1250,1,0,0:0:0:0:
320,192,1443,128,0,1540:0:0:0:0:
320,192,1637,1,0,0:0:0:0:
192,192,1733,1,0,0:0:0:0:
448,192,1830,1,0,0:0:0:0:
448,192,2024,1,0,0:0:0:0:
64,192,2217,128,0,2314:0:0:0:0:
64,192,2411,1,0,0:0:0:0:
192,192,2508,1,0,0:0:0:0:
320,192,2604,1,0,0:0:0:0:
320,192,2798,1,0,0:0:0:0:
192,192,2992,128,0,3088:0:0:0:0:
192,192,3185,128,0,3475:0:0:0:0:
448,192,3379,128,0,3669:0:0:0:0:
64,192,3572,128,0,3862:0:0:0:0:
320,192,3766,128,0,4056:0:0:0:0:
192,192,3862,1,0,0:0:0:0:
64,192,3959,128,0,4056:0:0:0:0:
448,192,3959,128,0,4056:0:0:0:0:
320,192,4153,1,0,0:0:0:0:
320,192,4346,1,0,0:0:0:0:
64,192,4540,128,0,4637:0:0:0:0:
64,192,4733,1,0,0:0:0:0:
320,192,4830,1,0,0:0:0:0:
192,192,4927,1,0,0:0:0:0:
192,192,5121,1,0,0:0:0:0:
448,192,5314,128,0,5411:0:0:0:0:
448,192,5508,1,0,0:0:0:0:
64,192,5604,1,0,0:0:0:0:
320,192,5701,1,0,0:0:0:0:
320,192,5895,1,0,0:0:0:0:
192,192,6088,128,0,6185:0:0:0:0:
192,192,6282,128,0,6572:0:0:0:0:
64,192,6475,128,0,6766:0:0:0:0:
320,192,6669,128,0,6959:0:0:0:0:
192,192,6669,128,0,6766:0:0:0:0:
448,192,6862,128,0,7153:0:0:0:0:
192,192,6959,1,0,0:0:0:0:
64,192,7056,128,0,7153:0:0:0:0:
320,192,7056,128,0,7153:0:0:0:0:
448,192,7250,1,0,0:0:0:0:
448,192,7443,1,0,0:0:0:0:
192,192,7637,128,0,7733:0:0:0:0:
192,192,7830,1,0,0:0:0:0:
448,192,7927,1,0,0:0:0:0:
64,192,8024,1,0,0:0:0:0:
64,192,8217,1,0,0:0:0:0:
320,192,8411,128,0,8508:0:0:0:0:
320,192,8604,1,0,0:0:0:0:
64,192,8701,1,0,0:0:0:0:
192,192,8798,1,0,0:0:0:0:
192,192,8992,1,0,0:0:0:0:
448,192,9185,128,0,9282:0:0:0:0:
448,192,9379,128,0,9669:0:0:0:0:
192,192,9572,128,0,9862:0:0:0:0:
320,192,9766,128,0,10056:0:0:0:0:
448,192,9766,128,0,9862:0:0:0:0:
64,192,9959,128,0,10250:0:0:0:0:
192,192,10056,1,0,0:0:0:0:
320,192,10153,128,0,10250:0:0:0:0:
448,192,10153,128,0,10733:0:0:0:0:
64,192,10346,1,0,0:0:0:0:
64,192,10540,1,0,0:0:0:0:
192,192,10733,128,0,11314:0:0:0:0:
320,192,10733,128,0,10830:0:0:0:0:
320,192,10927,1,0,0:0:0:0:
448,192,11024,1,0,0:0:0:0:
64,192,11121,1,0,0:0:0:0:
320,192,11314,128,0,11798:0:0:0:0:
64,192,11314,128,0,11411:0:0:0:0:
448,192,11508,128,0,11604:0:0:0:0:
192,192,11604,128,0,11701:0:0:0:0:
448,192,11701,128,0,12282:0:0:0:0:
64,192,11701,128,0,12088:0:0:0:0:
320,192,12088,128,0,12282:0:0:0:0:
192,192,12185,128,0,12282:0:0:0:0:
64,192,12282,128,0,12379:0:0:0:0:
320,192,12379,128,0,12572:0:0:0:0:
448,192,12475,128,0,12669:0:0:0:0:
192,192,12572,128,0,12766:0:0:0:0:
64,192,12669,128,0,12862:0:0:0:0:
320,192,12766,128,0,12862:0:0:0:0:
448,192,12862,128,0,12959:0:0:0:0:
192,192,12959,128,0,13056:0:0:0:0:
64,192,13056,128,0,13153:0:0:0:0:
320,192,13056,128,0,13346:0:0:0:0:
192,192,13250,128,0,13443:0:0:0:0:
448,192,13250,128,0,13637:0:0:0:0:
192,192,13540,128,0,13637:0:0:0:0:
64,192,13637,128,0,13733:0:0:0:0:
320,192,13637,1,0,0:0:0:0:
64,192,13830,128,0,14121:0:0:0:0:
320,192,13830,128,0,14024:0:0:0:0:
448,192,13927,128,0,14121:0:0:0:0:
192,192,14024,128,0,14314:0:0:0:0:
64,192,14217,128,0,14314:0:0:0:0:
320,192,14411,1,0,0:0:0:0:
448,192,14411,1,0,0:0:0:0:
320,192,14701,128,0,14895:0:0:0:0:
192,192,14798,128,0,14992:0:0:0:0:
448,192,14798,128,0,15185:0:0:0:0:
320,192,14992,1,0,0:0:0:0:
64,192,15088,128,0,15282:0:0:0:0:
192,192,15185,128,0,15282:0:0:0:0:
320,192,15185,1,0,0:0:0:0:
192,192,15379,128,0,15669:0:0:0:0:
64,192,15379,128,0,15572:0:0:0:0:
448,192,15475,128,0,15572:0:0:0:0:
320,192,15572,128,0,15766:0:0:0:0:
448,192,15766,1,0,0:0:0:0:
192,192,15766,128,0,16056:0:0:0:0:
320,192,15959,128,0,16056:0:0:0:0:
64,192,15959,1,0,0:0:0:0:
64,192,16153,128,0,16443:0:0:0:0:
448,192,16346,128,0,16733:0:0:0:0:
192,192,16346,128,0,16540:0:0:0:0:
320,192,16443,128,0,16540:0:0:0:0:
64,192,16637,128,0,16733:0:0:0:0:
320,192,16733,128,0,16830:0:0:0:0:
192,192,16733,1,0,0:0:0:0:
320,192,16927,128,0,17217:0:0:0:0:
64,192,16927,128,0,17121:0:0:0:0:
448,192,17024,128,0,17217:0:0:0:0:
192,192,17121,128,0,17411:0:0:0:0:
448,192,17314,128,0,17411:0:0:0:0:
448,192,17508,1,0,0:0:0:0:
192,192,17508,1,0,0:0:0:0:
64,192,17895,128,0,18185:0:0:0:0:
320,192,17895,128,0,17992:0:0:0:0:
448,192,18088,128,0,18379:0:0:0:0:
320,192,18088,128,0,18185:0:0:0:0:
192,192,18282,128,0,18379:0:0:0:0:
64,192,18282,1,0,0:0:0:0:
192,192,18475,128,0,18572:0:0:0:0:
448,192,18475,128,0,18669:0:0:0:0:
64,192,18669,128,0,18959:0:0:0:0:
448,192,18862,128,0,18959:0:0:0:0:
320,192,18862,128,0,19153:0:0:0:0:
64,192,19056,1,0,0:0:0:0:
192,192,19056,128,0,19346:0:0:0:0:
448,192,19250,128,0,19443:0:0:0:0:
320,192,19346,128,0,19540:0:0:0:0:
64,192,19443,128,0,19830:0:0:0:0:
192,192,19443,128,0,19637:0:0:0:0:
320,192,19733,128,0,19830:0:0:0:0:
448,192,19830,128,0,19927:0:0:0:0:
192,192,19830,1,0,0:0:0:0:
448,192,20024,128,0,20314:0:0:0:0:
64,192,20024,128,0,20217:0:0:0:0:
320,192,20121,128,0,20314:0:0:0:0:
192,192,20217,128,0,20508:0:0:0:0:
320,192,20411,128,0,20508:0:0:0:0:
320,192,20604,1,0,0:0:0:0:
64,192,20604,1,0,0:0:0:0:
192,192,20992,128,0,21379:0:0:0:0:
320,192,20992,128,0,21185:0:0:0:0:
448,192,21185,1,0,0:0:0:0:
320,192,21282,128,0,21475:0:0:0:0:
448,192,21379,128,0,21475:0:0:0:0:
64,192,21379,1,0,0:0:0:0:
320,192,21572,128,0,21862:0:0:0:0:
64,192,21572,128,0,21766:0:0:0:0:
192,192,21766,128,0,21862:0:0:0:0:
64,192,21862,128,0,22056:0:0:0:0:
192,192,21959,128,0,22056:0:0:0:0:
448,192,21959,1,0,0:0:0:0:
320,192,22153,128,0,22443:0:0:0:0:
64,192,22153,1,0,0:0:0:0:
192,192,22346,128,0,22540:0:0:0:0:
64,192,22443,128,0,22637:0:0:0:0:
448,192,22540,128,0,22830:0:0:0:0:
320,192,22540,128,0,22733:0:0:0:0:
192,192,22637,128,0,22927:0:0:0:0:
448,192,22927,128,0,23024:0:0:0:0:
64,192,22927,1,0,0:0:0:0:
192,192,23121,128,0,23701:0:0:0:0:
448,192,23121,128,0,23411:0:0:0:0:
320,192,23314,128,0,23411:0:0:0:0:
64,192,23508,128,0,23701:0:0:0:0:
320,192,23604,128,0,23701:0:0:0:0:
448,192,23701,128,0,23798:0:0:0:0:
448,192,23895,128,0,24862:0:0:0:0:
320,192,24088,128,0,24379:0:0:0:0:
64,192,24088,128,0,24185:0:0:0:0:
64,192,24282,128,0,24379:0:0:0:0:
192,192,24475,128,0,24572:0:0:0:0:
320,192,24475,1,0,0:0:0:0:
192,192,24669,128,0,25056:0:0:0:0:
320,192,24669,128,0,24862:0:0:0:0:
64,192,24862,128,0,25250:0:0:0:0:
320,192,25056,128,0,25153:0:0:0:0:
448,192,25056,128,0,25153:0:0:0:0:
448,192,25250,128,0,25443:0:0:0:0:
192,192,25443,128,0,25637:0:0:0:0:
320,192,25540,128,0,25637:0:0:0:0:
64,192,25637,128,0,25830:0:0:0:0:
448,192,25637,128,0,25733:0:0:0:0:
192,192,25927,128,0,26121:0:0:0:0:
320,192,26024,128,0,26121:0:0:0:0:
448,192,26217,128,0,26314:0:0:0:0:
320,192,26217,128,0,26314:0:0:0:0:
64,192,26314,128,0,26411:0:0:0:0:
320,192,26411,1,0,0:0:0:0:
448,192,26411,128,0,26604:0:0:0:0:
320,192,26701,128,0,26895:0:0:0:0:
192,192,26798,128,0,26992:0:0:0:0:
64,192,26798,1,0,0:0:0:0:
64,192,26992,128,0,27088:0:0:0:0:
448,192,27185,128,0,27379:0:0:0:0:
320,192,27185,128,0,27282:0:0:0:0:
64,192,27379,1,0,0:0:0:0:
192,192,27379,1,0,0:0:0:0:
320,192,27475,128,0,27669:0:0:0:0:
192,192,27572,128,0,27766:0:0:0:0:
448,192,27572,128,0,27669:0:0:0:0:
64,192,27766,128,0,27862:0:0:0:0:
320,192,27766,128,0,27862:0:0:0:0:
192,192,27959,1,0,0:0:0:0:
64,192,27959,128,0,28153:0:0:0:0:
192,192,28250,128,0,28443:0:0:0:0:
448,192,28346,1,0,0:0:0:0:
320,192,28346,128,0,28540:0:0:0:0:
448,192,28540,128,0,28637:0:0:0:0:
192,192,28733,1,0,0:0:0:0:
64,192,28733,128,0,28830:0:0:0:0:
192,192,28927,128,0,29217:0:0:0:0:
448,192,29121,1,0,0:0:0:0:
320,192,29121,128,0,29411:0:0:0:0:
448,192,29314,1,0,0:0:0:0:
64,192,29314,128,0,29508:0:0:0:0:
192,192,29508,1,0,0:0:0:0:
320,192,29508,128,0,29798:0:0:0:0:
448,192,29701,128,0,29992:0:0:0:0:
64,192,29895,1,0,0:0:0:0:
192,192,29895,128,0,30088:0:0:0:0:
448,192,30088,128,0,30379:0:0:0:0:
192,192,30282,128,0,30572:0:0:0:0:
64,192,30282,1,0,0:0:0:0:
448,192,30475,128,0,30669:0:0:0:0:
320,192,30475,1,0,0:0:0:0:
320,192,30669,1,0,0:0:0:0:
192,192,30669,128,0,31056:0:0:0:0:
64,192,30862,128,0,30959:0:0:0:0:
448,192,30959,128,0,31153:0:0:0:0:
64,192,31056,128,0,31250:0:0:0:0:
320,192,31056,128,0,31250:0:0:0:0:
192,192,31153,128,0,31346:0:0:0:0:
448,192,31250,128,0,31443:0:0:0:0:
320,192,31346,128,0,31443:0:0:0:0:
192,192,31443,128,0,31540:0:0:0:0:
64,192,31443,128,0,31637:0:0:0:0:
320,192,31540,128,0,31637:0:0:0:0:
448,192,31637,1,0,0:0:0:0:
192,192,31733,1,0,0:0:0:0:
64,192,31830,128,0,32024:0:0:0:0:
448,192,31830,128,0,31927:0:0:0:0:
320,192,31830,1,0,0:0:0:0:
192,192,32121,128,0,32314:0:0:0:0:
320,192,32217,128,0,32314:0:0:0:0:
448,192,32411,128,0,32508:0:0:0:0:
320,192,32411,128,0,32508:0:0:0:0:
64,192,32508,128,0,32604:0:0:0:0:
320,192,32604,1,0,0:0:0:0:
448,192,32604,128,0,32798:0:0:0:0:
320,192,32895,128,0,33088:0:0:0:0:
192,192,32992,128,0,33185:0:0:0:0:
64,192,32992,1,0,0:0:0:0:
64,192,33185,128,0,33282:0:0:0:0:
448,192,33379,128,0,33572:0:0:0:0:
320,192,33379,128,0,33475:0:0:0:0:
64,192,33572,1,0,0:0:0:0:
192,192,33572,1,0,0:0:0:0:
320,192,33669,128,0,33862:0:0:0:0:
192,192,33766,128,0,33959:0:0:0:0:
448,192,33766,128,0,33862:0:0:0:0:
64,192,33959,128,0,34056:0:0:0:0:
320,192,33959,128,0,34056:0:0:0:0:
192,192,34153,1,0,0:0:0:0:
64,192,34153,128,0,34346:0:0:0:0:
192,192,34443,128,0,34637:0:0:0:0:
448,192,34540,1,0,0:0:0:0:
320,192,34540,128,0,34733:0:0:0:0:
448,192,34733,128,0,34830:0:0:0:0:
192,192,34927,1,0,0:0:0:0:
64,192,34927,128,0,35024:0:0:0:0:
192,192,35121,128,0,35604:0:0:0:0:
320,192,35314,128,0,35508:0:0:0:0:
448,192,35314,1,0,0:0:0:0:
64,192,35508,128,0,35701:0:0:0:0:
448,192,35508,1,0,0:0:0:0:
320,192,35701,1,0,0:0:0:0:
192,192,35701,128,0,36185:0:0:0:0:
320,192,35895,128,0,36088:0:0:0:0:
448,192,36088,128,0,36282:0:0:0:0:
64,192,36088,1,0,0:0:0:0:
192,192,36282,128,0,36475:0:0:0:0:
64,192,36379,128,0,36475:0:0:0:0:
320,192,36475,128,0,36572:0:0:0:0:
320,192,36669,128,0,36766:0:0:0:0:
192,192,36862,128,0,37056:0:0:0:0:
448,192,36959,128,0,37153:0:0:0:0:
192,192,37250,128,0,37346:0:0:0:0:
320,192,37250,128,0,37637:0:0:0:0:
64,192,37346,128,0,37733:0:0:0:0:
192,192,37637,128,0,37830:0:0:0:0:
448,192,37733,128,0,37927:0:0:0:0:
320,192,37830,128,0,38024:0:0:0:0:
192,192,37927,128,0,38024:0:0:0:0:
64,192,38024,1,0,0:0:0:0:
448,192,38024,1,0,0:0:0:0:
64,192,38217,128,0,38411:0:0:0:0:
192,192,38411,128,0,38701:0:0:0:0:
320,192,38604,128,0,38798:0:0:0:0:
64,192,38798,128,0,38895:0:0:0:0:
448,192,38992,128,0,39282:0:0:0:0:
64,192,39185,128,0,39475:0:0:0:0:
192,192,39379,128,0,39572:0:0:0:0:
448,192,39475,128,0,39669:0:0:0:0:
320,192,39572,128,0,39862:0:0:0:0:
64,192,39572,1,0,0:0:0:0:
192,192,39766,128,0,39959:0:0:0:0:
64,192,39959,128,0,40056:0:0:0:0:
192,192,40250,128,0,40540:0:0:0:0:
448,192,40346,128,0,40637:0:0:0:0:
320,192,40733,128,0,40927:0:0:0:0:
320,192,41024,128,0,41314:0:0:0:0:
192,192,41121,128,0,41411:0:0:0:0:
64,192,41121,1,0,0:0:0:0:
448,192,41508,1,0,0:0:0:0:
64,192,41895,128,0,42379:0:0:0:0:
320,192,42282,128,0,42572:0:0:0:0:
192,192,42572,128,0,42862:0:0:0:0:
64,192,42669,128,0,42959:0:0:0:0:
448,192,42669,1,0,0:0:0:0:
192,192,43056,128,0,43153:0:0:0:0:
320,192,43346,128,0,43637:0:0:0:0:
448,192,43443,128,0,43637:0:0:0:0:
320,192,43830,128,0,43927:0:0:0:0:
64,192,44121,128,0,44411:0:0:0:0:
448,192,44217,128,0,44508:0:0:0:0:
320,192,44217,1,0,0:0:0:0:
320,192,44604,1,0,0:0:0:0:
448,192,44604,1,0,0:0:0:0:
320,192,44798,128,0,44895:0:0:0:0:
192,192,44992,128,0,45282:0:0:0:0:
320,192,45185,1,0,0:0:0:0:
64,192,45282,128,0,45572:0:0:0:0:
448,192,45379,128,0,45669:0:0:0:0:
192,192,45572,128,0,45766:0:0:0:0:
320,192,45766,1,0,0:0:0:0:
448,192,45766,1,0,0:0:0:0:
64,192,45959,1,0,0:0:0:0:
448,192,45959,1,0,0:0:0:0:
192,192,46346,128,0,46443:0:0:0:0:
448,192,46540,128,0,46733:0:0:0:0:
192,192,46733,128,0,47121:0:0:0:0:
320,192,46830,128,0,47217:0:0:0:0:
448,192,46927,1,0,0:0:0:0:
64,192,47121,128,0,47314:0:0:0:0:
320,192,47314,1,0,0:0:0:0:
448,192,47314,128,0,47411:0:0:0:0:
64,192,47701,1,0,0:0:0:0:
192,192,47701,128,0,47895:0:0:0:0:
320,192,47895,128,0,47992:0:0:0:0:
64,192,48088,128,0,48379:0:0:0:0:
320,192,48282,1,0,0:0:0:0:
448,192,48282,128,0,48475:0:0:0:0:
320,192,48475,128,0,48572:0:0:0:0:
64,192,48669,128,0,48862:0:0:0:0:
192,192,48766,128,0,48862:0:0:0:0:
320,192,48862,128,0,49153:0:0:0:0:
448,192,48862,128,0,48959:0:0:0:0:
192,192,48959,128,0,49056:0:0:0:0:
64,192,49056,128,0,49153:0:0:0:0:
448,192,49056,128,0,49250:0:0:0:0:
192,192,49153,128,0,49346:0:0:0:0:
64,192,49250,128,0,49443:0:0:0:0:
320,192,49250,128,0,49540:0:0:0:0:
448,192,49346,128,0,49540:0:0:0:0:
192,192,49443,128,0,49637:0:0:0:0:
64,192,49540,128,0,49637:0:0:0:0:
448,192,49637,1,0,0:0:0:0:
320,192,49637,128,0,49830:0:0:0:0:
192,192,49733,128,0,49927:0:0:0:0:
448,192,49830,128,0,50024:0:0:0:0:
64,192,49927,128,0,50024:0:0:0:0:
192,192,50024,1,0,0:0:0:0:
320,192,50024,1,0,0:0:0:0:
64,192,50411,1,0,0:0:0:0:
192,192,50411,128,0,50604:0:0:0:0:
320,192,50508,128,0,50701:0:0:0:0:
448,192,50604,128,0,50701:0:0:0:0:
64,192,50798,128,0,50992:0:0:0:0:
448,192,50798,128,0,50895:0:0:0:0:
192,192,50992,1,0,0:0:0:0:
448,192,51185,1,0,0:0:0:0:
320,192,51185,128,0,51379:0:0:0:0:
64,192,51282,128,0,51475:0:0:0:0:
448,192,51379,1,0,0:0:0:0:
192,192,51379,128,0,51475:0:0:0:0:
448,192,51572,128,0,51766:0:0:0:0:
64,192,51572,128,0,51669:0:0:0:0:
192,192,51766,1,0,0:0:0:0:
320,192,51862,1,0,0:0:0:0:
64,192,51959,1,0,0:0:0:0:
192,192,51959,128,0,52250:0:0:0:0:
448,192,52056,128,0,52250:0:0:0:0:
320,192,52153,128,0,52250:0:0:0:0:
64,192,52346,128,0,52637:0:0:0:0:
448,192,52346,128,0,52540:0:0:0:0:
192,192,52540,128,0,52733:0:0:0:0:
320,192,52733,128,0,52830:0:0:0:0:
448,192,52733,1,0,0:0:0:0:
64,192,52927,128,0,53411:0:0:0:0:
448,192,53121,128,0,53411:0:0:0:0:
320,192,53314,128,0,53508:0:0:0:0:
448,192,53508,128,0,53798:0:0:0:0:
192,192,53508,128,0,53604:0:0:0:0:
64,192,53508,128,0,53701:0:0:0:0:
320,192,53701,128,0,53992:0:0:0:0:
448,192,53895,128,0,54088:0:0:0:0:
64,192,53992,128,0,54185:0:0:0:0:
320,192,54088,1,0,0:0:0:0:
192,192,54088,128,0,54185:0:0:0:0:
64,192,54282,128,0,54572:0:0:0:0:
448,192,54282,128,0,54475:0:0:0:0:
192,192,54379,128,0,54572:0:0:0:0:
320,192,54475,128,0,54766:0:0:0:0:
448,192,54669,1,0,0:0:0:0:
192,192,54669,128,0,54862:0:0:0:0:
64,192,54766,128,0,54959:0:0:0:0:
320,192,54862,1,0,0:0:0:0:
448,192,55056,1,0,0:0:0:0:
192,192,55250,1,0,0:0:0:0:
64,192,55250,1,0,0:0:0:0:
320,192,55443,128,0,55733:0:0:0:0:
64,192,55443,128,0,55637:0:0:0:0:
448,192,55540,128,0,55637:0:0:0:0:
192,192,55637,128,0,55927:0:0:0:0:
320,192,55830,128,0,56121:0:0:0:0:
448,192,55830,128,0,55927:0:0:0:0:
448,192,56024,128,0,56314:0:0:0:0:
64,192,56024,128,0,56121:0:0:0:0:
192,192,56217,128,0,56508:0:0:0:0:
320,192,56217,128,0,56314:0:0:0:0:
64,192,56411,128,0,56701:0:0:0:0:
448,192,56411,128,0,56508:0:0:0:0:
320,192,56508,128,0,56604:0:0:0:0:
448,192,56604,128,0,56895:0:0:0:0:
192,192,56604,128,0,56701:0:0:0:0:
192,192,56798,128,0,57088:0:0:0:0:
64,192,56895,128,0,56992:0:0:0:0:
448,192,56992,128,0,57282:0:0:0:0:
320,192,57185,128,0,57282:0:0:0:0:
64,192,57185,1,0,0:0:0:0:
448,192,57379,128,0,57669:0:0:0:0:
64,192,57379,128,0,57572:0:0:0:0:
320,192,57475,128,0,57669:0:0:0:0:
192,192,57572,128,0,57862:0:0:0:0:
320,192,57766,128,0,57959:0:0:0:0:
64,192,57766,1,0,0:0:0:0:
448,192,57862,128,0,58056:0:0:0:0:
192,192,57959,1,0,0:0:0:0:
320,192,58153,1,0,0:0:0:0:
64,192,58346,128,0,58443:0:0:0:0:
64,192,58540,128,0,58830:0:0:0:0:
448,192,58540,128,0,58637:0:0:0:0:
320,192,58733,128,0,58927:0:0:0:0:
192,192,58830,128,0,59024:0:0:0:0:
448,192,58927,128,0,59024:0:0:0:0:
64,192,58927,128,0,59217:0:0:0:0:
448,192,59121,128,0,59217:0:0:0:0:
320,192,59121,1,0,0:0:0:0:
448,192,59314,128,0,59604:0:0:0:0:
192,192,59314,128,0,59411:0:0:0:0:
192,192,59508,128,0,59701:0:0:0:0:
64,192,59604,128,0,59701:0:0:0:0:
320,192,59701,128,0,59798:0:0:0:0:
448,192,59701,128,0,59992:0:0:0:0:
192,192,59798,128,0,59992:0:0:0:0:
448,192,60088,128,0,60379:0:0:0:0:
192,192,60088,128,0,60185:0:0:0:0:
64,192,60185,128,0,60379:0:0:0:0:
320,192,60282,1,0,0:0:0:0:
192,192,60282,1,0,0:0:0:0:
448,192,60475,128,0,60669:0:0:0:0:
64,192,60475,128,0,60572:0:0:0:0:
320,192,60572,128,0,60766:0:0:0:0:
192,192,60862,128,0,61153:0:0:0:0:
448,192,60862,128,0,60959:0:0:0:0:
320,192,61056,128,0,61250:0:0:0:0:
448,192,61153,128,0,61346:0:0:0:0:
192,192,61250,128,0,61346:0:0:0:0:
192,192,61443,128,0,61540:0:0:0:0:
320,192,61443,128,0,61733:0:0:0:0:
448,192,61637,128,0,61927:0:0:0:0:
64,192,61637,128,0,61733:0:0:0:0:
64,192,61830,128,0,62217:0:0:0:0:
192,192,61927,128,0,62024:0:0:0:0:
320,192,62024,128,0,62217:0:0:0:0:
448,192,62024,1,0,0:0:0:0:
192,192,62217,1,0,0:0:0:0:
448,192,62411,1,0,0:0:0:0:
448,192,62604,1,0,0:0:0:0:
320,192,62653,1,0,0:0:0:0:
64,192,62701,1,0,0:0:0:0:
192,192,62750,1,0,0:0:0:0:
448,192,62798,128,0,63088:0:0:0:0:
320,192,62798,128,0,62895:0:0:0:0:
64,192,62895,128,0,63088:0:0:0:0:
448,192,63185,128,0,63475:0:0:0:0:
320,192,63185,128,0,63282:0:0:0:0:
192,192,63282,128,0,63475:0:0:0:0:
64,192,63379,1,0,0:0:0:0:
320,192,63379,1,0,0:0:0:0:
64,192,63572,128,0,63669:0:0:0:0:
448,192,63572,128,0,63766:0:0:0:0:
320,192,63669,128,0,63862:0:0:0:0:
320,192,63959,128,0,64056:0:0:0:0:
64,192,63959,128,0,64250:0:0:0:0:
448,192,64153,128,0,64346:0:0:0:0:
320,192,64250,128,0,64443:0:0:0:0:
192,192,64346,128,0,64637:0:0:0:0:
320,192,64540,1,0,0:0:0:0:
448,192,64540,128,0,64733:0:0:0:0:
64,192,64733,128,0,64830:0:0:0:0:
320,192,64733,128,0,64927:0:0:0:0:
192,192,64830,128,0,65121:0:0:0:0:
448,192,64927,128,0,65024:0:0:0:0:
448,192,65121,128,0,65411:0:0:0:0:
64,192,65121,128,0,65217:0:0:0:0:
192,192,65314,128,0,65411:0:0:0:0:
320,192,65314,1,0,0:0:0:0:
448,192,65508,128,0,65798:0:0:0:0:
320,192,65508,128,0,65604:0:0:0:0:
192,192,65701,128,0,65895:0:0:0:0:
320,192,65798,128,0,65992:0:0:0:0:
64,192,65895,128,0,66185:0:0:0:0:
448,192,65895,128,0,66088:0:0:0:0:
192,192,66088,128,0,66475:0:0:0:0:
64,192,66282,128,0,66572:0:0:0:0:
320,192,66475,128,0,66572:0:0:0:0:
448,192,66475,128,0,66572:0:0:0:0:
448,192,66669,128,0,66959:0:0:0:0:
64,192,66669,128,0,66862:0:0:0:0:
320,192,66766,128,0,66959:0:0:0:0:
192,192,66862,128,0,67153:0:0:0:0:
320,192,67056,128,0,67250:0:0:0:0:
64,192,67056,1,0,0:0:0:0:
448,192,67153,128,0,67346:0:0:0:0:
192,192,67250,1,0,0:0:0:0:
320,192,67443,1,0,0:0:0:0:
64,192,67637,1,0,0:0:0:0:
192,192,67637,1,0,0:0:0:0:
192,192,67830,1,0,0:0:0:0:
64,192,67830,128,0,68121:0:0:0:0:
320,192,67927,128,0,68024:0:0:0:0:
192,192,68024,128,0,68314:0:0:0:0:
448,192,68217,128,0,68508:0:0:0:0:
64,192,68217,128,0,68314:0:0:0:0:
64,192,68411,128,0,68508:0:0:0:0:
192,192,68411,128,0,68701:0:0:0:0:
320,192,68604,128,0,68701:0:0:0:0:
448,192,68604,128,0,68895:0:0:0:0:
320,192,68798,128,0,69088:0:0:0:0:
64,192,68798,128,0,68895:0:0:0:0:
192,192,68895,128,0,68992:0:0:0:0:
64,192,68992,128,0,69282:0:0:0:0:
448,192,68992,128,0,69088:0:0:0:0:
320,192,69185,128,0,69475:0:0:0:0:
64,192,69379,128,0,69669:0:0:0:0:
192,192,69475,128,0,69572:0:0:0:0:
320,192,69572,128,0,69669:0:0:0:0:
448,192,69572,128,0,69669:0:0:0:0:
320,192,69766,128,0,70056:0:0:0:0:
64,192,69766,128,0,69959:0:0:0:0:
192,192,69862,128,0,70056:0:0:0:0:
448,192,69959,128,0,70250:0:0:0:0:
64,192,70153,128,0,70346:0:0:0:0:
320,192,70153,1,0,0:0:0:0:
192,192,70250,128,0,70443:0:0:0:0:
320,192,70346,128,0,70637:0:0:0:0:
192,192,70540,128,0,70637:0:0:0:0:
448,192,70733,128,0,70830:0:0:0:0:
448,192,70927,128,0,71217:0:0:0:0:
64,192,70927,128,0,71024:0:0:0:0:
192,192,71121,128,0,71314:0:0:0:0:
320,192,71217,128,0,71411:0:0:0:0:
448,192,71314,128,0,71604:0:0:0:0:
64,192,71314,128,0,71411:0:0:0:0:
192,192,71411,128,0,71508:0:0:0:0:
64,192,71508,128,0,71798:0:0:0:0:
320,192,71508,128,0,71604:0:0:0:0:
448,192,71701,128,0,71992:0:0:0:0:
192,192,71701,128,0,71798:0:0:0:0:
64,192,71895,128,0,71992:0:0:0:0:
320,192,71895,128,0,71992:0:0:0:0:
64,192,72088,128,0,72379:0:0:0:0:
192,192,72088,128,0,72185:0:0:0:0:
448,192,72185,128,0,72475:0:0:0:0:
320,192,72282,128,0,72475:0:0:0:0:
64,192,72475,128,0,72766:0:0:0:0:
192,192,72475,128,0,72572:0:0:0:0:
448,192,72572,128,0,72766:0:0:0:0:
320,192,72669,128,0,72766:0:0:0:0:
192,192,72669,1,0,0:0:0:0:
448,192,72862,128,0,72959:0:0:0:0:
64,192,72862,128,0,73153:0:0:0:0:
192,192,73056,128,0,73153:0:0:0:0:
448,192,73250,128,0,73540:0:0:0:0:
64,192,73250,128,0,73346:0:0:0:0:
320,192,73346,128,0,73540:0:0:0:0:
192,192,73443,128,0,73733:0:0:0:0:
64,192,73637,128,0,74024:0:0:0:0:
448,192,73637,128,0,73927:0:0:0:0:
320,192,73830,128,0,73927:0:0:0:0:
192,192,73830,1,0,0:0:0:0:
192,192,74024,128,0,74314:0:0:0:0:
448,192,74024,1,0,0:0:0:0:
64,192,74217,128,0,74411:0:0:0:0:
320,192,74314,128,0,74508:0:0:0:0:
448,192,74411,128,0,74701:0:0:0:0:
192,192,74411,128,0,74508:0:0:0:0:
192,192,74604,128,0,74701:0:0:0:0:
320,192,74798,128,0,74895:0:0:0:0:
64,192,74798,128,0,74992:0:0:0:0:
448,192,74992,1,0,0:0:0:0:
320,192,75040,1,0,0:0:0:0:
64,192,75088,1,0,0:0:0:0:
192,192,75137,1,0,0:0:0:0:
320,192,75185,128,0,75282:0:0:0:0:
448,192,75185,128,0,75475:0:0:0:0:
64,192,75282,128,0,75572:0:0:0:0:
192,192,75379,128,0,75572:0:0:0:0:
448,192,75572,128,0,75862:0:0:0:0:
320,192,75572,128,0,75669:0:0:0:0:
64,192,75669,128,0,75862:0:0:0:0:
192,192,75766,128,0,75862:0:0:0:0:
320,192,75766,1,0,0:0:0:0:
448,192,75959,128,0,76250:0:0:0:0:
320,192,75959,128,0,76056:0:0:0:0:
64,192,76056,128,0,76153:0:0:0:0:
192,192,76153,128,0,76250:0:0:0:0:
320,192,76250,1,0,0:0:0:0:
192,192,76346,128,0,76540:0:0:0:0:
448,192,76346,128,0,76637:0:0:0:0:
320,192,76540,128,0,76733:0:0:0:0:
192,192,76637,128,0,76830:0:0:0:0:
64,192,76733,128,0,76927:0:0:0:0:
448,192,76733,128,0,77121:0:0:0:0:
320,192,76927,1,0,0:0:0:0:
192,192,76927,1,0,0:0:0:0:
192,192,77121,1,0,0:0:0:0:
320,192,77121,1,0,0:0:0:0:
64,192,77314,128,0,77508:0:0:0:0:
192,192,77411,128,0,77604:0:0:0:0:
320,192,77508,128,0,77798:0:0:0:0:
448,192,77508,128,0,77701:0:0:0:0:
192,192,77701,128,0,77992:0:0:0:0:
64,192,77798,128,0,77895:0:0:0:0:
320,192,77895,128,0,78088:0:0:0:0:
64,192,78088,128,0,78669:0:0:0:0:
448,192,78088,128,0,78185:0:0:0:0:
192,192,78185,128,0,78475:0:0:0:0:
320,192,78282,128,0,78379:0:0:0:0:
448,192,78282,128,0,78379:0:0:0:0:
320,192,78669,128,0,78766:0:0:0:0:
448,192,78669,128,0,78766:0:0:0:0:
192,192,78862,1,0,0:0:0:0:
64,192,78862,1,0,0:0:0:0:
192,192,79056,128,0,79153:0:0:0:0:
320,192,79056,128,0,79250:0:0:0:0:
64,192,79153,128,0,79346:0:0:0:0:
448,192,79250,128,0,79346:0:0:0:0:
192,192,79250,128,0,79443:0:0:0:0:
320,192,79443,128,0,79540:0:0:0:0:
448,192,79443,128,0,79733:0:0:0:0:
64,192,79637,128,0,79733:0:0:0:0:
320,192,79637,128,0,79830:0:0:0:0:
192,192,79733,128,0,79830:0:0:0:0:
64,192,79830,128,0,79927:0:0:0:0:
448,192,79830,128,0,80024:0:0:0:0:
320,192,79927,128,0,80024:0:0:0:0:
64,192,80024,128,0,80314:0:0:0:0:
192,192,80024,128,0,80121:0:0:0:0:
448,192,80121,128,0,80217:0:0:0:0:
320,192,80217,128,0,80314:0:0:0:0:
192,192,80217,128,0,80314:0:0:0:0:
64,192,80604,128,0,80701:0:0:0:0:
320,192,80604,128,0,80798:0:0:0:0:
448,192,80701,128,0,80895:0:0:0:0:
64,192,80798,128,0,80895:0:0:0:0:
192,192,80798,128,0,80992:0:0:0:0:
448,192,80992,128,0,81088:0:0:0:0:
320,192,80992,128,0,81282:0:0:0:0:
192,192,81185,128,0,81282:0:0:0:0:
448,192,81185,128,0,81282:0:0:0:0:
192,192,81379,1,0,0:0:0:0:
64,192,81379,128,0,81475:0:0:0:0:
320,192,81379,1,0,0:0:0:0:
64,192,81766,128,0,81862:0:0:0:0:
320,192,81959,1,0,0:0:0:0:
448,192,81959,1,0,0:0:0:0:
64,192,82153,1,0,0:0:0:0:
448,192,82153,1,0,0:0:0:0:
64,192,82346,128,0,82443:0:0:0:0:
320,192,82540,1,0,0:0:0:0:
448,192,82540,1,0,0:0:0:0:
192,192,82733,128,0,83024:0:0:0:0:
448,192,82927,1,0,0:0:0:0:
320,192,82927,128,0,83121:0:0:0:0:
64,192,83121,128,0,83217:0:0:0:0:
192,192,83314,1,0,0:0:0:0:
448,192,83314,128,0,83508:0:0:0:0:
64,192,83508,128,0,83604:0:0:0:0:
448,192,83701,1,0,0:0:0:0:
320,192,83701,128,0,83895:0:0:0:0:
192,192,83798,128,0,83992:0:0:0:0:
64,192,83895,128,0,83992:0:0:0:0:
448,192,83895,1,0,0:0:0:0:
320,192,83992,128,0,84088:0:0:0:0:
64,192,84088,1,0,0:0:0:0:
192,192,84088,128,0,84282:0:0:0:0:
448,192,84185,128,0,84379:0:0:0:0:
320,192,84282,128,0,84379:0:0:0:0:
448,192,84475,128,0,84572:0:0:0:0:
64,192,84475,1,0,0:0:0:0:
320,192,84475,128,0,84669:0:0:0:0:
192,192,84572,128,0,84766:0:0:0:0:
448,192,84669,128,0,84766:0:0:0:0:
64,192,84766,128,0,84862:0:0:0:0:
320,192,84862,128,0,84959:0:0:0:0:
448,192,84862,128,0,84959:0:0:0:0:
448,192,85056,1,0,0:0:0:0:
64,192,85056,1,0,0:0:0:0:
192,192,85250,128,0,85346:0:0:0:0:
320,192,85250,128,0,85443:0:0:0:0:
192,192,85443,128,0,85637:0:0:0:0:
448,192,85443,128,0,85540:0:0:0:0:
320,192,85637,128,0,85733:0:0:0:0:
448,192,85637,128,0,85830:0:0:0:0:
192,192,85830,128,0,86024:0:0:0:0:
64,192,85830,128,0,85927:0:0:0:0:
320,192,86024,128,0,86121:0:0:0:0:
64,192,86024,128,0,86217:0:0:0:0:
192,192,86217,128,0,86314:0:0:0:0:
320,192,86217,128,0,86411:0:0:0:0:
448,192,86411,128,0,86508:0:0:0:0:
192,192,86411,128,0,86508:0:0:0:0:
64,192,86798,1,0,0:0:0:0:
448,192,86798,1,0,0:0:0:0:
320,192,86992,1,0,0:0:0:0:
448,192,86992,1,0,0:0:0:0:
192,192,87185,128,0,87379:0:0:0:0:
64,192,87185,128,0,87282:0:0:0:0:
64,192,87379,128,0,87572:0:0:0:0:
320,192,87379,128,0,87475:0:0:0:0:
320,192,87572,128,0,87766:0:0:0:0:
448,192,87572,128,0,87669:0:0:0:0:
192,192,87766,128,0,87959:0:0:0:0:
64,192,87766,128,0,87862:0:0:0:0:
64,192,87959,128,0,88056:0:0:0:0:
448,192,87959,128,0,88056:0:0:0:0:
320,192,88153,1,0,0:0:0:0:
448,192,88153,1,0,0:0:0:0:
192,192,88346,128,0,88540:0:0:0:0:
320,192,88346,128,0,88443:0:0:0:0:
192,192,88733,128,0,88830:0:0:0:0:
64,192,88733,128,0,88830:0:0:0:0:
448,192,88927,1,0,0:0:0:0:
320,192,89121,128,0,89217:0:0:0:0:
192,192,89121,128,0,89217:0:0:0:0:
64,192,89314,1,0,0:0:0:0:
448,192,89314,1,0,0:0:0:0:
320,192,89508,128,0,89604:0:0:0:0:
448,192,89508,128,0,89604:0:0:0:0:
64,192,89895,128,0,89992:0:0:0:0:
448,192,89895,128,0,90088:0:0:0:0:
64,192,90088,128,0,90185:0:0:0:0:
192,192,90088,128,0,90282:0:0:0:0:
448,192,90282,128,0,90475:0:0:0:0:
64,192,90282,128,0,90475:0:0:0:0:
192,192,90475,1,0,0:0:0:0:
320,192,90475,1,0,0:0:0:0:
64,192,90669,1,0,0:0:0:0:
448,192,90669,1,0,0:0:0:0:
320,192,91056,1,0,0:0:0:0:
192,192,91250,1,0,0:0:0:0:
320,192,91443,1,0,0:0:0:0:
192,192,91830,1,0,0:0:0:0:
64,192,92217,1,0,0:0:0:0:
448,192,92604,1,0,0:0:0:0:
192,192,92992,1,0,0:0:0:0:
192,192,93379,128,0,93475:0:0:0:0:
64,192,93766,1,0,0:0:0:0:
320,192,93766,128,0,94056:0:0:0:0:
448,192,93862,128,0,94250:0:0:0:0:
320,192,94153,128,0,94346:0:0:0:0:
192,192,94443,128,0,94637:0:0:0:0:
448,192,94540,128,0,94733:0:0:0:0:
320,192,94540,1,0,0:0:0:0:
64,192,94927,1,0,0:0:0:0:
320,192,95314,128,0,95604:0:0:0:0:
64,192,95411,128,0,95508:0:0:0:0:
192,192,95508,128,0,95798:0:0:0:0:
448,192,95701,128,0,95798:0:0:0:0:
64,192,95701,1,0,0:0:0:0:
448,192,95895,128,0,95992:0:0:0:0:
448,192,96088,128,0,96282:0:0:0:0:
192,192,96088,128,0,96185:0:0:0:0:
192,192,96282,1,0,0:0:0:0:
320,192,96379,1,0,0:0:0:0:
64,192,96475,128,0,96766:0:0:0:0:
192,192,96669,128,0,96766:0:0:0:0:
448,192,96862,128,0,97153:0:0:0:0:
64,192,96862,1,0,0:0:0:0:
192,192,96959,128,0,97346:0:0:0:0:
320,192,97153,128,0,97250:0:0:0:0:
448,192,97250,128,0,97443:0:0:0:0:
64,192,97250,1,0,0:0:0:0:
64,192,97540,128,0,97733:0:0:0:0:
320,192,97637,128,0,97927:0:0:0:0:
448,192,97637,1,0,0:0:0:0:
192,192,97830,128,0,98024:0:0:0:0:
320,192,98024,1,0,0:0:0:0:
448,192,98411,128,0,98508:0:0:0:0:
448,192,98604,128,0,98895:0:0:0:0:
320,192,98701,1,0,0:0:0:0:
192,192,98798,128,0,99088:0:0:0:0:
64,192,98798,1,0,0:0:0:0:
320,192,98992,128,0,99088:0:0:0:0:
64,192,99185,1,0,0:0:0:0:
320,192,99185,128,0,99475:0:0:0:0:
448,192,99282,128,0,99379:0:0:0:0:
64,192,99379,128,0,99669:0:0:0:0:
192,192,99379,1,0,0:0:0:0:
192,192,99572,128,0,99766:0:0:0:0:
448,192,99669,128,0,100056:0:0:0:0:
320,192,99766,128,0,99862:0:0:0:0:
64,192,99766,1,0,0:0:0:0:
64,192,99959,128,0,100733:0:0:0:0:
320,192,99959,128,0,100346:0:0:0:0:
448,192,100346,1,0,0:0:0:0:
192,192,100540,1,0,0:0:0:0:
320,192,100733,1,0,0:0:0:0:
448,192,100733,128,0,101508:0:0:0:0:
192,192,100830,128,0,101121:0:0:0:0:
320,192,101121,1,0,0:0:0:0:
64,192,101314,128,0,101604:0:0:0:0:
320,192,101508,128,0,101798:0:0:0:0:
192,192,101604,128,0,101701:0:0:0:0:
448,192,101701,128,0,101992:0:0:0:0:
64,192,101895,128,0,101992:0:0:0:0:
192,192,101895,1,0,0:0:0:0:
64,192,102088,128,0,102282:0:0:0:0:
448,192,102282,128,0,102379:0:0:0:0:
320,192,102282,128,0,102572:0:0:0:0:
192,192,102475,128,0,102766:0:0:0:0:
64,192,102475,1,0,0:0:0:0:
448,192,102669,128,0,103056:0:0:0:0:
192,192,102862,128,0,103056:0:0:0:0:
320,192,102862,1,0,0:0:0:0:
64,192,103056,128,0,103250:0:0:0:0:
320,192,103153,128,0,103346:0:0:0:0:
192,192,103250,128,0,103443:0:0:0:0:
64,192,103346,128,0,103540:0:0:0:0:
448,192,103443,128,0,103733:0:0:0:0:
320,192,103443,1,0,0:0:0:0:
192,192,103637,128,0,103830:0:0:0:0:
320,192,103733,128,0,104024:0:0:0:0:
64,192,103830,1,0,0:0:0:0:
448,192,103830,1,0,0:0:0:0:
192,192,104024,1,0,0:0:0:0:
64,192,104217,1,0,0:0:0:0:
320,192,104604,1,0,0:0:0:0:
192,192,104798,1,0,0:0:0:0:
448,192,104798,1,0,0:0:0:0:
64,192,104992,128,0,105282:0:0:0:0:
320,192,104992,128,0,105185:0:0:0:0:
448,192,105185,1,0,0:0:0:0:
320,192,105282,1,0,0:0:0:0:
64,192,105379,1,0,0:0:0:0:
192,192,105475,1,0,0:0:0:0:
64,192,105572,1,0,0:0:0:0:
448,192,105766,1,0,0:0:0:0:
320,192,105862,1,0,0:0:0:0:
448,192,105959,1,0,0:0:0:0:
448,192,106153,1,0,0:0:0:0:
320,192,106153,128,0,106443:0:0:0:0:
64,192,106346,1,0,0:0:0:0:
192,192,106346,128,0,106637:0:0:0:0:
320,192,106540,128,0,106830:0:0:0:0:
448,192,106637,128,0,106830:0:0:0:0:
192,192,106733,128,0,107024:0:0:0:0:
320,192,106927,128,0,107024:0:0:0:0:
64,192,106927,128,0,107024:0:0:0:0:
448,192,107121,128,0,107508:0:0:0:0:
320,192,107217,128,0,107604:0:0:0:0:
64,192,107314,1,0,0:0:0:0:
192,192,107314,1,0,0:0:0:0:
64,192,107508,1,0,0:0:0:0:
192,192,107508,1,0,0:0:0:0:
320,192,107701,1,0,0:0:0:0:
448,192,107701,128,0,107992:0:0:0:0:
64,192,107895,128,0,108185:0:0:0:0:
192,192,107895,1,0,0:0:0:0:
320,192,108088,1,0,0:0:0:0:
448,192,108088,128,0,108379:0:0:0:0:
64,192,108282,128,0,108572:0:0:0:0:
192,192,108379,1,0,0:0:0:0:
320,192,108475,128,0,108572:0:0:0:0:
448,192,108475,128,0,108572:0:0:0:0:
64,192,108669,1,0,0:0:0:0:
192,192,108669,128,0,108862:0:0:0:0:
320,192,108766,1,0,0:0:0:0:
64,192,108862,1,0,0:0:0:0:
448,192,108862,1,0,0:0:0:0:
192,192,109056,1,0,0:0:0:0:
320,192,109056,1,0,0:0:0:0:
64,192,109153,1,0,0:0:0:0:
448,192,109250,1,0,0:0:0:0:
320,192,109250,128,0,109540:0:0:0:0:
64,192,109443,1,0,0:0:0:0:
192,192,109443,128,0,109733:0:0:0:0:
320,192,109637,128,0,109927:0:0:0:0:
448,192,109733,128,0,109927:0:0:0:0:
192,192,109830,128,0,110121:0:0:0:0:
320,192,110024,128,0,110121:0:0:0:0:
64,192,110024,128,0,110121:0:0:0:0:
448,192,110217,128,0,110604:0:0:0:0:
320,192,110314,128,0,110701:0:0:0:0:
192,192,110411,1,0,0:0:0:0:
64,192,110411,1,0,0:0:0:0:
64,192,110604,1,0,0:0:0:0:
192,192,110604,1,0,0:0:0:0:
320,192,110798,1,0,0:0:0:0:
448,192,110798,128,0,111088:0:0:0:0:
64,192,110992,128,0,111282:0:0:0:0:
192,192,110992,1,0,0:0:0:0:
320,192,111185,1,0,0:0:0:0:
448,192,111185,128,0,111475:0:0:0:0:
64,192,111379,128,0,111669:0:0:0:0:
192,192,111475,1,0,0:0:0:0:
320,192,111572,128,0,111669:0:0:0:0:
448,192,111572,128,0,111766:0:0:0:0:
320,192,111766,128,0,111959:0:0:0:0:
64,192,111766,128,0,111862:0:0:0:0:
64,192,111959,128,0,112153:0:0:0:0:
192,192,111959,128,0,112056:0:0:0:0:
192,192,112153,128,0,112346:0:0:0:0:
448,192,112153,128,0,112250:0:0:0:0:
64,192,112250,1,0,0:0:0:0:
448,192,112346,128,0,112540:0:0:0:0:
320,192,112346,128,0,112540:0:0:0:0:
64,192,112443,128,0,112637:0:0:0:0:
192,192,112540,128,0,112637:0:0:0:0:
320,192,112637,128,0,112733:0:0:0:0:
192,192,112733,128,0,112927:0:0:0:0:
320,192,112830,128,0,113024:0:0:0:0:
448,192,112927,128,0,113024:0:0:0:0:
64,192,112927,128,0,113314:0:0:0:0:
448,192,113121,1,0,0:0:0:0:
320,192,113121,128,0,113314:0:0:0:0:
192,192,113314,1,0,0:0:0:0:
448,192,113314,1,0,0:0:0:0:
64,192,113508,1,0,0:0:0:0:
192,192,113508,128,0,113604:0:0:0:0:
320,192,113701,1,0,0:0:0:0:
448,192,113895,128,0,114185:0:0:0:0:
64,192,114088,128,0,114379:0:0:0:0:
448,192,114282,128,0,114572:0:0:0:0:
320,192,114282,1,0,0:0:0:0:
64,192,114475,128,0,114766:0:0:0:0:
192,192,114572,1,0,0:0:0:0:
320,192,114669,128,0,114766:0:0:0:0:
448,192,114669,128,0,114862:0:0:0:0:
320,192,114862,128,0,115056:0:0:0:0:
64,192,114862,1,0,0:0:0:0:
192,192,115056,128,0,115153:0:0:0:0:
64,192,115056,128,0,115250:0:0:0:0:
192,192,115250,128,0,115443:0:0:0:0:
448,192,115443,1,0,0:0:0:0:
320,192,115443,128,0,115637:0:0:0:0:
64,192,115540,128,0,115733:0:0:0:0:
192,192,115637,128,0,115830:0:0:0:0:
448,192,115733,128,0,115830:0:0:0:0:
320,192,115830,128,0,115927:0:0:0:0:
448,192,115927,128,0,116024:0:0:0:0:
64,192,116024,128,0,116121:0:0:0:0:
192,192,116024,128,0,116217:0:0:0:0:
320,192,116121,128,0,116314:0:0:0:0:
64,192,116217,1,0,0:0:0:0:
448,192,116217,1,0,0:0:0:0:
320,192,116411,1,0,0:0:0:0:
448,192,116411,1,0,0:0:0:0:
320,192,116604,1,0,0:0:0:0:
448,192,116604,1,0,0:0:0:0:
64,192,116798,1,0,0:0:0:0:
320,192,116992,128,0,117282:0:0:0:0:
192,192,117185,128,0,117379:0:0:0:0:
64,192,117185,1,0,0:0:0:0:
320,192,117379,5,0,0:0:0:0:
448,192,117379,1,0,0:0:0:0:
64,192,117475,1,0,0:0:0:0:
320,192,117572,1,0,0:0:0:0:
192,192,117669,1,0,0:0:0:0:
448,192,117766,128,0,117959:0:0:0:0:
320,192,117862,128,0,117959:0:0:0:0:
192,192,117959,128,0,118056:0:0:0:0:
448,192,118056,128,0,118153:0:0:0:0:
64,192,118153,128,0,118346:0:0:0:0:
192,192,118250,128,0,118443:0:0:0:0:
320,192,118346,128,0,118540:0:0:0:0:
64,192,118443,128,0,118637:0:0:0:0:
192,192,118540,128,0,118927:0:0:0:0:
448,192,118540,128,0,118637:0:0:0:0:
320,192,118733,128,0,119024:0:0:0:0:
64,192,118830,128,0,118927:0:0:0:0:
448,192,118927,128,0,119217:0:0:0:0:
192,192,119121,128,0,119411:0:0:0:0:
64,192,119314,128,0,119411:0:0:0:0:
320,192,119508,128,0,119604:0:0:0:0:
320,192,119701,128,0,119992:0:0:0:0:
64,192,119895,128,0,120088:0:0:0:0:
192,192,119992,128,0,120185:0:0:0:0:
320,192,120088,1,0,0:0:0:0:
448,192,120088,128,0,120379:0:0:0:0:
192,192,120282,128,0,120475:0:0:0:0:
64,192,120475,128,0,120572:0:0:0:0:
320,192,120669,128,0,121056:0:0:0:0:
192,192,120766,128,0,120959:0:0:0:0:
64,192,120862,128,0,121153:0:0:0:0:
448,192,120862,1,0,0:0:0:0:
320,192,121250,128,0,121540:0:0:0:0:
64,192,121346,128,0,121443:0:0:0:0:
64,192,121540,128,0,121830:0:0:0:0:
448,192,121637,128,0,122024:0:0:0:0:
320,192,121637,128,0,121733:0:0:0:0:
192,192,121733,128,0,121927:0:0:0:0:
320,192,122411,128,0,122604:0:0:0:0:
448,192,122508,128,0,122701:0:0:0:0:
448,192,122798,128,0,123088:0:0:0:0:
320,192,122895,128,0,123088:0:0:0:0:
64,192,122992,128,0,123379:0:0:0:0:
192,192,123088,128,0,123185:0:0:0:0:
320,192,123185,128,0,123572:0:0:0:0:
448,192,123185,128,0,123862:0:0:0:0:
192,192,123379,128,0,123475:0:0:0:0:
64,192,123572,128,0,123669:0:0:0:0:
64,192,123766,128,0,124056:0:0:0:0:
320,192,123862,128,0,123959:0:0:0:0:
192,192,123959,128,0,124443:0:0:0:0:
448,192,123959,128,0,124250:0:0:0:0:
64,192,124153,128,0,124250:0:0:0:0:
320,192,124346,128,0,124540:0:0:0:0:
320,192,124637,128,0,124830:0:0:0:0:
64,192,124733,128,0,125024:0:0:0:0:
448,192,124733,128,0,124830:0:0:0:0:
320,192,124927,128,0,125024:0:0:0:0:
64,192,125121,1,0,0:0:0:0:
192,192,125121,1,0,0:0:0:0:
320,192,125217,128,0,125411:0:0:0:0:
448,192,125314,128,0,125508:0:0:0:0:
64,192,125508,128,0,125895:0:0:0:0:
192,192,125604,128,0,125798:0:0:0:0:
448,192,125701,1,0,0:0:0:0:
320,192,125798,128,0,125992:0:0:0:0:
448,192,125895,128,0,126185:0:0:0:0:
320,192,126088,128,0,126282:0:0:0:0:
192,192,126185,128,0,126379:0:0:0:0:
64,192,126282,128,0,126475:0:0:0:0:
448,192,126282,128,0,126572:0:0:0:0:
320,192,126475,1,0,0:0:0:0:
192,192,126766,128,0,126959:0:0:0:0:
448,192,126862,128,0,127056:0:0:0:0:
320,192,126959,128,0,127056:0:0:0:0:
64,192,127056,128,0,127346:0:0:0:0:
192,192,127056,1,0,0:0:0:0:
320,192,127153,128,0,127250:0:0:0:0:
448,192,127346,128,0,127637:0:0:0:0:
192,192,127443,128,0,127733:0:0:0:0:
64,192,127443,1,0,0:0:0:0:
320,192,127637,128,0,127927:0:0:0:0:
192,192,127830,128,0,127927:0:0:0:0:
64,192,127830,128,0,128121:0:0:0:0:
448,192,128217,128,0,128508:0:0:0:0:
192,192,128314,128,0,128411:0:0:0:0:
64,192,128411,128,0,128604:0:0:0:0:
320,192,128508,128,0,128701:0:0:0:0:
192,192,128604,1,0,0:0:0:0:
448,192,128604,128,0,128895:0:0:0:0:
64,192,128798,128,0,129088:0:0:0:0:
320,192,128992,128,0,129282:0:0:0:0:
448,192,128992,1,0,0:0:0:0:
192,192,129185,128,0,129379:0:0:0:0:
64,192,129282,128,0,129475:0:0:0:0:
448,192,129379,128,0,129669:0:0:0:0:
320,192,129379,128,0,129475:0:0:0:0:
192,192,129475,128,0,129669:0:0:0:0:
64,192,129572,128,0,129766:0:0:0:0:
320,192,129669,128,0,129862:0:0:0:0:
448,192,129766,128,0,129959:0:0:0:0:
64,192,129862,128,0,130153:0:0:0:0:
192,192,129959,128,0,130153:0:0:0:0:
320,192,130056,128,0,130250:0:0:0:0:
448,192,130153,128,0,130250:0:0:0:0:
192,192,130250,128,0,130346:0:0:0:0:
320,192,130346,128,0,130443:0:0:0:0:
64,192,130443,128,0,130540:0:0:0:0:
448,192,130540,1,0,0:0:0:0:
192,192,130540,1,0,0:0:0:0:
320,192,130733,1,0,0:0:0:0:
192,192,130830,1,0,0:0:0:0:
64,192,130927,1,0,0:0:0:0:
448,192,130927,128,0,131217:0:0:0:0:
320,192,131024,128,0,131217:0:0:0:0:
192,192,131314,128,0,131604:0:0:0:0:
320,192,131314,1,0,0:0:0:0:
448,192,131508,128,0,131701:0:0:0:0:
64,192,131701,128,0,131992:0:0:0:0:
448,192,131798,128,0,131895:0:0:0:0:
192,192,131895,128,0,132088:0:0:0:0:
320,192,131992,128,0,132088:0:0:0:0:
64,192,132088,1,0,0:0:0:0:
448,192,132088,128,0,132379:0:0:0:0:
320,192,132282,128,0,132379:0:0:0:0:
64,192,132379,1,0,0:0:0:0:
192,192,132475,1,0,0:0:0:0:
320,192,132475,128,0,132766:0:0:0:0:
448,192,132572,128,0,132669:0:0:0:0:
64,192,132669,128,0,132959:0:0:0:0:
192,192,132766,1,0,0:0:0:0:
448,192,132862,128,0,133153:0:0:0:0:
320,192,132862,128,0,133056:0:0:0:0:
192,192,133056,128,0,133153:0:0:0:0:
192,192,133250,1,0,0:0:0:0:
448,192,133250,1,0,0:0:0:0:
64,192,133443,128,0,133733:0:0:0:0:
320,192,133637,128,0,133733:0:0:0:0:
320,192,133830,128,0,134024:0:0:0:0:
192,192,133927,128,0,134121:0:0:0:0:
64,192,134024,128,0,134217:0:0:0:0:
448,192,134024,128,0,134314:0:0:0:0:
320,192,134217,128,0,134411:0:0:0:0:
64,192,134411,1,0,0:0:0:0:
192,192,134411,128,0,134604:0:0:0:0:
448,192,134508,128,0,134701:0:0:0:0:
320,192,134604,128,0,134701:0:0:0:0:
64,192,134604,1,0,0:0:0:0:
448,192,134798,1,0,0:0:0:0:
192,192,134798,128,0,135088:0:0:0:0:
320,192,134895,128,0,135282:0:0:0:0:
448,192,134992,128,0,135185:0:0:0:0:
192,192,135185,128,0,135379:0:0:0:0:
64,192,135185,128,0,135475:0:0:0:0:
448,192,135379,1,0,0:0:0:0:
320,192,135572,1,0,0:0:0:0:
448,192,135572,1,0,0:0:0:0:
64,192,135766,1,0,0:0:0:0:
320,192,135766,1,0,0:0:0:0:
64,192,135959,1,0,0:0:0:0:
192,192,135959,128,0,136056:0:0:0:0:
192,192,136153,128,0,136250:0:0:0:0:
64,192,136346,128,0,136637:0:0:0:0:
448,192,136346,128,0,136540:0:0:0:0:
192,192,136540,128,0,136637:0:0:0:0:
320,192,136540,1,0,0:0:0:0:
64,192,136733,128,0,136927:0:0:0:0:
192,192,136733,128,0,137024:0:0:0:0:
448,192,136927,1,0,0:0:0:0:
320,192,136927,128,0,137121:0:0:0:0:
64,192,137024,128,0,137217:0:0:0:0:
448,192,137121,128,0,137411:0:0:0:0:
192,192,137121,128,0,137314:0:0:0:0:
320,192,137314,128,0,137508:0:0:0:0:
64,192,137508,1,0,0:0:0:0:
192,192,137508,128,0,137701:0:0:0:0:
448,192,137604,128,0,137798:0:0:0:0:
320,192,137701,128,0,137895:0:0:0:0:
64,192,137701,1,0,0:0:0:0:
192,192,137895,128,0,138185:0:0:0:0:
448,192,137895,1,0,0:0:0:0:
320,192,137992,128,0,138379:0:0:0:0:
448,192,138088,128,0,138282:0:0:0:0:
192,192,138282,128,0,138475:0:0:0:0:
64,192,138282,128,0,138572:0:0:0:0:
448,192,138475,1,0,0:0:0:0:
320,192,138669,1,0,0:0:0:0:
448,192,138669,1,0,0:0:0:0:
64,192,138862,128,0,138959:0:0:0:0:
192,192,139056,1,0,0:0:0:0:
64,192,139056,128,0,139250:0:0:0:0:
320,192,139250,128,0,139443:0:0:0:0:
192,192,139346,128,0,139540:0:0:0:0:
64,192,139443,128,0,139733:0:0:0:0:
448,192,139443,1,0,0:0:0:0:
320,192,139637,128,0,139733:0:0:0:0:
448,192,139637,1,0,0:0:0:0:
64,192,139830,1,0,0:0:0:0:
192,192,139830,128,0,140024:0:0:0:0:
320,192,139927,128,0,140121:0:0:0:0:
448,192,140024,128,0,140121:0:0:0:0:
64,192,140024,128,0,140121:0:0:0:0:
448,192,140217,128,0,140508:0:0:0:0:
320,192,140217,1,0,0:0:0:0:
192,192,140314,128,0,140508:0:0:0:0:
320,192,140411,128,0,140508:0:0:0:0:
64,192,140604,1,0,0:0:0:0:
448,192,140604,128,0,140895:0:0:0:0:
192,192,140701,128,0,140895:0:0:0:0:
320,192,140798,128,0,140895:0:0:0:0:
64,192,140798,1,0,0:0:0:0:
320,192,140992,128,0,141088:0:0:0:0:
192,192,140992,128,0,141185:0:0:0:0:
64,192,141088,128,0,141185:0:0:0:0:
448,192,141379,1,0,0:0:0:0:
64,192,141379,128,0,141669:0:0:0:0:
192,192,141572,128,0,141766:0:0:0:0:
320,192,141669,128,0,141766:0:0:0:0:
64,192,141766,128,0,141862:0:0:0:0:
448,192,141766,1,0,0:0:0:0:
448,192,141959,128,0,142056:0:0:0:0:
320,192,141959,1,0,0:0:0:0:
64,192,142153,1,0,0:0:0:0:
448,192,142153,128,0,142346:0:0:0:0:
320,192,142250,128,0,142346:0:0:0:0:
192,192,142346,128,0,142540:0:0:0:0:
320,192,142443,128,0,142637:0:0:0:0:
448,192,142540,1,0,0:0:0:0:
64,192,142540,128,0,142733:0:0:0:0:
192,192,142637,128,0,142733:0:0:0:0:
448,192,142733,1,0,0:0:0:0:
320,192,142733,128,0,142927:0:0:0:0:
192,192,142830,128,0,142927:0:0:0:0:
64,192,142927,1,0,0:0:0:0:
448,192,142927,1,0,0:0:0:0:
320,192,143121,1,0,0:0:0:0:
448,192,143169,1,0,0:0:0:0:
192,192,143217,1,0,0:0:0:0:
64,192,143266,1,0,0:0:0:0:
320,192,143314,1,0,0:0:0:0:
448,192,143314,128,0,143604:0:0:0:0:
192,192,143411,128,0,143604:0:0:0:0:
320,192,143508,128,0,143604:0:0:0:0:
64,192,143701,1,0,0:0:0:0:
448,192,143701,128,0,143992:0:0:0:0:
192,192,143798,128,0,143992:0:0:0:0:
320,192,143895,128,0,143992:0:0:0:0:
64,192,143895,1,0,0:0:0:0:
192,192,144088,128,0,144282:0:0:0:0:
320,192,144088,128,0,144185:0:0:0:0:
64,192,144185,128,0,144282:0:0:0:0:
64,192,144475,128,0,144766:0:0:0:0:
448,192,144475,1,0,0:0:0:0:
320,192,144669,128,0,144862:0:0:0:0:
192,192,144766,128,0,144862:0:0:0:0:
64,192,144862,1,0,0:0:0:0:
448,192,144862,128,0,145056:0:0:0:0:
320,192,144959,128,0,145153:0:0:0:0:
192,192,145056,128,0,145153:0:0:0:0:
64,192,145056,1,0,0:0:0:0:
448,192,145153,128,0,145250:0:0:0:0:
192,192,145250,128,0,145346:0:0:0:0:
320,192,145250,1,0,0:0:0:0:
192,192,145443,128,0,145540:0:0:0:0:
448,192,145637,1,0,0:0:0:0:
64,192,145637,128,0,145927:0:0:0:0:
192,192,145830,128,0,145927:0:0:0:0:
64,192,146024,128,0,146217:0:0:0:0:
192,192,146024,128,0,146314:0:0:0:0:
320,192,146217,128,0,146411:0:0:0:0:
64,192,146314,128,0,146508:0:0:0:0:
192,192,146411,128,0,146604:0:0:0:0:
448,192,146411,128,0,146701:0:0:0:0:
320,192,146604,128,0,146798:0:0:0:0:
192,192,146798,128,0,146992:0:0:0:0:
64,192,146798,1,0,0:0:0:0:
448,192,146895,128,0,147088:0:0:0:0:
320,192,146992,128,0,147088:0:0:0:0:
64,192,146992,1,0,0:0:0:0:
448,192,147185,1,0,0:0:0:0:
192,192,147185,128,0,147475:0:0:0:0:
320,192,147282,128,0,147669:0:0:0:0:
448,192,147379,128,0,147572:0:0:0:0:
192,192,147572,128,0,147766:0:0:0:0:
64,192,147572,128,0,147862:0:0:0:0:
448,192,147766,1,0,0:0:0:0:
320,192,147959,1,0,0:0:0:0:
448,192,147959,1,0,0:0:0:0:
64,192,148153,1,0,0:0:0:0:
320,192,148153,1,0,0:0:0:0:
64,192,148346,1,0,0:0:0:0:
192,192,148346,128,0,148443:0:0:0:0:
192,192,148540,128,0,148637:0:0:0:0:
64,192,148733,128,0,149024:0:0:0:0:
448,192,148733,128,0,148927:0:0:0:0:
192,192,148927,128,0,149024:0:0:0:0:
320,192,148927,1,0,0:0:0:0:
64,192,149121,128,0,149314:0:0:0:0:
192,192,149121,128,0,149411:0:0:0:0:
448,192,149314,1,0,0:0:0:0:
320,192,149314,128,0,149508:0:0:0:0:
64,192,149411,128,0,149604:0:0:0:0:
448,192,149508,128,0,149798:0:0:0:0:
192,192,149508,128,0,149701:0:0:0:0:
320,192,149701,128,0,149895:0:0:0:0:
64,192,149895,1,0,0:0:0:0:
192,192,149895,128,0,150088:0:0:0:0:
448,192,149992,128,0,150185:0:0:0:0:
320,192,150088,128,0,150282:0:0:0:0:
64,192,150088,1,0,0:0:0:0:
192,192,150282,128,0,150572:0:0:0:0:
448,192,150282,1,0,0:0:0:0:
320,192,150379,128,0,150862:0:0:0:0:
448,192,150475,128,0,150766:0:0:0:0:
192,192,150669,128,0,150959:0:0:0:0:
64,192,150669,128,0,151056:0:0:0:0:
448,192,150862,1,0,0:0:0:0:
320,192,151056,1,0,0:0:0:0:
448,192,151056,1,0,0:0:0:0:
64,192,151250,128,0,151346:0:0:0:0:
192,192,151443,1,0,0:0:0:0:
64,192,151443,128,0,151637:0:0:0:0:
320,192,151637,128,0,151830:0:0:0:0:
192,192,151733,128,0,151927:0:0:0:0:
64,192,151830,128,0,152121:0:0:0:0:
448,192,151830,1,0,0:0:0:0:
320,192,152024,128,0,152121:0:0:0:0:
448,192,152024,1,0,0:0:0:0:
64,192,152217,1,0,0:0:0:0:
192,192,152217,128,0,152411:0:0:0:0:
320,192,152314,128,0,152508:0:0:0:0:
448,192,152411,128,0,152508:0:0:0:0:
64,192,152411,128,0,152508:0:0:0:0:
448,192,152604,128,0,152895:0:0:0:0:
320,192,152604,1,0,0:0:0:0:
192,192,152701,128,0,152895:0:0:0:0:
320,192,152798,128,0,152895:0:0:0:0:
64,192,152992,1,0,0:0:0:0:
448,192,152992,128,0,153282:0:0:0:0:
192,192,153088,128,0,153282:0:0:0:0:
320,192,153185,128,0,153282:0:0:0:0:
64,192,153185,1,0,0:0:0:0:
320,192,153379,128,0,153475:0:0:0:0:
192,192,153379,128,0,153572:0:0:0:0:
64,192,153475,128,0,153572:0:0:0:0:
448,192,153766,1,0,0:0:0:0:
64,192,153766,128,0,154056:0:0:0:0:
192,192,153959,128,0,154153:0:0:0:0:
320,192,154056,128,0,154153:0:0:0:0:
64,192,154153,128,0,154250:0:0:0:0:
448,192,154346,128,0,154443:0:0:0:0:
320,192,154346,1,0,0:0:0:0:
64,192,154540,1,0,0:0:0:0:
448,192,154540,128,0,154733:0:0:0:0:
320,192,154637,128,0,154733:0:0:0:0:
192,192,154733,128,0,154927:0:0:0:0:
320,192,154830,128,0,155024:0:0:0:0:
64,192,154927,128,0,155024:0:0:0:0:
448,192,154927,128,0,155024:0:0:0:0:
192,192,155024,128,0,155121:0:0:0:0:
320,192,155121,128,0,155314:0:0:0:0:
64,192,155121,128,0,155217:0:0:0:0:
192,192,155217,128,0,155314:0:0:0:0:
64,192,155314,1,0,0:0:0:0:
448,192,155314,128,0,155411:0:0:0:0:
64,192,155508,128,0,155604:0:0:0:0:
448,192,155556,1,0,0:0:0:0:
320,192,155604,1,0,0:0:0:0:
192,192,155653,1,0,0:0:0:0:
448,192,155701,128,0,155992:0:0:0:0:
64,192,155701,1,0,0:0:0:0:
192,192,155798,128,0,155992:0:0:0:0:
320,192,155895,128,0,155992:0:0:0:0:
64,192,156088,1,0,0:0:0:0:
448,192,156088,128,0,156379:0:0:0:0:
192,192,156185,128,0,156379:0:0:0:0:
320,192,156282,128,0,156379:0:0:0:0:
64,192,156282,1,0,0:0:0:0:
192,192,156475,128,0,156669:0:0:0:0:
320,192,156475,128,0,156572:0:0:0:0:
64,192,156572,128,0,156669:0:0:0:0:
64,192,156862,128,0,157153:0:0:0:0:
448,192,156862,1,0,0:0:0:0:
320,192,157056,128,0,157250:0:0:0:0:
192,192,157153,128,0,157250:0:0:0:0:
448,192,157250,128,0,157492:0:0:0:0:
64,192,157419,128,0,157637:0:0:0:0:
320,192,157612,128,0,157758:0:0:0:0:
192,192,157830,128,0,157903:0:0:0:0:
320,192,158000,1,0,0:0:0:0:
448,192,158024,128,0,158798:0:0:0:0:
320,192,158798,1,0,0:0:0:0:
192,192,158798,128,0,158895:0:0:0:0:
64,192,158798,128,0,159088:0:0:0:0:
320,192,158992,128,0,159282:0:0:0:0:
192,192,159185,128,0,159475:0:0:0:0:
448,192,159185,1,0,0:0:0:0:
448,192,159379,128,0,159669:0:0:0:0:
320,192,159475,1,0,0:0:0:0:
192,192,159572,1,0,0:0:0:0:
64,192,159572,1,0,0:0:0:0:
320,192,159669,1,0,0:0:0:0:
64,192,159766,1,0,0:0:0:0:
192,192,159959,128,0,160056:0:0:0:0:
448,192,159959,128,0,160056:0:0:0:0:
320,192,160153,1,0,0:0:0:0:
192,192,160250,1,0,0:0:0:0:
64,192,160346,1,0,0:0:0:0:
320,192,160443,1,0,0:0:0:0:
192,192,160540,128,0,160637:0:0:0:0:
448,192,160540,128,0,160637:0:0:0:0:
448,192,160733,1,0,0:0:0:0:
320,192,160733,1,0,0:0:0:0:
192,192,160927,1,0,0:0:0:0:
320,192,161024,1,0,0:0:0:0:
64,192,161121,1,0,0:0:0:0:
192,192,161121,1,0,0:0:0:0:
64,192,161314,1,0,0:0:0:0:
320,192,161508,1,0,0:0:0:0:
448,192,161508,1,0,0:0:0:0:
448,192,161701,1,0,0:0:0:0:
320,192,161798,1,0,0:0:0:0:
192,192,161895,128,0,161992:0:0:0:0:
64,192,161895,128,0,162185:0:0:0:0:
448,192,162088,128,0,162379:0:0:0:0:
192,192,162282,128,0,162572:0:0:0:0:
64,192,162282,1,0,0:0:0:0:
320,192,162475,128,0,162766:0:0:0:0:
448,192,162572,1,0,0:0:0:0:
192,192,162669,1,0,0:0:0:0:
64,192,162669,1,0,0:0:0:0:
448,192,162766,1,0,0:0:0:0:
64,192,162862,1,0,0:0:0:0:
192,192,163056,128,0,163153:0:0:0:0:
320,192,163056,128,0,163153:0:0:0:0:
448,192,163250,1,0,0:0:0:0:
320,192,163346,1,0,0:0:0:0:
192,192,163443,1,0,0:0:0:0:
64,192,163443,1,0,0:0:0:0:
448,192,163540,1,0,0:0:0:0:
320,192,163637,128,0,163733:0:0:0:0:
64,192,163637,1,0,0:0:0:0:
192,192,163830,128,0,163927:0:0:0:0:
320,192,163830,128,0,163927:0:0:0:0:
64,192,164024,1,0,0:0:0:0:
192,192,164121,1,0,0:0:0:0:
448,192,164217,128,0,164508:0:0:0:0:
320,192,164217,1,0,0:0:0:0:
64,192,164314,128,0,164508:0:0:0:0:
192,192,164411,128,0,164701:0:0:0:0:
320,192,164604,128,0,164701:0:0:0:0:
448,192,164604,1,0,0:0:0:0:
192,192,164798,1,0,0:0:0:0:
64,192,164798,128,0,164895:0:0:0:0:
448,192,164992,128,0,165282:0:0:0:0:
320,192,164992,128,0,165088:0:0:0:0:
192,192,165185,128,0,165475:0:0:0:0:
320,192,165379,128,0,165669:0:0:0:0:
64,192,165379,1,0,0:0:0:0:
64,192,165572,128,0,165862:0:0:0:0:
448,192,165669,1,0,0:0:0:0:
320,192,165766,1,0,0:0:0:0:
192,192,165766,1,0,0:0:0:0:
448,192,165862,1,0,0:0:0:0:
64,192,165959,1,0,0:0:0:0:
320,192,166153,128,0,166250:0:0:0:0:
448,192,166153,128,0,166250:0:0:0:0:
192,192,166346,1,0,0:0:0:0:
320,192,166443,1,0,0:0:0:0:
64,192,166540,1,0,0:0:0:0:
448,192,166540,1,0,0:0:0:0:
320,192,166637,1,0,0:0:0:0:
192,192,166733,128,0,166830:0:0:0:0:
64,192,166733,128,0,166830:0:0:0:0:
448,192,166927,128,0,167217:0:0:0:0:
192,192,167024,128,0,167121:0:0:0:0:
320,192,167121,128,0,167217:0:0:0:0:
64,192,167314,128,0,167604:0:0:0:0:
320,192,167314,128,0,167508:0:0:0:0:
192,192,167411,128,0,167604:0:0:0:0:
448,192,167508,128,0,167604:0:0:0:0:
448,192,167701,128,0,167992:0:0:0:0:
64,192,167701,128,0,167798:0:0:0:0:
320,192,167798,128,0,167895:0:0:0:0:
64,192,167895,1,0,0:0:0:0:
192,192,167992,1,0,0:0:0:0:
320,192,168088,128,0,168379:0:0:0:0:
448,192,168088,128,0,168185:0:0:0:0:
64,192,168282,128,0,168572:0:0:0:0:
448,192,168475,128,0,168766:0:0:0:0:
320,192,168475,128,0,168572:0:0:0:0:
192,192,168669,128,0,168959:0:0:0:0:
64,192,168766,1,0,0:0:0:0:
448,192,168862,1,0,0:0:0:0:
320,192,168862,1,0,0:0:0:0:
64,192,168959,1,0,0:0:0:0:
320,192,169056,1,0,0:0:0:0:
192,192,169250,128,0,169346:0:0:0:0:
448,192,169250,128,0,169346:0:0:0:0:
192,192,169443,1,0,0:0:0:0:
64,192,169540,128,0,169733:0:0:0:0:
448,192,169637,128,0,169927:0:0:0:0:
320,192,169637,128,0,169733:0:0:0:0:
192,192,169733,128,0,169927:0:0:0:0:
192,192,170024,128,0,170314:0:0:0:0:
320,192,170024,128,0,170121:0:0:0:0:
64,192,170121,128,0,170217:0:0:0:0:
448,192,170217,128,0,170314:0:0:0:0:
320,192,170411,128,0,170701:0:0:0:0:
192,192,170411,128,0,170508:0:0:0:0:
448,192,170508,128,0,170798:0:0:0:0:
64,192,170604,128,0,170701:0:0:0:0:
64,192,170798,128,0,171088:0:0:0:0:
192,192,170798,128,0,170895:0:0:0:0:
320,192,170992,128,0,171185:0:0:0:0:
192,192,171088,128,0,171282:0:0:0:0:
64,192,171185,128,0,171379:0:0:0:0:
448,192,171185,128,0,171475:0:0:0:0:
320,192,171282,128,0,171379:0:0:0:0:
192,192,171379,128,0,171475:0:0:0:0:
64,192,171475,128,0,171572:0:0:0:0:
320,192,171572,128,0,171862:0:0:0:0:
192,192,171669,128,0,171766:0:0:0:0:
448,192,171766,128,0,171862:0:0:0:0:
64,192,171862,128,0,171959:0:0:0:0:
448,192,171959,1,0,0:0:0:0:
192,192,171959,1,0,0:0:0:0:
320,192,172153,128,0,172346:0:0:0:0:
64,192,172153,128,0,172250:0:0:0:0:
192,192,172346,128,0,172637:0:0:0:0:
64,192,172346,1,0,0:0:0:0:
448,192,172443,128,0,172540:0:0:0:0:
320,192,172540,128,0,172830:0:0:0:0:
64,192,172637,128,0,172830:0:0:0:0:
448,192,172733,128,0,173121:0:0:0:0:
320,192,172927,1,0,0:0:0:0:
64,192,172927,1,0,0:0:0:0:
64,192,173121,128,0,173411:0:0:0:0:
192,192,173121,1,0,0:0:0:0:
320,192,173217,128,0,173314:0:0:0:0:
448,192,173314,128,0,173604:0:0:0:0:
320,192,173411,128,0,173798:0:0:0:0:
64,192,173508,1,0,0:0:0:0:
192,192,173508,1,0,0:0:0:0:
448,192,173701,1,0,0:0:0:0:
64,192,173701,128,0,173798:0:0:0:0:
64,192,173895,1,0,0:0:0:0:
192,192,173895,128,0,173992:0:0:0:0:
320,192,174088,128,0,174282:0:0:0:0:
448,192,174185,128,0,174379:0:0:0:0:
64,192,174282,128,0,174572:0:0:0:0:
192,192,174282,128,0,174475:0:0:0:0:
320,192,174379,128,0,174475:0:0:0:0:
448,192,174475,128,0,174572:0:0:0:0:
192,192,174572,128,0,174669:0:0:0:0:
448,192,174669,1,0,0:0:0:0:
320,192,174669,1,0,0:0:0:0:
64,192,174862,128,0,175153:0:0:0:0:
448,192,174862,1,0,0:0:0:0:
192,192,174959,128,0,175056:0:0:0:0:
320,192,175056,128,0,175250:0:0:0:0:
448,192,175153,128,0,175346:0:0:0:0:
192,192,175250,128,0,175443:0:0:0:0:
64,192,175346,128,0,175540:0:0:0:0:
448,192,175443,1,0,0:0:0:0:
320,192,175443,128,0,175733:0:0:0:0:
192,192,175637,128,0,175830:0:0:0:0:
64,192,175733,128,0,175927:0:0:0:0:
448,192,175830,128,0,176024:0:0:0:0:
320,192,175927,128,0,176121:0:0:0:0:
192,192,176024,128,0,176121:0:0:0:0:
192,192,176217,1,0,0:0:0:0:
320,192,176217,128,0,176411:0:0:0:0:
448,192,176314,128,0,176604:0:0:0:0:
64,192,176411,128,0,176508:0:0:0:0:
192,192,176508,128,0,176895:0:0:0:0:
64,192,176604,1,0,0:0:0:0:
320,192,176604,128,0,176701:0:0:0:0:
448,192,176798,128,0,176895:0:0:0:0:
320,192,176798,1,0,0:0:0:0:
448,192,176992,1,0,0:0:0:0:
192,192,176992,128,0,177088:0:0:0:0:
192,192,177185,128,0,177379:0:0:0:0:
320,192,177282,128,0,177475:0:0:0:0:
64,192,177379,128,0,177572:0:0:0:0:
448,192,177379,128,0,177669:0:0:0:0:
192,192,177475,128,0,177669:0:0:0:0:
192,192,177766,128,0,177959:0:0:0:0:
64,192,177862,128,0,177959:0:0:0:0:
320,192,177959,1,0,0:0:0:0:
448,192,177959,1,0,0:0:0:0:
64,192,178153,128,0,178250:0:0:0:0:
448,192,178153,128,0,178443:0:0:0:0:
192,192,178250,128,0,178346:0:0:0:0:
320,192,178346,128,0,178443:0:0:0:0:
320,192,178540,128,0,178830:0:0:0:0:
448,192,178540,1,0,0:0:0:0:
64,192,178733,128,0,179024:0:0:0:0:
192,192,178830,128,0,178927:0:0:0:0:
448,192,178927,128,0,179217:0:0:0:0:
320,192,178927,128,0,179024:0:0:0:0:
64,192,179121,128,0,179508:0:0:0:0:
320,192,179121,128,0,179217:0:0:0:0:
448,192,179314,128,0,179604:0:0:0:0:
192,192,179314,128,0,179411:0:0:0:0:
192,192,179508,128,0,179701:0:0:0:0:
320,192,179604,128,0,179798:0:0:0:0:
448,192,179701,128,0,179895:0:0:0:0:
64,192,179701,1,0,0:0:0:0:
192,192,179798,128,0,179992:0:0:0:0:
64,192,179895,128,0,179992:0:0:0:0:
320,192,179992,128,0,180088:0:0:0:0:
448,192,180088,1,0,0:0:0:0:
64,192,180088,1,0,0:0:0:0:
320,192,180282,1,0,0:0:0:0:
448,192,180330,1,0,0:0:0:0:
192,192,180379,1,0,0:0:0:0:
64,192,180427,1,0,0:0:0:0:
448,192,180475,128,0,180669:0:0:0:0:
320,192,180475,128,0,180766:0:0:0:0:
192,192,180572,128,0,180766:0:0:0:0:
64,192,180669,1,0,0:0:0:0:
320,192,180862,128,0,181056:0:0:0:0:
448,192,180959,128,0,181056:0:0:0:0:
192,192,181056,1,0,0:0:0:0:
64,192,181056,1,0,0:0:0:0:
448,192,181250,128,0,181346:0:0:0:0:
64,192,181250,128,0,181540:0:0:0:0:
320,192,181346,128,0,181443:0:0:0:0:
192,192,181443,128,0,181637:0:0:0:0:
448,192,181637,128,0,181927:0:0:0:0:
320,192,181637,1,0,0:0:0:0:
64,192,181733,128,0,182024:0:0:0:0:
192,192,181830,128,0,181927:0:0:0:0:
192,192,182024,128,0,182217:0:0:0:0:
448,192,182024,128,0,182121:0:0:0:0:
320,192,182121,128,0,182314:0:0:0:0:
64,192,182217,128,0,182411:0:0:0:0:
448,192,182217,1,0,0:0:0:0:
192,192,182314,128,0,182411:0:0:0:0:
320,192,182411,1,0,0:0:0:0:
448,192,182411,128,0,182508:0:0:0:0:
64,192,182508,128,0,182604:0:0:0:0:
64,192,182798,1,0,0:0:0:0:
192,192,182798,1,0,0:0:0:0:
192,192,182992,128,0,183088:0:0:0:0:
448,192,182992,128,0,183282:0:0:0:0:
64,192,183185,128,0,183475:0:0:0:0:
192,192,183185,128,0,183282:0:0:0:0:
320,192,183282,128,0,183379:0:0:0:0:
448,192,183379,128,0,183572:0:0:0:0:
192,192,183475,128,0,183669:0:0:0:0:
64,192,183572,128,0,183669:0:0:0:0:
320,192,183572,128,0,183766:0:0:0:0:
448,192,183669,128,0,183862:0:0:0:0:
192,192,183766,128,0,183959:0:0:0:0:
448,192,183959,1,0,0:0:0:0:
64,192,183959,128,0,184250:0:0:0:0:
320,192,184056,128,0,184153:0:0:0:0:
192,192,184153,128,0,184250:0:0:0:0:
448,192,184153,1,0,0:0:0:0:
64,192,184346,1,0,0:0:0:0:
320,192,184346,1,0,0:0:0:0:
192,192,184540,128,0,184637:0:0:0:0:
320,192,184733,1,0,0:0:0:0:
448,192,184733,128,0,185024:0:0:0:0:
192,192,184927,128,0,185121:0:0:0:0:
320,192,185024,128,0,185217:0:0:0:0:
64,192,185121,128,0,185314:0:0:0:0:
448,192,185121,1,0,0:0:0:0:
192,192,185217,128,0,185314:0:0:0:0:
320,192,185314,1,0,0:0:0:0:
448,192,185314,1,0,0:0:0:0:
192,192,185508,1,0,0:0:0:0:
64,192,185508,128,0,185798:0:0:0:0:
320,192,185701,128,0,185895:0:0:0:0:
192,192,185798,128,0,185992:0:0:0:0:
448,192,185895,128,0,186088:0:0:0:0:
64,192,185895,128,0,185992:0:0:0:0:
320,192,185992,128,0,186088:0:0:0:0:
64,192,186088,128,0,186282:0:0:0:0:
192,192,186088,128,0,186185:0:0:0:0:
448,192,186185,128,0,186282:0:0:0:0:
192,192,186282,128,0,186475:0:0:0:0:
320,192,186282,128,0,186379:0:0:0:0:
64,192,186475,128,0,186572:0:0:0:0:
320,192,186475,128,0,186669:0:0:0:0:
448,192,186572,128,0,186766:0:0:0:0:
64,192,186669,128,0,186766:0:0:0:0:
192,192,186669,128,0,186959:0:0:0:0:
320,192,186766,128,0,186862:0:0:0:0:
448,192,186862,128,0,186959:0:0:0:0:
448,192,187056,1,0,0:0:0:0:
192,192,187056,128,0,187153:0:0:0:0:
192,192,187250,1,0,0:0:0:0:
64,192,187250,1,0,0:0:0:0:
320,192,187443,1,0,0:0:0:0:
64,192,187443,1,0,0:0:0:0:
192,192,187637,128,0,187733:0:0:0:0:
448,192,187830,1,0,0:0:0:0:
320,192,187830,128,0,188024:0:0:0:0:
192,192,188024,128,0,188217:0:0:0:0:
448,192,188121,128,0,188314:0:0:0:0:
320,192,188217,128,0,188508:0:0:0:0:
192,192,188314,128,0,188508:0:0:0:0:
64,192,188411,128,0,188508:0:0:0:0:
64,192,188604,1,0,0:0:0:0:
448,192,188604,128,0,188895:0:0:0:0:
320,192,188798,128,0,188895:0:0:0:0:
192,192,188895,128,0,189088:0:0:0:0:
320,192,188992,128,0,189185:0:0:0:0:
448,192,188992,128,0,189088:0:0:0:0:
64,192,189088,128,0,189282:0:0:0:0:
192,192,189185,128,0,189379:0:0:0:0:
448,192,189185,128,0,189282:0:0:0:0:
64,192,189379,128,0,189475:0:0:0:0:
320,192,189379,128,0,189572:0:0:0:0:
192,192,189572,128,0,189766:0:0:0:0:
448,192,189572,128,0,189669:0:0:0:0:
320,192,189766,1,0,0:0:0:0:
448,192,189766,128,0,190056:0:0:0:0:
192,192,189862,128,0,190056:0:0:0:0:
320,192,189959,128,0,190056:0:0:0:0:
64,192,190153,1,0,0:0:0:0:
448,192,190153,128,0,190443:0:0:0:0:
192,192,190250,128,0,190443:0:0:0:0:
320,192,190346,128,0,190443:0:0:0:0:
64,192,190346,1,0,0:0:0:0:
320,192,190540,128,0,190637:0:0:0:0:
192,192,190540,128,0,190733:0:0:0:0:
64,192,190637,128,0,190733:0:0:0:0:
64,192,190927,128,0,191217:0:0:0:0:
448,192,190927,1,0,0:0:0:0:
320,192,191121,128,0,191314:0:0:0:0:
192,192,191217,128,0,191314:0:0:0:0:
64,192,191314,128,0,191411:0:0:0:0:
320,192,191508,1,0,0:0:0:0:
448,192,191508,128,0,191604:0:0:0:0:
64,192,191701,1,0,0:0:0:0:
448,192,191701,128,0,191895:0:0:0:0:
320,192,191798,128,0,191895:0:0:0:0:
192,192,191895,128,0,192088:0:0:0:0:
320,192,191992,128,0,192185:0:0:0:0:
64,192,192088,128,0,192185:0:0:0:0:
448,192,192088,128,0,192185:0:0:0:0:
192,192,192185,128,0,192282:0:0:0:0:
320,192,192282,128,0,192475:0:0:0:0:
64,192,192282,128,0,192379:0:0:0:0:
192,192,192379,128,0,192475:0:0:0:0:
64,192,192475,1,0,0:0:0:0:
448,192,192475,128,0,192572:0:0:0:0:
64,192,192669,128,0,192766:0:0:0:0:
448,192,192717,1,0,0:0:0:0:
320,192,192766,1,0,0:0:0:0:
192,192,192814,1,0,0:0:0:0:
64,192,192862,1,0,0:0:0:0:
448,192,192862,128,0,193153:0:0:0:0:
192,192,192959,128,0,193153:0:0:0:0:
320,192,193056,128,0,193153:0:0:0:0:
64,192,193250,1,0,0:0:0:0:
448,192,193250,128,0,193540:0:0:0:0:
192,192,193346,128,0,193540:0:0:0:0:
320,192,193443,128,0,193540:0:0:0:0:
64,192,193443,1,0,0:0:0:0:
320,192,193637,128,0,193733:0:0:0:0:
192,192,193637,128,0,193830:0:0:0:0:
64,192,193733,128,0,193830:0:0:0:0:
64,192,194024,128,0,194314:0:0:0:0:
448,192,194024,1,0,0:0:0:0:
320,192,194217,128,0,194411:0:0:0:0:
192,192,194314,128,0,194411:0:0:0:0:
448,192,194411,128,0,194604:0:0:0:0:
64,192,194411,128,0,194508:0:0:0:0:
320,192,194508,128,0,194701:0:0:0:0:
192,192,194604,128,0,194701:0:0:0:0:
64,192,194604,128,0,194701:0:0:0:0:
448,192,194701,128,0,194798:0:0:0:0:
192,192,194798,128,0,194895:0:0:0:0:
320,192,194798,128,0,194992:0:0:0:0:
448,192,194992,128,0,195088:0:0:0:0:
192,192,194992,128,0,195185:0:0:0:0:
64,192,195088,128,0,195282:0:0:0:0:
320,192,195185,128,0,195282:0:0:0:0:
448,192,195185,128,0,195379:0:0:0:0:
64,192,195379,128,0,195475:0:0:0:0:
320,192,195379,128,0,195572:0:0:0:0:
448,192,195475,128,0,195669:0:0:0:0:
192,192,195572,128,0,195766:0:0:0:0:
64,192,195572,128,0,195669:0:0:0:0:
448,192,195766,128,0,195862:0:0:0:0:
320,192,195766,128,0,196346:0:0:0:0:
192,192,195862,128,0,196153:0:0:0:0:
64,192,195959,128,0,196250:0:0:0:0:
448,192,195959,128,0,196153:0:0:0:0:
64,192,196346,128,0,196443:0:0:0:0:
448,192,196346,128,0,196443:0:0:0:0:
192,192,196733,128,0,196927:0:0:0:0:
320,192,196733,128,0,196830:0:0:0:0:
448,192,196830,128,0,196927:0:0:0:0:
320,192,196927,128,0,197121:0:0:0:0:
64,192,196927,128,0,197024:0:0:0:0:
192,192,197024,128,0,197217:0:0:0:0:
64,192,197121,128,0,197314:0:0:0:0:
448,192,197121,128,0,197217:0:0:0:0:
320,192,197217,128,0,197411:0:0:0:0:
448,192,197314,128,0,197411:0:0:0:0:
192,192,197314,128,0,197508:0:0:0:0:
64,192,197411,128,0,197508:0:0:0:0:
320,192,197508,128,0,197701:0:0:0:0:
448,192,197508,128,0,197604:0:0:0:0:
192,192,197604,128,0,197701:0:0:0:0:
448,192,197701,128,0,197895:0:0:0:0:
64,192,197701,1,0,0:0:0:0:
320,192,197798,128,0,197895:0:0:0:0:
192,192,197895,128,0,197992:0:0:0:0:
64,192,197895,128,0,197992:0:0:0:0:
192,192,198282,128,0,198379:0:0:0:0:
320,192,198282,128,0,198475:0:0:0:0:
64,192,198379,128,0,198475:0:0:0:0:
192,192,198475,128,0,198669:0:0:0:0:
448,192,198475,128,0,198572:0:0:0:0:
320,192,198572,128,0,198766:0:0:0:0:
448,192,198669,128,0,198862:0:0:0:0:
64,192,198669,128,0,198766:0:0:0:0:
192,192,198766,128,0,198959:0:0:0:0:
320,192,198862,128,0,199056:0:0:0:0:
64,192,198862,128,0,198959:0:0:0:0:
448,192,198959,128,0,199056:0:0:0:0:
192,192,199056,128,0,199250:0:0:0:0:
64,192,199056,128,0,199153:0:0:0:0:
320,192,199153,128,0,199250:0:0:0:0:
64,192,199250,128,0,199443:0:0:0:0:
192,192,199346,128,0,199443:0:0:0:0:
448,192,199443,128,0,199540:0:0:0:0:
320,192,199443,128,0,199637:0:0:0:0:
192,192,199540,128,0,199637:0:0:0:0:
448,192,199637,128,0,199830:0:0:0:0:
64,192,199637,1,0,0:0:0:0:
320,192,199733,128,0,199830:0:0:0:0:
64,192,199830,1,0,0:0:0:0:
192,192,199830,1,0,0:0:0:0:
192,192,200024,128,0,200121:0:0:0:0:
64,192,200217,1,0,0:0:0:0:
448,192,200217,1,0,0:0:0:0:
192,192,200411,128,0,200604:0:0:0:0:
320,192,200508,128,0,200604:0:0:0:0:
64,192,200604,1,0,0:0:0:0:
448,192,200604,128,0,200798:0:0:0:0:
320,192,200701,128,0,200895:0:0:0:0:
192,192,200798,128,0,200992:0:0:0:0:
448,192,200992,1,0,0:0:0:0:
64,192,200992,128,0,201282:0:0:0:0:
320,192,201185,128,0,201379:0:0:0:0:
192,192,201282,128,0,201379:0:0:0:0:
448,192,201379,1,0,0:0:0:0:
64,192,201379,128,0,201669:0:0:0:0:
192,192,201572,1,0,0:0:0:0:
320,192,201572,128,0,201766:0:0:0:0:
448,192,201669,128,0,201862:0:0:0:0:
192,192,201766,128,0,201959:0:0:0:0:
64,192,201862,128,0,201959:0:0:0:0:
320,192,201959,128,0,202056:0:0:0:0:
192,192,202056,128,0,202153:0:0:0:0:
64,192,202153,128,0,202250:0:0:0:0:
448,192,202153,128,0,202250:0:0:0:0:
64,192,202540,128,0,202637:0:0:0:0:
448,192,202540,128,0,202637:0:0:0:0:
320,192,202733,1,0,0:0:0:0:
448,192,202733,1,0,0:0:0:0:
192,192,202927,128,0,203024:0:0:0:0:
320,192,202927,128,0,203121:0:0:0:0:
192,192,203121,128,0,203314:0:0:0:0:
448,192,203121,128,0,203217:0:0:0:0:
320,192,203314,128,0,203411:0:0:0:0:
448,192,203314,128,0,203508:0:0:0:0:
192,192,203508,128,0,203701:0:0:0:0:
64,192,203508,128,0,203604:0:0:0:0:
320,192,203701,128,0,203798:0:0:0:0:
64,192,203701,128,0,203895:0:0:0:0:
192,192,203895,128,0,203992:0:0:0:0:
320,192,203895,128,0,204088:0:0:0:0:
448,192,204088,128,0,204185:0:0:0:0:
192,192,204088,128,0,204185:0:0:0:0:
64,192,204475,1,0,0:0:0:0:
448,192,204475,1,0,0:0:0:0:
320,192,204669,1,0,0:0:0:0:
448,192,204669,1,0,0:0:0:0:
192,192,204862,128,0,205056:0:0:0:0:
64,192,204862,128,0,204959:0:0:0:0:
64,192,205056,128,0,205250:0:0:0:0:
320,192,205056,128,0,205153:0:0:0:0:
320,192,205250,128,0,205443:0:0:0:0:
448,192,205250,128,0,205346:0:0:0:0:
192,192,205443,128,0,205637:0:0:0:0:
64,192,205443,128,0,205540:0:0:0:0:
64,192,205637,128,0,205733:0:0:0:0:
448,192,205637,128,0,205733:0:0:0:0:
320,192,205830,1,0,0:0:0:0:
448,192,205830,1,0,0:0:0:0:
192,192,206024,128,0,206217:0:0:0:0:
320,192,206024,128,0,206121:0:0:0:0:
192,192,206411,128,0,206508:0:0:0:0:
64,192,206411,128,0,206508:0:0:0:0:
448,192,206604,1,0,0:0:0:0:
320,192,206798,128,0,206895:0:0:0:0:
192,192,206798,128,0,206895:0:0:0:0:
64,192,206992,1,0,0:0:0:0:
448,192,206992,1,0,0:0:0:0:
320,192,207185,128,0,207282:0:0:0:0:
448,192,207185,128,0,207282:0:0:0:0:
64,192,207572,128,0,207669:0:0:0:0:
448,192,207572,128,0,207766:0:0:0:0:
320,192,207669,128,0,207766:0:0:0:0:
64,192,207766,128,0,207862:0:0:0:0:
192,192,207766,128,0,207959:0:0:0:0:
64,192,207959,128,0,208250:0:0:0:0:
448,192,207959,128,0,208250:0:0:0:0:
192,192,208153,128,0,208346:0:0:0:0:
320,192,208153,128,0,208443:0:0:0:0:
