osu file format v14

[General]
AudioFilename: audio.mp3
AudioLeadIn: 0
PreviewTime: -1
Countdown: 0
SampleSet: Normal
StackLeniency: 0.7
Mode: 0
LetterboxInBreaks: 0
WidescreenStoryboard: 1

[Editor]
DistanceSpacing: 1.5
BeatDivisor: 4
GridSize: 4
TimelineZoom: 1

[Metadata]
Title:Akisame
TitleUnicode:秋雨
Artist:ADAMS
ArtistUnicode:ADAMS
Creator:lucifvr
Version:Rain
Source:
Tags:visual kei jrock japanese rock
BeatmapID:962492
BeatmapSetID:437588

[Difficulty]
HPDrainRate:7
CircleSize:4
OverallDifficulty:8
ApproachRate:9
SliderMultiplier:1.9
SliderTickRate:1

[Events]
//Background and Video events
0,0,"tumblr_nrfs6bDMK51qde5t7o1_500.png",0,0
//Break Periods
2,97328,101493
//Storyboard Layer 0 (Background)
//Storyboard Layer 1 (Fail)
//Storyboard Layer 2 (Pass)
//Storyboard Layer 3 (Foreground)
//Storyboard Sound Samples

[TimingPoints]
368,-100,4,1,0,45,0,0
1530,422.535211267606,4,1,0,45,1,0
61846,-200,4,1,0,45,0,0
62480,-100,4,1,0,45,0,0
68396,-66.6666666666667,4,1,0,45,0,0
81917,-66.6666666666667,4,1,0,45,0,1
97234,-66.6666666666667,4,1,0,45,0,0
101882,-100,4,1,0,45,0,0
109699,-83.3333333333333,4,1,0,45,0,0

[HitObjects]
156,128,896,5,0,0:0:0:0:
340,168,1107,1,0,0:0:0:0:
176,260,1318,1,0,0:0:0:0:
296,116,1530,1,0,0:0:0:0:
176,260,1741,2,0,P|128:208|128:188,2,95
316,296,2375,5,0,0:0:0:0:
392,176,2586,1,0,0:0:0:0:
304,64,2797,1,0,0:0:0:0:
164,88,3008,1,0,0:0:0:0:
148,232,3220,1,0,0:0:0:0:
328,168,3431,1,0,0:0:0:0:
124,244,3642,1,0,0:0:0:0:
328,168,3853,1,0,0:0:0:0:
116,88,4276,6,0,P|188:120|232:128,1,95
420,168,4699,2,0,L|368:180,1,47.5
268,204,4910,1,0,0:0:0:0:
268,204,5121,2,0,L|184:144,2,95
440,68,5755,6,0,L|352:140,1,95
148,120,6177,1,0,0:0:0:0:
336,232,6389,1,0,0:0:0:0:
248,96,6600,1,0,0:0:0:0:
244,256,6811,1,0,0:0:0:0:
324,140,7022,1,0,0:0:0:0:
440,224,7234,1,0,0:0:0:0:
300,200,7445,6,0,L|200:168,1,95
76,220,7868,2,0,L|184:260,1,95
180,112,8290,1,0,0:0:0:0:
320,96,8501,1,0,0:0:0:0:
168,208,8713,2,0,L|180:100,1,95
216,272,9346,5,0,0:0:0:0:
400,220,9558,2,0,P|356:264|320:280,1,95
184,152,9980,1,0,0:0:0:0:
372,128,10191,1,0,0:0:0:0:
252,264,10403,1,0,0:0:0:0:
220,76,10614,2,0,P|288:72|388:148,1,190
216,232,11248,6,0,L|156:140,1,95
352,164,11670,2,0,L|416:64,2,95
224,268,12727,5,0,0:0:0:0:
224,268,12938,2,0,L|224:164,1,95
420,84,13360,2,0,L|344:144,1,71.2500027179719
260,100,13572,2,0,L|308:164,1,71.2500027179719
348,212,13783,1,0,0:0:0:0:
164,260,14206,5,0,0:0:0:0:
152,240,14311,1,0,0:0:0:0:
148,216,14417,1,0,0:0:0:0:
148,192,14522,1,0,0:0:0:0:
152,168,14628,1,0,0:0:0:0:
160,148,14734,1,0,0:0:0:0:
172,128,14839,2,0,P|196:88|240:56,1,95
360,128,15262,2,0,P|340:184|304:224,1,95
176,200,15684,1,0,0:0:0:0:
272,92,15896,1,0,0:0:0:0:
88,144,16107,6,0,L|184:204,1,95
312,208,16530,1,0,0:0:0:0:
312,208,16741,2,0,L|348:112,1,95
204,108,17163,1,0,0:0:0:0:
100,208,17375,1,0,0:0:0:0:
224,276,17586,5,0,0:0:0:0:
252,248,17691,1,0,0:0:0:0:
284,228,17797,1,0,0:0:0:0:
320,220,17903,1,0,0:0:0:0:
356,216,18008,1,0,0:0:0:0:
384,192,18114,1,0,0:0:0:0:
400,160,18220,1,0,0:0:0:0:
404,124,18325,1,0,0:0:0:0:
372,100,18431,2,0,P|296:72|260:76,1,95
216,196,18853,5,0,0:0:0:0:
88,132,19065,1,0,0:0:0:0:
184,240,19276,2,0,P|232:192|240:152,1,95
380,196,19699,2,0,P|356:128|320:96,1,95
200,104,20121,1,0,0:0:0:0:
100,208,20332,1,0,0:0:0:0:
224,280,20544,1,0,0:0:0:0:
332,184,20755,6,0,P|320:128|292:88,1,95
268,72,21072,1,0,0:0:0:0:
232,68,21177,1,0,0:0:0:0:
196,76,21283,1,0,0:0:0:0:
168,104,21389,1,0,0:0:0:0:
156,140,21494,1,0,0:0:0:0:
152,176,21600,1,0,0:0:0:0:
224,236,21811,5,0,0:0:0:0:
304,188,22022,1,0,0:0:0:0:
376,248,22234,1,0,0:0:0:0:
400,156,22445,1,0,0:0:0:0:
304,188,22656,1,0,0:0:0:0:
228,128,22868,2,0,L|172:44,1,95
140,136,23290,2,0,L|196:232,1,95
344,108,23713,6,0,P|336:172|312:208,1,95
140,256,24135,2,0,P|96:208|80:168,1,95
76,144,24452,1,0,0:0:0:0:
84,108,24558,1,0,0:0:0:0:
108,80,24663,1,0,0:0:0:0:
144,68,24769,1,0,0:0:0:0:
184,68,24875,1,0,0:0:0:0:
216,84,24980,1,0,0:0:0:0:
236,116,25086,1,0,0:0:0:0:
256,148,25191,2,0,P|284:220|360:312,1,190
400,120,25825,6,0,P|356:84|304:64,1,95
132,96,26248,1,0,0:0:0:0:
244,240,26459,1,0,0:0:0:0:
268,72,26670,1,0,0:0:0:0:
332,96,26882,6,0,B|332:196|332:196|384:192|404:144,1,190
160,200,27727,2,0,L|124:144,2,47.5
332,176,28149,2,0,L|300:228,2,47.5
180,120,28572,5,0,0:0:0:0:
332,176,28783,2,0,P|356:124|348:76,2,95
332,176,29628,1,0,0:0:0:0:
188,244,29839,2,0,P|144:200|112:136,1,95
256,76,30262,1,0,0:0:0:0:
404,268,30579,1,0,0:0:0:0:
404,268,30684,1,0,0:0:0:0:
252,212,30896,1,0,0:0:0:0:
96,296,31318,5,0,0:0:0:0:
252,212,31530,1,0,0:0:0:0:
396,136,31741,1,0,0:0:0:0:
396,136,31952,2,0,L|312:88,1,95
152,112,32375,2,0,B|112:152|112:152|108:208,1,95
272,192,32797,2,0,B|268:252|268:252|280:284,1,95
432,224,33220,2,0,B|444:152|444:152|428:108,1,95
280,100,33642,1,0,0:0:0:0:
132,164,33959,1,0,0:0:0:0:
132,164,34065,1,0,0:0:0:0:
260,264,34276,1,0,0:0:0:0:
348,112,34699,5,0,0:0:0:0:
188,120,34910,1,0,0:0:0:0:
160,280,35121,1,0,0:0:0:0:
304,208,35332,5,0,0:0:0:0:
188,120,35544,1,0,0:0:0:0:
236,272,35755,1,0,0:0:0:0:
236,272,35966,2,0,L|316:192,2,95
92,200,36600,1,0,0:0:0:0:
212,92,36811,2,0,B|280:88|280:88|328:112,1,95
164,296,37339,1,0,0:0:0:0:
164,296,37445,1,0,0:0:0:0:
284,188,37656,1,0,0:0:0:0:
120,112,38079,6,0,L|236:116,1,95
340,216,38501,1,0,0:0:0:0:
200,296,38713,5,0,0:0:0:0:
140,144,38924,1,0,0:0:0:0:
284,76,39135,1,0,0:0:0:0:
140,144,39346,1,0,0:0:0:0:
288,208,39558,1,0,0:0:0:0:
412,308,39769,2,0,B|432:228|432:228|420:192,1,95
280,148,40191,5,0,0:0:0:0:
132,88,40403,1,0,0:0:0:0:
224,220,40614,5,0,0:0:0:0:
204,60,40825,1,0,0:0:0:0:
364,96,41037,5,0,0:0:0:0:
208,140,41248,1,0,0:0:0:0:
364,184,41459,6,0,P|372:120|360:80,1,95
404,84,41776,1,0,0:0:0:0:
424,116,41882,1,0,0:0:0:0:
424,152,41987,1,0,0:0:0:0:
424,192,42093,6,0,B|408:244|408:244|368:252|368:252|348:304,1,142.5
351,296,42515,2,0,P|279:264|247:232,1,95
248,180,42938,1,0,0:0:0:0:
104,104,43149,1,0,0:0:0:0:
156,256,43360,1,0,0:0:0:0:
36,148,43572,1,0,0:0:0:0:
196,120,43783,2,0,L|300:96,1,95
416,200,44206,1,0,0:0:0:0:
284,292,44417,2,0,P|264:208|280:180,1,95
108,228,44839,5,0,0:0:0:0:
264,176,45051,1,0,0:0:0:0:
360,256,45262,2,0,P|408:212|416:148,1,95
332,96,45684,1,0,0:0:0:0:
208,116,45896,1,0,0:0:0:0:
88,136,46107,2,0,P|100:212|132:260,1,95
228,256,46530,2,0,P|288:216|320:180,1,95
204,128,46952,6,0,B|256:92|256:92|324:100,2,95
132,228,47586,1,0,0:0:0:0:
244,280,47797,2,0,P|320:268|348:240,1,95
348,136,48220,1,0,0:0:0:0:
232,100,48431,1,0,0:0:0:0:
288,316,48853,5,0,0:0:0:0:
136,200,49065,1,0,0:0:0:0:
288,88,49276,1,0,0:0:0:0:
416,228,49487,2,0,P|380:144|288:88,1,190
124,164,50121,1,0,0:0:0:0:
264,292,50332,1,0,0:0:0:0:
168,108,50544,1,0,0:0:0:0:
212,248,50755,1,0,0:0:0:0:
332,168,50966,2,0,P|324:104|272:52,1,95
120,140,51600,5,0,0:0:0:0:
304,100,51811,1,0,0:0:0:0:
184,280,52022,1,0,0:0:0:0:
108,104,52234,1,0,0:0:0:0:
324,128,52445,1,0,0:0:0:0:
132,228,52656,6,0,P|204:208|228:184,1,95
424,272,53079,1,0,0:0:0:0:
424,272,53184,1,0,0:0:0:0:
424,272,53290,1,0,0:0:0:0:
336,128,53501,5,0,0:0:0:0:
132,300,53924,5,0,0:0:0:0:
132,300,54030,1,0,0:0:0:0:
132,168,54241,2,0,L|156:84,1,47.5
268,172,54558,1,0,0:0:0:0:
372,256,54769,2,0,L|320:208,1,47.5
372,96,54980,2,0,L|320:132,1,47.5
268,172,55191,2,0,L|208:172,2,47.5
80,108,55614,6,0,B|128:148|128:148|144:184,1,95
232,200,56037,1,0,0:0:0:0:
208,108,56248,1,0,0:0:0:0:
300,136,56459,1,0,0:0:0:0:
208,108,56670,1,0,0:0:0:0:
232,200,56882,1,0,0:0:0:0:
140,172,57093,1,0,0:0:0:0:
172,260,57304,2,0,L|244:192,1,95
328,232,57727,2,0,P|352:164|328:104,1,95
176,220,58360,5,0,0:0:0:0:
108,152,58572,1,0,0:0:0:0:
200,132,58783,1,0,0:0:0:0:
176,220,58994,1,0,0:0:0:0:
268,196,59206,1,0,0:0:0:0:
300,108,59417,6,0,B|240:68|240:68|208:60,1,95
152,168,59839,1,0,0:0:0:0:
248,248,60051,1,0,0:0:0:0:
340,164,60262,1,0,0:0:0:0:
252,76,60473,1,0,0:0:0:0:
248,248,60684,1,0,0:0:0:0:
164,96,60896,1,0,0:0:0:0:
292,156,61107,1,0,0:0:0:0:
236,44,61318,1,0,0:0:0:0:
296,220,61952,6,0,P|272:188|216:160,1,95
168,112,62586,1,0,0:0:0:0:
308,84,62797,1,0,0:0:0:0:
388,200,63008,1,0,0:0:0:0:
304,316,63220,1,0,0:0:0:0:
240,188,63431,1,0,0:0:0:0:
388,200,63642,1,0,0:0:0:0:
256,148,63853,2,0,P|288:100|324:68,1,95
176,100,64276,5,0,0:0:0:0:
128,232,64487,1,0,0:0:0:0:
104,92,64699,1,0,0:0:0:0:
192,204,64910,2,0,L|280:288,2,95
192,204,65544,1,0,0:0:0:0:
320,92,65755,6,0,L|272:144,1,47.5
368,160,65966,6,0,L|344:216,1,47.5
432,224,66177,6,0,L|420:296,1,47.5
176,280,67445,6,0,L|224:256,1,47.5
160,196,67656,6,0,L|192:152,1,47.5
104,132,67868,6,0,L|112:72,1,47.5
244,268,68501,5,0,0:0:0:0:
408,212,68713,1,0,0:0:0:0:
352,52,68924,1,0,0:0:0:0:
188,104,69135,1,0,0:0:0:0:
96,248,69346,1,0,0:0:0:0:
96,248,69558,6,0,B|176:244|176:244|224:184,1,142.500005435944
400,172,69980,2,0,L|248:108,1,142.500005435944
328,292,70403,2,0,L|216:172,1,142.500005435944
92,312,70825,1,0,0:0:0:0:
88,128,71037,1,0,0:0:0:0:
244,228,71248,1,0,0:0:0:0:
60,196,71459,1,0,0:0:0:0:
420,100,71882,6,0,B|296:136|296:136|272:128,1,142.500005435944
100,108,72304,2,0,P|136:192|192:228,1,142.500005435944
352,156,72727,2,0,P|336:244|308:228,1,142.500005435944
216,100,73149,1,0,0:0:0:0:
172,288,73572,5,0,0:0:0:0:
356,272,73783,1,0,0:0:0:0:
216,100,73994,1,0,0:0:0:0:
336,244,74206,1,0,0:0:0:0:
240,136,74417,1,0,0:0:0:0:
420,92,74628,2,0,P|428:192|380:232,1,142.500005435944
228,272,75051,5,0,0:0:0:0:
96,144,75262,1,0,0:0:0:0:
84,328,75473,1,0,0:0:0:0:
96,144,75684,2,0,L|240:108,1,142.500005435944
416,148,76107,1,0,0:0:0:0:
280,272,76318,1,0,0:0:0:0:
236,92,76530,1,0,0:0:0:0:
388,200,76741,5,0,0:0:0:0:
240,308,76952,1,0,0:0:0:0:
292,132,77163,1,0,0:0:0:0:
160,264,77375,2,0,P|88:240|112:208,1,142.500005435944
292,132,77797,1,0,0:0:0:0:
108,100,78008,1,0,0:0:0:0:
288,56,78220,1,0,0:0:0:0:
376,280,78642,6,0,P|408:216|412:136,1,142.500005435944
228,132,79065,2,0,B|312:208|312:208|352:208,2,142.500005435944
124,252,79699,1,0,0:0:0:0:
112,276,80332,6,0,L|116:104,1,142.500005435944
248,216,80755,6,0,P|304:164|320:96,1,142.500005435944
396,240,81177,1,0,0:0:0:0:
456,96,81389,2,0,P|376:72|296:80,2,142.500005435944
356,216,82022,1,0,0:0:0:0:
204,172,82234,1,0,0:0:0:0:
204,172,82339,1,0,0:0:0:0:
204,172,82445,1,0,0:0:0:0:
204,172,82551,2,0,B|136:128|136:128|272:60,1,213.750008153916
392,144,83079,5,0,0:0:0:0:
288,260,83290,1,0,0:0:0:0:
156,172,83501,1,0,0:0:0:0:
332,96,83713,1,0,0:0:0:0:
288,260,83924,1,0,0:0:0:0:
156,172,84135,1,0,0:0:0:0:
308,216,84346,2,0,B|388:216|388:216|452:172,1,142.500005435944
332,64,84769,2,0,B|220:64|220:64|180:96,1,142.500005435944
92,200,85191,6,0,P|168:208|240:192,1,142.500005435944
380,140,85614,2,0,P|280:96|212:88,1,142.500005435944
324,228,86037,1,0,0:0:0:0:
168,224,86248,1,0,0:0:0:0:
248,88,86459,1,0,0:0:0:0:
388,160,86670,1,0,0:0:0:0:
248,84,86882,1,0,0:0:0:0:
404,60,87093,1,0,0:0:0:0:
364,212,87304,2,0,L|208:240,1,142.500005435944
76,188,87727,5,0,0:0:0:0:
188,80,87938,1,0,0:0:0:0:
344,96,88149,1,0,0:0:0:0:
400,244,88360,1,0,0:0:0:0:
112,116,88783,5,0,0:0:0:0:
212,172,88994,1,0,0:0:0:0:
200,60,89206,1,0,0:0:0:0:
296,184,89417,1,0,0:0:0:0:
296,184,89628,2,0,B|372:148|372:148|296:108,2,142.500005435944
100,300,90473,6,0,P|76:228|104:144,1,142.500005435944
200,196,90896,1,0,0:0:0:0:
200,196,91107,1,0,0:0:0:0:
268,104,91318,1,0,0:0:0:0:
280,260,91530,1,0,0:0:0:0:
268,76,91741,1,0,0:0:0:0:
280,260,92163,5,0,0:0:0:0:
280,260,92375,2,0,L|400:148,1,142.500005435944
136,140,92797,2,0,P|172:84|248:76,2,142.500005435944
184,288,93431,1,0,0:0:0:0:
324,220,93642,1,0,0:0:0:0:
336,64,93853,1,0,0:0:0:0:
180,64,94065,1,0,0:0:0:0:
324,220,94276,2,0,L|224:116,1,142.500005435944
104,216,94699,6,0,L|172:244,1,71.2500027179719
172,164,94910,2,0,L|208:228,1,71.2500027179719
248,160,95121,2,0,L|236:232,1,71.2500027179719
304,188,95332,2,0,L|264:248,1,71.2500027179719
356,272,95544,1,0,0:0:0:0:
300,64,95755,1,0,0:0:0:0:
256,192,95966,12,0,97128,0:0:0:0:
192,188,102093,6,0,L|152:152,7,47.5
216,112,102938,2,0,B|272:128|272:128|340:128,1,95
280,268,103360,1,0,0:0:0:0:
156,196,103572,1,0,0:0:0:0:
296,68,103783,1,0,0:0:0:0:
156,80,103994,1,0,0:0:0:0:
304,200,104206,1,0,0:0:0:0:
124,252,104417,5,0,0:0:0:0:
340,276,104628,1,0,0:0:0:0:
172,136,104839,5,0,0:0:0:0:
340,276,105051,1,0,0:0:0:0:
396,64,105262,2,0,P|320:68|260:88,1,95
272,92,105579,1,0,0:0:0:0:
244,116,105684,1,0,0:0:0:0:
216,140,105790,1,0,0:0:0:0:
188,168,105896,1,0,0:0:0:0:
160,196,106001,1,0,0:0:0:0:
132,224,106107,1,0,0:0:0:0:
108,252,106213,1,0,0:0:0:0:
212,288,106318,6,0,L|292:188,1,95
376,56,106741,1,0,0:0:0:0:
188,56,106952,1,0,0:0:0:0:
376,152,107163,1,0,0:0:0:0:
272,104,107375,1,0,0:0:0:0:
164,144,107586,2,0,L|68:196,1,95
260,256,108008,6,0,B|352:200|352:200|296:160|284:140,1,190
112,136,108854,5,0,0:0:0:0:
112,136,108960,1,0,0:0:0:0:
112,136,109065,1,0,0:0:0:0:
284,216,109277,5,0,0:0:0:0:
284,216,109382,1,0,0:0:0:0:
284,216,109488,1,0,0:0:0:0:
364,136,109699,2,0,B|288:104|288:104|224:108,1,113.999996520996
96,168,110121,1,0,0:0:0:0:
284,216,110332,2,0,B|288:144|288:144|248:96,1,113.999996520996
96,168,110755,5,0,0:0:0:0:
256,224,110966,2,0,B|280:160|280:160|260:112,1,113.999996520996
96,168,111389,5,0,0:0:0:0:
120,280,111600,1,0,0:0:0:0:
232,308,111811,1,0,0:0:0:0:
336,260,112022,1,0,0:0:0:0:
352,148,112234,1,0,0:0:0:0:
268,68,112445,2,0,L|204:80,1,56.9999982604981
144,172,112656,2,0,L|208:160,1,56.9999982604981
304,208,112868,2,0,L|228:224,1,56.9999982604981
324,304,113079,2,0,B|416:304|416:300|448:272,1,113.999996520996
420,172,113501,5,0,0:0:0:0:
196,124,113713,2,0,B|240:188|240:188|280:200,1,113.999996520996
420,172,114135,5,0,0:0:0:0:
220,60,114346,2,0,B|248:148|248:148|288:184,1,113.999996520996
92,312,114769,6,0,P|84:224|96:188,1,113.999996520996
228,200,115191,2,0,P|236:264|216:336,1,113.999996520996
88,312,115614,2,0,P|72:248|92:192,1,113.999996520996
224,200,116037,2,0,P|240:260|224:324,1,113.999996520996
344,184,116459,6,0,B|324:124|324:124|372:152|372:148|236:68,1,227.999993041992
108,152,117093,6,0,B|128:224|128:224|180:192|180:188|144:320,1,227.999993041992
284,208,117727,1,0,0:0:0:0:
456,204,117938,6,0,B|432:168|428:168|428:168|404:168|424:84|424:84|324:64,1,227.999993041992
168,104,118572,1,0,0:0:0:0:
76,248,118783,1,0,0:0:0:0:
240,300,118994,1,0,0:0:0:0:
168,104,119206,1,0,0:0:0:0:
304,208,119417,1,0,0:0:0:0:
236,52,119628,1,0,0:0:0:0:
380,144,119839,6,0,B|424:212|424:212|352:216,1,113.999996520996
224,172,120262,2,0,B|148:136|148:136|192:104,1,113.999996520996
208,284,120684,2,0,B|144:316|144:316|200:336,1,113.999996520996
84,192,121107,2,0,B|172:184|172:184|184:212,1,113.999996520996
256,192,121530,12,0,124276,0:0:0:0:
