osu file format v14

[General]
AudioFilename: audio.mp3
AudioLeadIn: 0
PreviewTime: 54092
Countdown: 0
SampleSet: Soft
StackLeniency: 0.7
Mode: 3
LetterboxInBreaks: 0
SpecialStyle: 0
WidescreenStoryboard: 1

[Editor]
DistanceSpacing: 1.1
BeatDivisor: 4
GridSize: 4
TimelineZoom: 2.399998

[Metadata]
Title:Monoqlo City (TV Size)
TitleUnicode:モノクロシティ (TV Size)
Artist:ACE COLLECTION
ArtistUnicode:ACE COLLECTION
Creator:fvrex
Version:Tiger's Normal
Source:恋と呼ぶには気持ち悪い
Tags:famoss tigerinity indoroid hytex xtrippin U-ENS Universal Music Group UMG Vocal たつや◎ 奏 It's Too Sick to Call this Love Nomad ノマッド opening jrock j-rock j-pop pop jpop japanese anime monochrome tatsuya◎ liki sou riku koikimo koi to yobu ni wa kimochi warui romantic comedy romance romcom ln long notes
BeatmapID:2943716
BeatmapSetID:1426980

[Difficulty]
HPDrainRate:7.5
CircleSize:4
OverallDifficulty:7
ApproachRate:5
SliderMultiplier:1.4
SliderTickRate:1

[Events]
//Background and Video events
0,0,"Help.jpg",0,0
Video,167,"OP.mp4"
//Break Periods
//Storyboard Layer 0 (Background)
//Storyboard Layer 1 (Fail)
//Storyboard Layer 2 (Pass)
//Storyboard Layer 3 (Foreground)
//Storyboard Layer 4 (Overlay)
//Storyboard Sound Samples

[TimingPoints]
1759,444.444444444444,4,2,1,60,1,0
49758,-100,4,2,1,40,0,0
55092,-100,4,2,1,60,0,1
79970,444.444444444444,4,2,1,60,1,1
83525,-100,4,2,1,60,0,0

[HitObjects]
64,192,1759,5,2,0:0:0:0:
448,192,1759,128,4,2203:0:0:0:0:
192,192,2203,1,2,0:0:0:0:
320,192,2647,1,2,0:0:0:0:
448,192,2870,1,0,0:0:0:0:
192,192,3092,1,2,0:0:0:0:
320,192,3203,1,0,0:0:0:0:
64,192,3536,128,2,3981:0:0:0:0:
448,192,3536,1,0,0:0:0:0:
320,192,3981,1,2,0:0:0:0:
192,192,4425,1,2,0:0:0:0:
64,192,4647,1,0,0:0:0:0:
320,192,4870,1,2,0:0:0:0:
192,192,4981,1,0,0:0:0:0:
64,192,5314,1,2,0:0:0:0:
320,192,5314,128,0,5758:0:0:0:0:
192,192,5758,1,2,0:0:0:0:
448,192,6203,1,2,0:0:0:0:
192,192,6425,1,0,0:0:0:0:
320,192,6647,1,2,0:0:0:0:
64,192,6758,1,0,0:0:0:0:
192,192,7092,128,2,7536:0:0:0:0:
448,192,7092,1,0,0:0:0:0:
320,192,7536,1,2,0:0:0:0:
64,192,7981,1,2,0:0:0:0:
320,192,8203,1,0,0:0:0:0:
448,192,8425,1,2,0:0:0:0:
192,192,8536,1,0,0:0:0:0:
64,192,8870,1,2,0:0:0:0:
448,192,8870,128,0,9314:0:0:0:0:
192,192,9314,1,2,0:0:0:0:
448,192,9758,1,2,0:0:0:0:
64,192,9981,1,0,0:0:0:0:
320,192,10203,1,2,0:0:0:0:
192,192,10314,1,0,0:0:0:0:
64,192,10647,128,2,11092:0:0:0:0:
448,192,10647,1,0,0:0:0:0:
192,192,11092,1,2,0:0:0:0:
320,192,11536,1,2,0:0:0:0:
448,192,11758,1,0,0:0:0:0:
64,192,11981,1,2,0:0:0:0:
192,192,12092,1,0,0:0:0:0:
320,192,12425,128,2,12870:0:0:0:0:
448,192,12425,1,0,0:0:0:0:
64,192,12870,1,2,0:0:0:0:
320,192,13314,1,2,0:0:0:0:
192,192,13536,1,0,0:0:0:0:
448,192,13758,1,2,0:0:0:0:
64,192,13870,1,0,0:0:0:0:
192,192,14203,128,2,14647:0:0:0:0:
448,192,14203,1,0,0:0:0:0:
64,192,14647,1,2,0:0:0:0:
448,192,15092,1,2,0:0:0:0:
192,192,15314,1,0,0:0:0:0:
320,192,15536,1,2,0:0:0:0:
64,192,15647,128,0,15981:0:0:0:0:
320,192,15981,1,2,0:0:0:0:
448,192,15981,128,0,16425:0:0:0:0:
192,192,16425,1,2,0:0:0:0:
64,192,16870,1,2,0:0:0:0:
320,192,17092,1,0,0:0:0:0:
192,192,17314,1,2,0:0:0:0:
448,192,17425,1,0,0:0:0:0:
64,192,17758,128,2,18203:0:0:0:0:
192,192,17758,1,0,0:0:0:0:
320,192,18203,1,2,0:0:0:0:
448,192,18647,1,2,0:0:0:0:
64,192,18870,1,0,0:0:0:0:
320,192,19092,1,2,0:0:0:0:
192,192,19203,1,0,0:0:0:0:
64,192,19536,1,2,0:0:0:0:
320,192,19536,128,0,19981:0:0:0:0:
192,192,19981,1,2,0:0:0:0:
448,192,20425,1,2,0:0:0:0:
192,192,20647,1,0,0:0:0:0:
320,192,20870,1,2,0:0:0:0:
64,192,20981,1,0,0:0:0:0:
192,192,21314,128,2,21758:0:0:0:0:
448,192,21314,1,0,0:0:0:0:
64,192,21758,1,2,0:0:0:0:
192,192,22203,1,2,0:0:0:0:
448,192,22425,1,0,0:0:0:0:
320,192,22647,1,2,0:0:0:0:
192,192,22758,1,0,0:0:0:0:
64,192,23092,1,2,0:0:0:0:
448,192,23092,128,0,23536:0:0:0:0:
192,192,23536,1,2,0:0:0:0:
448,192,23981,1,2,0:0:0:0:
64,192,24203,1,0,0:0:0:0:
320,192,24425,1,2,0:0:0:0:
192,192,24536,1,0,0:0:0:0:
64,192,24870,128,2,25314:0:0:0:0:
448,192,24870,1,0,0:0:0:0:
192,192,25314,1,2,0:0:0:0:
448,192,25758,1,2,0:0:0:0:
192,192,25981,1,0,0:0:0:0:
320,192,26203,1,2,0:0:0:0:
64,192,26314,1,0,0:0:0:0:
192,192,26647,1,2,0:0:0:0:
320,192,26647,128,0,27092:0:0:0:0:
64,192,27092,1,2,0:0:0:0:
320,192,27536,1,2,0:0:0:0:
448,192,27758,1,0,0:0:0:0:
192,192,27981,1,2,0:0:0:0:
320,192,28092,1,0,0:0:0:0:
192,192,28425,128,2,28870:0:0:0:0:
448,192,28425,1,0,0:0:0:0:
320,192,28870,1,2,0:0:0:0:
192,192,29092,1,0,0:0:0:0:
64,192,29314,1,2,0:0:0:0:
320,192,29536,1,8,0:0:0:0:
448,192,29536,1,0,0:0:0:0:
64,192,29758,1,8,0:0:0:0:
192,192,29758,1,0,0:0:0:0:
320,192,29870,1,2,0:0:0:0:
64,192,30092,1,2,0:0:0:0:
448,192,30092,128,4,30647:0:0:0:0:
320,192,30425,1,0,0:0:0:0:
64,192,30647,1,10,0:0:0:0:
192,192,30870,1,0,0:0:0:0:
320,192,31092,128,2,31536:0:0:0:0:
448,192,31536,1,10,0:0:0:0:
192,192,31870,1,8,0:0:0:0:
320,192,31981,1,2,0:0:0:0:
64,192,32203,128,0,32870:0:0:0:0:
448,192,32425,1,10,0:0:0:0:
192,192,32536,1,0,0:0:0:0:
320,192,32870,1,2,0:0:0:0:
192,192,33314,1,10,0:0:0:0:
448,192,33425,1,0,0:0:0:0:
64,192,33647,1,0,0:0:0:0:
320,192,33758,1,2,0:0:0:0:
192,192,33981,1,0,0:0:0:0:
64,192,34203,1,10,0:0:0:0:
448,192,34203,1,4,0:0:0:0:
320,192,34425,1,0,0:0:0:0:
192,192,34647,1,2,0:0:0:0:
448,192,34870,1,0,0:0:0:0:
64,192,34981,1,0,0:0:0:0:
192,192,35092,1,10,0:0:0:0:
448,192,35203,1,0,0:0:0:0:
320,192,35425,1,8,0:0:0:0:
64,192,35536,1,2,0:0:0:0:
320,192,35758,1,8,0:0:0:0:
448,192,35758,1,4,0:0:0:0:
64,192,36092,1,8,0:0:0:0:
192,192,36092,1,4,0:0:0:0:
320,192,36425,1,2,0:0:0:0:
448,192,36425,1,4,0:0:0:0:
64,192,36647,1,0,0:0:0:70:LR_Tom Hit.wav
320,192,36870,1,10,0:0:0:0:
192,192,36981,1,8,0:0:0:0:
448,192,37203,128,0,37758:0:0:0:0:
64,192,37314,1,2,0:0:0:0:
320,192,37536,1,0,0:0:0:0:
192,192,37758,1,10,0:0:0:0:
64,192,37981,1,0,0:0:0:0:
320,192,38203,128,2,38647:0:0:0:0:
448,192,38647,1,10,0:0:0:0:
192,192,38981,1,0,0:0:0:0:
320,192,39092,1,2,0:0:0:0:
64,192,39314,128,0,39981:0:0:0:0:
448,192,39536,1,10,0:0:0:0:
192,192,39647,1,0,0:0:0:0:
320,192,39981,1,2,0:0:0:0:
192,192,40425,1,10,0:0:0:0:
448,192,40536,1,0,0:0:0:0:
320,192,40758,1,8,0:0:0:0:
64,192,40870,1,2,0:0:0:0:
192,192,41092,1,0,0:0:0:0:
320,192,41314,1,10,0:0:0:0:
192,192,41536,1,0,0:0:0:0:
448,192,41758,1,2,0:0:0:0:
64,192,41981,1,0,0:0:0:0:
320,192,42203,1,10,0:0:0:0:
192,192,42314,1,0,0:0:0:0:
64,192,42425,1,0,0:0:0:70:LR_Tom Normal.wav
448,192,42536,1,0,0:0:0:70:LR_Tom Hit.wav
320,192,42647,1,2,0:0:0:0:
64,192,42870,1,8,0:0:0:0:
192,192,42870,1,4,0:0:0:0:
320,192,43203,1,8,0:0:0:0:
448,192,43203,1,4,0:0:0:0:
64,192,43536,1,2,0:0:0:0:
192,192,43536,1,4,0:0:0:0:
448,192,43758,1,0,0:0:0:70:LR_Tom Hit.wav
64,192,43981,1,10,0:0:0:0:
192,192,44092,1,8,0:0:0:0:
320,192,44203,1,0,0:0:0:70:LR_Tom Normal.wav
64,192,44425,1,2,0:0:0:0:
448,192,44425,1,4,0:0:0:0:
320,192,44647,1,0,0:0:0:0:
192,192,44758,1,0,0:0:0:0:
64,192,44870,1,2,0:0:0:0:
448,192,44981,1,0,0:0:0:0:
320,192,45092,1,0,0:0:0:0:
64,192,45314,128,2,45758:0:0:0:0:
448,192,45758,1,2,0:0:0:0:
320,192,45981,1,0,0:0:0:0:
192,192,46092,1,0,0:0:0:0:
64,192,46203,1,2,0:0:0:0:
192,192,46425,1,0,0:0:0:0:
320,192,46536,1,0,0:0:0:0:
448,192,46647,1,2,0:0:0:0:
64,192,46758,1,0,0:0:0:0:
192,192,46870,1,0,0:0:0:0:
448,192,47092,128,2,47536:0:0:0:0:
64,192,47314,1,0,0:0:0:0:
320,192,47536,1,2,0:0:0:0:
192,192,47758,1,0,0:0:0:0:
64,192,47981,1,2,0:0:0:0:
320,192,48203,1,0,0:0:0:0:
192,192,48425,1,2,0:0:0:0:
448,192,48647,1,0,0:0:0:0:
64,192,48870,1,2,0:0:0:0:
448,192,49092,1,0,0:0:0:0:
192,192,49314,1,2,0:0:0:0:
320,192,49536,1,0,0:0:0:0:
64,192,49758,128,10,50647:0:0:0:0:
448,192,49981,1,8,0:0:0:0:
320,192,50203,1,10,0:0:0:0:
192,192,50425,1,8,0:0:0:0:
448,192,50647,128,10,51536:0:0:0:0:
64,192,50870,1,8,0:0:0:0:
192,192,51092,1,10,0:0:0:0:
320,192,51314,1,8,0:0:0:0:
64,192,51536,128,10,53314:0:0:0:0:
192,192,51758,1,8,0:0:0:0:
320,192,51981,1,10,0:0:0:0:
448,192,52203,1,8,0:0:0:0:
192,192,52425,1,10,0:0:0:0:
448,192,52647,1,8,0:0:0:0:
320,192,52870,1,10,0:0:0:0:
192,192,53092,1,8,0:0:0:0:
448,192,53314,1,0,0:0:0:0:
64,192,53758,1,0,0:0:0:0:
448,192,54203,128,0,54425:0:0:0:0:
320,192,54425,128,0,54647:0:0:0:0:
192,192,54647,128,0,54870:0:0:0:0:
64,192,54870,128,0,55092:0:0:0:0:
320,192,55092,1,4,0:0:0:0:
448,192,55092,1,2,0:0:0:0:
448,192,55425,128,0,55758:0:0:0:0:
192,192,55536,1,10,0:0:0:0:
320,192,55758,1,0,0:0:0:0:
64,192,55981,1,2,0:0:0:0:
320,192,56314,128,0,56647:0:0:0:0:
192,192,56425,1,10,0:0:0:0:
448,192,56647,1,0,0:0:0:0:
64,192,56870,1,2,0:0:0:0:
192,192,57203,128,0,57758:0:0:0:0:
448,192,57314,1,10,0:0:0:0:
320,192,57536,1,0,0:0:0:0:
64,192,57758,1,2,0:0:0:0:
320,192,57870,1,8,0:0:0:0:
448,192,58203,1,10,0:0:0:0:
64,192,58314,1,0,0:0:0:0:
192,192,58425,128,0,58647:0:0:0:0:
320,192,58647,1,2,0:0:0:0:
448,192,58981,128,0,59314:0:0:0:0:
64,192,59092,1,10,0:0:0:0:
192,192,59314,128,0,59758:0:0:0:0:
448,192,59536,1,2,0:0:0:0:
64,192,59758,1,0,0:0:0:0:
320,192,59981,1,10,0:0:0:0:
448,192,60203,128,0,60647:0:0:0:0:
192,192,60425,1,2,0:0:0:0:
64,192,60647,128,0,61314:0:0:0:0:
448,192,60870,1,10,0:0:0:0:
320,192,61092,1,0,0:0:0:0:
192,192,61314,1,2,0:0:0:0:
448,192,61425,1,8,0:0:0:0:
320,192,61647,1,8,0:0:0:0:
64,192,61758,1,10,0:0:0:0:
192,192,61981,1,8,0:0:0:0:
320,192,62092,1,8,0:0:0:0:
64,192,62203,1,4,0:0:0:0:
448,192,62203,128,2,62536:0:0:0:0:
192,192,62536,128,0,62870:0:0:0:0:
320,192,62647,1,10,0:0:0:0:
64,192,62870,1,0,0:0:0:0:
448,192,63092,1,2,0:0:0:0:
320,192,63314,128,0,63758:0:0:0:0:
192,192,63536,1,10,0:0:0:0:
64,192,63758,128,0,64203:0:0:0:0:
320,192,63981,1,2,0:0:0:0:
448,192,64203,128,0,64647:0:0:0:0:
64,192,64425,1,10,0:0:0:0:
192,192,64647,128,0,65092:0:0:0:0:
448,192,64870,1,2,0:0:0:0:
320,192,64981,1,0,0:0:0:0:
64,192,65092,1,0,0:0:0:0:
448,192,65314,1,10,0:0:0:0:
192,192,65536,1,0,0:0:0:0:
448,192,65758,1,2,0:0:0:0:
64,192,65981,1,0,0:0:0:0:
320,192,66203,128,10,66647:0:0:0:0:
192,192,66425,1,0,0:0:0:0:
448,192,66647,1,2,0:0:0:0:
64,192,66870,1,0,0:0:0:0:
192,192,67092,1,8,0:0:0:0:
448,192,67314,1,2,0:0:0:0:
320,192,67425,1,2,0:0:0:0:
64,192,67536,1,8,0:0:0:0:
192,192,67536,1,4,0:0:0:0:
320,192,67870,1,8,0:0:0:0:
448,192,67870,1,4,0:0:0:0:
64,192,68203,1,8,0:0:0:0:
192,192,68203,1,4,0:0:0:0:
448,192,68425,128,2,68647:0:0:0:0:
320,192,68647,128,10,68870:0:0:0:0:
192,192,68870,128,10,69092:0:0:0:0:
64,192,69092,128,2,69314:0:0:0:0:
320,192,69314,1,4,0:0:0:0:
448,192,69314,1,2,0:0:0:0:
448,192,69647,128,0,69981:0:0:0:0:
192,192,69758,1,10,0:0:0:0:
320,192,69981,1,0,0:0:0:0:
64,192,70203,1,2,0:0:0:0:
320,192,70536,128,0,70870:0:0:0:0:
192,192,70647,1,10,0:0:0:0:
448,192,70870,1,0,0:0:0:0:
64,192,71092,1,2,0:0:0:0:
192,192,71425,128,0,71981:0:0:0:0:
448,192,71536,1,10,0:0:0:0:
320,192,71758,1,0,0:0:0:0:
64,192,71981,1,2,0:0:0:0:
320,192,72092,1,8,0:0:0:0:
64,192,72425,1,10,0:0:0:0:
448,192,72536,1,0,0:0:0:0:
192,192,72647,128,0,72870:0:0:0:0:
320,192,72870,1,2,0:0:0:0:
448,192,73203,128,0,73536:0:0:0:0:
64,192,73314,1,10,0:0:0:0:
192,192,73536,128,0,73981:0:0:0:0:
448,192,73758,1,2,0:0:0:0:
64,192,73981,1,0,0:0:0:0:
320,192,74203,1,10,0:0:0:0:
448,192,74425,128,0,74870:0:0:0:0:
192,192,74647,1,2,0:0:0:0:
64,192,74870,128,0,75536:0:0:0:0:
320,192,75092,1,10,0:0:0:0:
192,192,75314,1,0,0:0:0:0:
448,192,75536,1,2,0:0:0:0:
320,192,75647,1,0,0:0:0:0:
192,192,75981,128,10,76425:0:0:0:0:
320,192,76203,1,0,0:0:0:0:
64,192,76425,1,4,0:0:0:0:
448,192,76425,128,2,76758:0:0:0:0:
320,192,76758,128,0,77092:0:0:0:0:
192,192,76870,1,10,0:0:0:0:
448,192,77092,1,0,0:0:0:0:
192,192,77314,128,2,77647:0:0:0:0:
320,192,77425,1,0,0:0:0:0:
64,192,77647,128,0,77981:0:0:0:0:
448,192,77758,1,10,0:0:0:0:
320,192,77981,128,0,78425:0:0:0:0:
192,192,78203,1,2,0:0:0:0:
64,192,78425,128,0,78870:0:0:0:0:
320,192,78647,1,10,0:0:0:0:
448,192,78870,128,0,79314:0:0:0:0:
64,192,79092,1,2,0:0:0:0:
320,192,79203,1,0,0:0:0:0:
192,192,79314,1,0,0:0:0:0:
448,192,79536,1,10,0:0:0:0:
64,192,79758,1,0,0:0:0:0:
320,192,79970,1,2,0:0:0:0:
192,192,80192,1,0,0:0:0:0:
448,192,80414,1,10,0:0:0:0:
64,192,80636,1,0,0:0:0:0:
448,192,80858,128,2,81303:0:0:0:0:
320,192,81081,1,0,0:0:0:0:
64,192,81303,1,10,0:0:0:0:
192,192,81525,1,0,0:0:0:0:
320,192,81747,1,2,0:0:0:0:
448,192,81747,1,4,0:0:0:0:
192,192,81858,1,8,0:0:0:0:
64,192,81970,1,8,0:0:0:0:
320,192,82192,1,10,0:0:0:0:
192,192,82414,1,0,0:0:0:70:LR_Tom Normal.wav
448,192,82636,128,2,82858:0:0:0:0:
320,192,82858,128,2,83081:0:0:0:0:
192,192,83081,1,8,0:0:0:0:
448,192,83192,1,8,0:0:0:0:
64,192,83303,128,8,83525:0:0:0:0:
320,192,83525,1,4,0:0:0:0:
448,192,83525,1,2,0:0:0:0:
192,192,83970,1,10,0:0:0:0:
448,192,84192,1,0,0:0:0:0:
320,192,84414,1,2,0:0:0:0:
64,192,84636,1,8,0:0:0:0:
192,192,84858,1,2,0:0:0:0:
320,192,85081,1,8,0:0:0:0:
448,192,85303,1,2,0:0:0:0:
64,192,85525,1,4,0:0:0:0:
192,192,85525,1,8,0:0:0:0:
320,192,85858,1,0,0:0:0:70:LR_Tom Hit.wav
64,192,86192,1,12,0:0:0:0:
192,192,86192,1,2,0:0:0:0:
320,192,86525,1,8,0:0:0:0:
448,192,86525,1,4,0:0:0:0:
192,192,86747,1,8,0:0:0:0:
64,192,86858,1,8,0:0:0:0:
448,192,86858,1,0,0:0:0:0:
